#TITLE:Hipnotizadas;
#SUBTITLE:(SM5-Special);
#ARTIST:Lunae;
#MUSIC:Hipnotizadas (SM5-Special).ogg;
#BANNER:Hipnotizadas (SM5-Special)-bn.png;
#BACKGROUND:Hipnotizadas (SM5-Special)-bg.png;
#LYRICSPATH:;
#CDTITLE:cdtitle.png;
#SAMPLESTART:60.11;
#SAMPLELENGTH:15;
#OFFSET:-0.13;
#BPMS:0.000000=130.000000;
#STOPS:;
#TIMESIGNATURES:0.000000=4=4;
#BGCHANGES:-0.375=Hipnotizadas (SM5-Special).mp4=1.000=1=0=0=StretchNoLoop====,
228.75=Hipnotizadas (SM5-Special)-bg.png=1.000=1=0=0=====,
99999.000=-nosongbg-=1.000=0=0=0=StretchNoLoop====
;
#FGCHANGES:;
#ATTACKS:;
#SPEEDS:0.000000=3.000000=0.000000=0,
0.125000=1.000000=2.375000=0,
8.500000=0.800000=0.250000=0,
9.000000=0.900000=0.250000=0,
9.500000=1.150000=1.000000=0,
11.000000=0.850000=0.250000=0,
11.500000=1.000000=1.000000=0,
23.500000=1.150000=2.000000=0,
25.500000=0.900000=1.000000=0,
26.500000=1.000000=1.000000=0,
68.000000=1.250000=0.000000=0,
68.062500=1.000000=0.500000=0,
82.000000=1.100000=0.000000=0,
82.062500=1.000000=0.250000=0,
82.750000=1.100000=0.000000=0,
82.812500=1.000000=0.250000=0,
83.500000=1.100000=0.000000=0,
83.562500=1.000000=0.250000=0,
84.000000=1.250000=0.000000=0,
84.062500=1.000000=0.500000=0,
98.000000=1.100000=0.000000=0,
98.062500=1.000000=0.250000=0,
98.750000=1.100000=0.000000=0,
98.812500=1.000000=0.250000=0,
99.500000=1.100000=0.000000=0,
99.562500=1.000000=0.250000=0,
100.000000=1.250000=0.000000=0,
100.062500=1.000000=0.500000=0,
104.000000=1.250000=0.000000=0,
104.062500=1.000000=0.500000=0,
116.000000=1.250000=0.000000=0,
116.062500=1.000000=0.500000=0,
120.000000=1.250000=0.000000=0,
120.062500=1.000000=0.500000=0,
128.000000=1.100000=0.000000=0,
128.062500=1.000000=0.250000=0,
128.750000=1.100000=0.000000=0,
128.812500=1.000000=0.250000=0,
129.500000=1.100000=0.000000=0,
129.562500=1.000000=0.250000=0,
130.000000=1.250000=0.000000=0,
130.062500=1.000000=0.500000=0,
136.500000=0.800000=0.250000=0,
137.000000=0.900000=0.250000=0,
137.500000=1.150000=1.000000=0,
139.000000=0.850000=0.250000=0,
139.500000=1.000000=1.000000=0,
151.500000=1.150000=2.000000=0,
153.500000=0.900000=1.000000=0,
154.500000=1.000000=1.000000=0,
168.500000=0.800000=0.250000=0,
169.000000=0.900000=0.250000=0,
169.500000=1.150000=1.000000=0,
171.000000=0.850000=0.250000=0,
171.500000=1.000000=1.000000=0,
183.500000=1.150000=2.000000=0,
185.500000=0.900000=1.000000=0,
186.500000=1.000000=1.000000=0,
228.000000=0.250000=2.000000=0
;
#SCROLLS:0.000000=0.500000,
4.000000=1.000000,
36.000000=0.500000,
47.500000=0.550000,
48.000000=0.600000,
48.500000=0.650000,
49.000000=0.700000,
49.500000=0.750000,
50.000000=0.800000,
50.500000=0.850000,
51.000000=0.900000,
51.500000=0.950000,
52.000000=1.000000,
130.000000=0.500000,
132.000000=1.000000,
146.000000=1.500000,
146.500000=0.500000,
147.000000=1.000000,
162.000000=1.500000,
162.500000=0.500000,
163.000000=1.000000,
178.000000=1.500000,
178.500000=0.500000,
179.000000=1.000000,
194.000000=1.500000,
194.500000=0.500000,
195.000000=1.500000,
195.500000=0.500000,
196.000000=1.000000,
203.000000=1.750000,
203.500000=0.250000,
204.000000=1.000000,
211.000000=1.750000,
211.500000=0.250000,
212.000000=1.000000,
228.000000=4.000000
;
#KEYSOUNDS:;

//---------------dance-single - 8Chasey ---------------
#NOTES:
     dance-single:
     8Chasey:
     Challenge:
     10:
     0,0,0,0,0:
// measure 0
0000
0000
0000
0000
0000
0100
0010
0100
,  // measure 1
1001
0000
1000
0100
0001
0000
0100
0000
1100
0000
1000
0000
0101
0000
0001
0010
,  // measure 2
0001
0000
2000
0000
3200
0000
0320
0000
0001
0000
0000
0031
0100
0000
0020
0000
,  // measure 3
1000
0000
1000
0000
0130
0000
0001
0100
0001
0000
0010
0000
0100
1000
0100
0000
,  // measure 4
1100
0000
1000
0010
0100
0000
0001
0000
0101
0000
0001
0000
2002
0000
3003
0000
,  // measure 5
1001
0000
0001
0010
1000
0000
0010
0000
0011
0000
0001
0000
1001
0000
2010
0000
,  // measure 6
0010
0000
3100
1000
0100
0000
0010
0001
0010
0000
0002
0000
0100
0000
0103
0000
,  // measure 7
0110
0000
0010
0100
0010
0000
1000
0000
2000
0000
0001
0000
3002
0000
0010
0000
,  // measure 8
0103
0000
0010
1000
0100
0000
0010
0001
0100
0000
0010
0000
1000
0000
1001
0000
,  // measure 9
0102
1000
0100
0010
2000
3000
0100
0000
,  // measure 10
2000
3000
0100
0010
2000
3000
0103
0000
,  // measure 11
2100
0001
0100
0010
0002
0003
0100
0000
,  // measure 12
0002
0003
0100
0010
0002
0003
3100
0010
,  // measure 13
0011
0000
0001
1000
0000
1000
0100
0000
0010
0000
0100
1000
0000
1000
0010
0000
,  // measure 14
0100
0000
0001
0010
0000
0001
0100
0000
0010
0000
1000
0010
0001
0000
0010
0000
,  // measure 15
1010
0000
1000
0001
0000
0001
0100
0000
0010
0000
0100
0001
0000
0001
0010
0000
,  // measure 16
0100
0000
1000
0010
0000
1000
0100
0000
0010
0000
0001
0010
1000
0000
0010
0000
,  // measure 17
0110
0000
0000
0100
0001
0000
0010
0000
0100
0000
0000
0100
1000
0000
0010
0000
,  // measure 18
1000
0000
0002
1000
0000
0000
1000
0000
0100
0000
0000
0103
0000
0000
0101
0000
,  // measure 19
0001
0000
0000
0001
0010
0000
0100
0000
0010
0000
0000
0010
0100
0000
1000
0000
,  // measure 20
0020
0000
0000
0001
0000
0000
1030
0000
1010
0000
0000
0101
0000
0000
1001
0000
,  // measure 21
1100
0000
0000
0100
1000
0000
0010
0000
0100
0000
0000
0100
0001
0000
0010
0000
,  // measure 22
0001
0000
2000
0001
0000
0000
0001
0000
0100
0000
0000
3100
0000
0000
1100
0000
,  // measure 23
1000
0000
0000
1000
0010
0000
0100
0000
0010
0000
0000
0010
0100
0000
0001
0000
,  // measure 24
0020
0000
0000
1000
0000
0000
0031
0000
0011
0000
0000
1100
0000
0000
1001
0000
,  // measure 25
0101
0000
0001
0010
0100
0000
1000
0000
0010
0000
1000
0100
0010
0000
0001
0000
,  // measure 26
1000
0000
0100
0001
0100
0000
1000
0000
1010
0000
0000
0010
0100
0000
0001
0000
,  // measure 27
0010
0000
0001
0010
0000
0100
1000
0000
0100
0000
1000
0100
0000
0010
0001
0000
,  // measure 28
1000
0000
0200
0010
0000
0000
0310
0000
0001
0010
0000
0100
1000
0000
1000
0000
,  // measure 29
0100
0000
1000
0010
0100
0000
0001
0000
0010
0000
0001
0100
0010
0000
1000
0000
,  // measure 30
0001
0000
0100
1000
0100
0000
0001
0000
0011
0000
0000
0010
0100
0000
1000
0000
,  // measure 31
0010
0000
1000
0010
0000
0100
0001
0000
0100
0000
0001
0100
0000
0010
1000
0000
,  // measure 32
1100
0000
0100
0010
0000
0001
0010
0000
2001
0000
0100
0000
0001
0000
3100
0000
,  // measure 33
0101
0000
0001
0100
1000
0000
0100
0000
0110
0000
1010
0000
0101
0000
1001
0000
,  // measure 34
1000
0000
0100
0010
0001
0000
0002
0000
0103
0000
0010
0100
1000
0000
0200
0000
,  // measure 35
0301
0000
0010
0001
0010
0000
0100
0000
2000
0000
0010
0000
3001
0000
0100
0000
,  // measure 36
0110
0000
0010
1000
0100
0000
0010
0000
0022
0000
0033
0000
1001
0000
1000
0000
,  // measure 37
1100
0000
1000
0010
0001
0000
0010
0000
0110
0000
0101
0000
1010
0000
1002
0000
,  // measure 38
0010
0000
0000
0013
0100
0000
2100
0000
0010
0000
0010
0000
3001
0000
0100
0001
,  // measure 39
0100
0000
0001
0000
0010
0000
0100
1000
0100
0000
1000
0000
0010
0000
0100
0000
,  // measure 40
0101
0000
0100
1000
0100
0000
0001
0000
2002
0000
3003
0000
1010
0000
0010
0000
,  // measure 41
0110
0000
0100
0001
0010
0000
0100
1000
0010
0000
1010
0000
0101
0000
1001
0000
,  // measure 42
1000
0000
0100
0010
0001
0000
0002
0000
0103
0000
0010
0100
1000
0000
0200
0000
,  // measure 43
0301
0000
1000
1000
0001
0000
0010
0000
0010
0000
0001
0001
1000
0000
0100
0000
,  // measure 44
0110
0000
0010
0001
0100
0000
0010
1000
0200
0000
1300
0000
1001
0000
0001
0000
,  // measure 45
0110
0000
0100
0010
1000
0000
0100
0010
0001
0000
0011
0000
1100
0000
2001
0000
,  // measure 46
0010
0000
0000
3010
0100
0000
0102
0000
0010
0000
0010
0000
1003
0000
0100
1000
,  // measure 47
0100
0000
1000
0100
0010
0000
0001
0000
0010
0000
0001
0100
0010
0000
1000
0000
,  // measure 48
1100
0000
0100
0010
0001
0000
0011
0000
1001
0000
0010
0000
1001
0000
0100
0000
,  // measure 49
0101
0000
0001
0010
0001
0000
1001
0000
1100
0000
1000
0010
1000
0000
1001
0000
,  // measure 50
0001
0000
0010
0100
1000
0000
1100
0000
0011
0000
0001
0000
2002
0000
3003
0000
,  // measure 51
1010
0000
1000
0100
0010
0000
0001
0000
0011
0000
0001
1000
0001
0000
1001
0000
,  // measure 52
1000
0000
0100
0010
0001
0000
0011
0000
1100
0000
1000
0000
2002
0000
3003
0000
,  // measure 53
1010
0000
0010
0100
0000
0100
0001
0000
0010
0000
0100
1000
0000
0100
0010
0000
,  // measure 54
0001
0000
1000
0010
0000
0001
0010
0000
1000
0000
0100
0010
0001
0000
1001
0000
,  // measure 55
0011
0000
0010
0100
0000
0100
1000
0000
0010
0000
0100
0001
0000
0100
0010
0000
,  // measure 56
1000
0000
0001
0010
0000
1000
0010
0000
0011
0000
0001
0010
0100
1000
0001
0000
,  // measure 57
2002
00M0
0M00
00M0
0M00
00M0
0M00
00M0
3M03
0000
0000
0000
0000
0000
0000
0000
;
