#TITLE:you're free to do whatever you want to;
#SUBTITLE:;
#ARTIST:bill wurtz;
#TITLETRANSLIT:;
#SUBTITLETRANSLIT:;
#ARTISTTRANSLIT:;
#GENRE:;
#CREDIT:8Chasey 2026 / BWE Volume 3;
#MUSIC:you're free to do whatever you want to.ogg;
#BANNER:;
#BACKGROUND:;
#CDTITLE:;
#SAMPLESTART:40.107;
#SAMPLELENGTH:15.000;
#SELECTABLE:YES;
#OFFSET:-0.475;
#BPMS:0.000=95.000;
#STOPS:109.500=1.263;
#BGCHANGES:-0.625=you're free to do whatever you want to.mp4=1.000=0=0=0=,
150.75=you're free to do whatever you want to-bg.png=1.000=1=0=0=;
#FGCHANGES:;

//--------------- dance-single - BRAND NEW ----------------
#NOTES:
     dance-single:
     BRAND NEW:
     Beginner:
     2:
     0,0,0,0,0:
0000
0000
0000
0000
,
0000
0000
0000
0000
,
0001
0000
0001
0000
,
1000
0000
1000
0000
,
1001
0000
0001
0001
,
0001
0000
0100
0000
,
0010
0000
1000
1000
,
1000
0000
0001
0000
,
1001
0000
0010
0000
,
1001
0000
0100
0000
,
0110
0000
0000
0000
,
0010
0000
0010
0000
,
0000
0100
0100
0000
,
0010
0000
0010
0000
,
1000
1000
1000
0000
,
0001
0001
0001
0000
,
1001
0000
0001
0000
,
1001
0000
1000
0000
,
0110
0000
0000
0000
,
0100
0100
0100
0000
,
0001
0000
0100
0000
,
0001
0000
0100
0000
,
0010
0000
1000
0000
,
0010
0000
1000
0000
,
0001
0000
0100
0000
,
0010
0000
1000
0000
,
0001
0000
1000
0000
,
1001
0000
0000
0000
,
0001
0000
0001
0000
,
1000
0000
1000
0000
,
0001
0000
1000
0000
,
0110
0000
0000
0000
,
0010
0000
0010
0000
,
0100
0000
0100
0000
,
0001
0000
1000
0000
,
1001
0000
0000
0000
,
0010
0000
0100
0000
;

//--------------- dance-single - EASY WAY ----------------
#NOTES:
     dance-single:
     EASY WAY:
     Easy:
     4:
     0,0,0,0,0:
0000
0000
0000
0000
,
0000
0000
0000
0000
,
0001
0000
0000
0000
1000
0000
0000
0001
0000
0000
0000
0000
0000
0000
0000
0000
,
1000
0000
0000
0000
0001
0000
0000
1000
0000
0000
0000
0000
0000
0000
0000
0000
,
1001
0000
0000
0000
0001
0000
0000
0010
0000
0000
0000
0000
0001
0000
0000
1000
,
0000
0100
0100
0100
,
0000
0000
0000
0000
1000
0000
0000
0010
0000
0000
0000
0000
1000
0000
0000
0001
,
0000
0010
0010
0010
,
0110
0000
0000
0000
0100
0000
0000
0000
0010
0000
0000
0010
0000
0000
0000
0000
,
0110
0000
0000
0000
0010
0000
0000
0000
0100
0000
0000
0100
0000
0000
0100
0000
,
0000
0000
1000
1000
,
0001
0000
0001
0000
0000
0100
0000
0000
,
0000
0000
0000
0000
0010
0000
0000
0000
0110
0000
0000
0000
0100
0000
0000
0100
,
0000
0000
0010
0100
0010
0000
0100
0000
,
1000
0001
0100
0010
,
1001
0000
0001
1000
,
1001
0000
0000
0001
0000
0000
1000
0000
0000
0000
0001
0000
1000
0000
0000
0000
,
0010
0000
0000
1000
0000
0000
0001
0000
0000
0000
1000
0000
0001
0000
0000
0100
,
0000
0000
0010
0100
,
0001
0010
0100
1000
,
0001
0000
0100
0001
0100
0000
0100
0000
,
0010
1000
0001
0000
,
1000
0000
0100
1000
0100
0000
0100
0000
,
0010
0001
1000
0000
,
1100
0100
0110
0000
,
0011
0010
1001
0000
,
0101
0100
1010
0010
,
0100
0000
0000
0100
0000
0000
0001
0000
0000
0000
0000
0000
0000
0000
0000
0000
,
0100
0000
0000
0000
0010
0000
0000
0100
0000
0000
0000
0000
0000
0000
0000
0000
,
0010
0000
0000
0000
0100
0000
0000
0010
0000
0000
0000
0000
0000
0000
0000
0000
,
1000
0000
0000
0000
1000
0000
0000
0001
0000
0000
0000
0001
0000
0000
0100
0000
,
0000
0100
0000
0010
0000
0010
0000
1000
,
0000
0100
0000
1000
0000
1001
0000
0010
,
0000
0001
0000
0010
0000
0110
0000
0100
,
0000
0010
0000
0001
0000
1000
0000
1001
,
0000
0001
0000
0100
0000
0010
0000
1000
,
0001
0000
0000
0000
0000
0000
0000
0010
0000
0100
0000
0000
0000
0000
0000
0000
;

//--------------- dance-single - GET REAL ----------------
#NOTES:
     dance-single:
     GET REAL:
     Medium:
     6:
     0,0,0,0,0:
0000
0000
0000
0000
,
0000
0000
0000
0000
,
0001
0000
0100
0000
1000
0000
0100
0000
0001
0000
0000
0010
0000
0000
0001
0000
,
1000
0000
0100
0000
0001
0000
0100
0000
1000
0000
0000
0010
0000
0000
1000
0000
,
0001
0000
0100
0000
0001
0000
0000
0010
0000
0000
0001
0000
1000
0000
0000
0100
,
0000
0000
0010
0000
0100
0000
0010
0000
0100
0000
0000
0100
0000
0000
0100
0000
,
0000
0000
0010
0000
0001
0000
0000
1000
0000
0001
0000
1000
0000
0000
0000
0010
,
0000
0000
0100
0000
0010
0000
0000
0100
0000
0000
0001
0000
0100
0000
0010
0000
,
1000
0000
0000
0000
1000
0000
0100
0000
1000
0000
0000
0001
0000
0000
0010
0000
,
0001
0000
0000
0000
0001
0000
0100
0000
0001
0000
0000
1000
0000
0000
0010
0000
,
0100
0000
0010
0000
1000
0100
0001
0010
,
1000
0000
0001
1000
0000
0000
0001
0000
0000
0000
0100
0000
0000
0100
0000
0000
,
0100
0000
0001
0000
0010
0000
0100
0000
0010
0000
0001
0000
1000
0000
0000
0010
,
0000
1000
1000
0001
0010
0000
0010
0000
,
0010
0001
1000
0100
0010
0000
0100
0000
,
0110
0000
0010
0001
1000
0000
0100
0010
,
0001
1000
0000
1001
0000
0000
0001
0000
0010
0000
0001
0000
1000
0000
0100
0000
,
1000
0000
0010
0000
0001
0000
0100
0000
1000
0000
0010
0000
0100
0000
0000
0010
,
0000
0000
0000
0000
1000
0100
0000
0100
,
0010
0001
1000
0000
1001
0000
0001
1000
,
0001
0000
0000
0000
0100
0000
0000
0000
0010
0000
0000
1000
0000
0000
0010
0000
,
1000
0000
0000
0000
0100
0000
0000
0000
0010
0000
0000
0001
0000
0000
0010
0000
,
0100
0000
0010
0000
0011
0000
0001
0100
,
0001
0000
1000
0000
1010
0000
0010
0100
,
0010
0000
1000
0000
1100
0000
1000
0100
,
0010
0000
0001
0000
0101
0000
0100
1000
,
0100
0001
1000
0000
0100
0000
0100
0010
,
0001
0000
0000
1000
0000
0000
1001
0000
0000
0000
0000
0000
0000
0000
0000
0000
,
0001
0000
0010
0000
0100
0000
0010
0000
0001
0000
0000
1000
0000
0000
0001
0000
,
1000
0000
0100
0000
0010
0000
0100
0000
1000
0000
0000
0001
0000
0000
1000
0000
,
0010
0000
0100
0000
0001
0000
0010
0000
0100
0000
0000
1000
0000
0000
1001
0000
,
0000
0000
0000
0001
0000
0000
0110
0000
0000
0000
0000
1000
0000
0000
0100
0000
,
0000
0100
0000
0010
0000
0000
0100
0000
0000
0000
0000
0010
0000
0000
0010
0000
,
0000
0000
0000
0100
0000
0000
0010
0000
0000
0000
0000
0001
0000
0000
0100
0000
,
0000
0000
0000
1000
0000
0000
0100
0000
0000
0000
0000
0001
0000
0000
1000
0000
,
0000
0000
0000
1000
0000
0000
0001
0000
0000
0000
0000
0100
0000
0000
0001
0000
,
0010
0000
0100
0000
0010
0000
0100
0010
0000
0100
0000
0000
0000
0000
0000
0000
;

//--------------- dance-single - SO HARD TO DO ----------------
#NOTES:
     dance-single:
     SO HARD TO DO:
     Hard:
     8:
     0,0,0,0,0:
0000
0000
0000
0000
,
0000
0000
0000
0000
,
0001
0100
0001
0100
0001
0100
0001
0100
0000
0010
0000
0000
1000
0000
0001
0000
,
1000
0100
1000
0100
1000
0100
1000
0100
0000
0010
0000
0000
0001
0000
1000
0000
,
1001
0000
0000
0000
0001
0000
0000
0010
0001
0000
0100
0001
0100
0000
0001
0000
,
1000
0000
0000
0000
0010
0100
0010
0000
1000
0000
0100
1000
0000
0001
0100
0000
,
0001
0000
0010
0000
0001
0000
0100
0010
0000
0010
0000
0010
0000
0100
0010
0000
,
0100
0000
0010
1000
0000
0000
0001
1000
0000
0000
0100
0000
0010
0100
0010
0000
,
0011
0000
0000
0001
0000
0000
0100
0000
0001
0000
1000
0001
0000
1000
0000
0000
,
1010
0000
0000
1000
0000
0000
0100
0000
1000
0000
0001
1000
0000
0001
0000
0100
,
0010
0000
0000
0100
0000
0000
0010
0000
1000
0000
0100
1000
0100
1000
0100
0000
,
1000
0000
0001
0010
0000
0001
0000
0010
0000
0000
1100
0000
1000
0001
1000
0000
,
0001
0000
0100
0001
0010
0000
0100
1000
0010
0000
1000
0000
0010
0100
0010
0100
,
0000
0000
0001
0000
0010
0001
1000
0000
0010
0000
1000
0000
0100
0000
1000
0000
,
0001
0000
0001
0000
0010
0001
0010
0000
0001
0000
0100
0001
0000
0100
0001
0000
,
1000
0000
0010
0000
0100
0000
0010
0000
1000
0000
0000
0001
0010
0000
0001
0000
,
1001
1000
0000
0011
0000
0001
0010
0001
0100
0010
1000
0100
1000
0010
0100
0000
,
0110
0000
1010
0000
1000
0100
1000
0001
0100
0010
1000
0001
0010
0100
0000
0110
,
0000
0000
0000
0000
0010
0001
0100
0001
,
0100
0000
0010
1000
0010
1000
0000
0000
1001
0000
0000
0000
0001
0000
0100
0000
,
0101
0000
0000
0000
0100
0000
0010
0000
1010
0000
0000
1000
0000
0100
1000
0000
,
0001
0000
0010
0000
0001
0000
1000
0000
1001
0000
0000
0000
0001
0010
0001
0000
,
0100
0000
0010
1000
0000
0010
1000
0000
0001
0000
0000
0010
0001
0000
0100
0001
,
0100
0001
0000
0100
0000
0001
1000
0000
1001
0000
0000
0000
0001
0000
0010
0000
,
0100
0000
0000
1000
0000
1000
0000
0000
1010
0000
0000
0000
0010
0000
0100
0000
,
0001
0000
0100
0001
0000
0010
0000
0000
0011
0000
0000
0010
0100
0000
0010
0000
,
0100
0000
1000
0001
0000
0100
0001
0000
0101
0000
0000
0000
0001
0000
0010
0000
,
0001
0000
0000
1100
0000
0000
1001
0000
0000
0000
0000
0000
0000
0000
0000
0000
,
0001
0010
0001
1000
0001
0010
0001
1000
0000
1100
0000
0000
1000
0000
0100
0000
,
1000
0010
1000
0001
1000
0010
1000
0001
0000
0101
0000
0000
0001
0000
1000
0000
,
0100
1000
0001
0100
0100
0001
1000
1001
,
0000
0000
0000
0010
0000
0000
0110
0000
0000
0000
0000
0010
0100
0000
0001
0000
,
0010
0001
0000
0010
0001
0000
0100
0000
0001
0000
1000
0000
0010
0000
0100
0000
,
0010
1000
0000
0010
1000
0000
0100
0000
1000
0000
0001
0000
0100
0000
0110
0000
,
0000
0000
0010
1000
0010
0000
0100
0000
0001
0000
0010
0000
0000
0000
0001
0000
,
1000
0000
0000
0000
0100
1000
0100
0000
1000
0001
1000
0000
0001
0000
0010
0000
,
0100
0010
0100
0010
0100
0010
0100
0010
0000
0110
0000
0000
0000
0000
0000
0000
;
