#TITLE:where i've been;
#SUBTITLE:;
#ARTIST:bill wurtz;
#TITLETRANSLIT:;
#SUBTITLETRANSLIT:;
#ARTISTTRANSLIT:;
#GENRE:;
#CREDIT:8Chasey 2026 / BWE Volume 3;
#MUSIC:where i've been.ogg;
#BANNER:;
#BACKGROUND:;
#CDTITLE:;
#SAMPLESTART:63.750;
#SAMPLELENGTH:12.000;
#SELECTABLE:YES;
#OFFSET:-1.014;
#BPMS:0.000=94.000
,180.000=47.000
,184.000=94.000
,194.000=47.000
,196.000=94.000
;
#STOPS:135.000=0.638
,136.000=0.638
;
#DISPLAYBPM:94.000;
#BGCHANGES:-0.250=where i've been.mp4=1.000=0=0=0=StretchNoLoop====,
99999.000=-nosongbg-=1.000=0=0=0=StretchNoLoop====
;
#FGCHANGES:;

//--------------- dance-single - BRAND NEW ----------------
#NOTES:
     dance-single:
     BRAND NEW:
     Beginner:
     5:
     0,0,0,0,0:
0000
0000
0000
0000
,
0000
0000
0000
0000
,
0010
0000
0100
0000
,
0010
0000
0100
0000
,
0001
0001
0001
0001
,
0000
1000
0001
0000
,
1000
1000
1000
1000
,
0000
0001
1000
0000
,
0010
0000
0100
0000
,
0010
0000
0110
0000
,
0100
0100
0100
0100
,
0000
0010
0100
0000
,
0010
0010
0010
0010
,
0000
0100
0010
0000
,
0010
0010
0000
0100
,
0100
0000
0001
0000
,
0100
0100
0000
0010
,
0010
0000
1000
0000
,
1001
0000
0001
0000
,
1000
1000
1000
0000
,
0001
0001
0001
0000
,
0100
0000
0010
0010
,
0000
0100
0100
0000
,
0001
1000
0000
1001
,
0000
0000
0000
0001
,
0001
0000
0000
1000
,
1000
0000
0000
0010
,
0010
0000
0000
0100
,
0010
0100
0000
1000
,
1000
0000
0000
0001
,
0001
0000
0000
0100
,
0100
0000
0000
0010
,
0100
0010
0000
0100
,
0000
0000
1001
0000
,
0000
0000
0001
1000
,
0001
1000
0000
0001
,
0001
0000
1000
0001
,
1000
0001
0000
1000
,
1000
0000
0010
0100
,
0010
0000
0100
0010
,
0100
0000
0001
0001
,
0000
1000
1000
0000
,
0001
0000
0001
0000
,
1000
1000
0001
0001
,
1000
0000
1000
0000
,
0000
0010
0000
0010
,
0000
0100
0010
0100
,
0010
0100
0100
0010
,
0010
0110
0000
0000
,
0001
0001
0000
0001
,
1000
1000
0000
1000
,
0001
0000
1000
0000
,
0010
0100
0000
0110
,
0010
0010
0000
0010
,
0100
0100
0000
0100
,
0010
0000
0100
0000
,
0001
1000
0000
1001
,
0001
0000
0001
0000
,
1000
0000
1000
0000
,
0001
0000
1000
0000
,
0000
1001
0000
0010
,
0000
0010
0000
0100
,
0000
0100
0000
0010
,
0000
0100
0000
0110
,
0000
0000
0010
0000
,
0000
0010
0010
0000
,
0000
0100
0100
0000
,
0100
0000
0001
0001
,
0000
1000
1000
0000
,
0001
0001
0000
1000
,
1000
0000
0000
0010
,
0100
0110
0000
0000
,
0000
0100
0010
0100
;

//--------------- dance-single - EASY WAY ----------------
#NOTES:
     dance-single:
     EASY WAY:
     Easy:
     6:
     0,0,0,0,0:
0000
0000
0000
0000
,
0000
0000
0000
0000
,
0001
0001
1000
0001
,
0100
0000
0100
0000
0010
0100
0010
0000
,
1000
1000
0001
1000
,
0010
0000
0010
0000
0100
0010
0100
0000
,
0001
0010
0100
1000
,
0010
0100
0010
0000
0100
0000
0001
0000
,
1001
1000
0010
0100
,
0001
0000
0110
0000
0000
0010
0010
0000
,
1000
0001
0100
0010
,
1000
0101
0001
1100
,
0100
0010
0001
1000
,
0000
0000
0000
0000
,
0010
0000
0010
0000
0100
0010
0100
0000
,
0100
0001
1000
0100
,
0010
0001
1000
0100
,
0100
0010
0100
0010
,
0110
0100
1000
0010
,
0100
0000
0000
0000
0001
0000
0000
0000
1000
0000
0000
1000
0000
0000
1000
0000
,
0000
0000
0000
0000
0001
0000
0000
0001
0000
0000
0001
0000
0000
0000
0000
0000
,
1001
0000
1000
0010
,
1000
0001
0100
0001
,
0100
0110
0010
1001
,
0000
0110
0100
0001
,
0001
1000
0001
1000
,
1000
0000
0001
1000
0001
0000
0010
0000
,
0010
0100
0100
1000
,
0001
1000
0001
0100
,
0100
0001
1000
0010
,
0010
0000
1000
0001
,
0001
1000
1000
0001
,
0100
0110
0000
0010
,
1000
0001
1001
0100
,
0100
0100
0010
0100
,
0001
1000
0010
0110
,
0100
0001
0100
0010
,
1000
0001
0100
0110
,
0010
1000
0100
1000
,
0010
0000
0001
0000
0010
1000
0010
0000
,
1000
0001
0100
0001
,
0010
0000
1000
0000
0010
0001
0010
0000
,
0100
0100
0010
0001
,
0001
1000
0010
0110
,
0100
0000
0001
0000
1000
0000
0001
0001
,
0000
1000
0001
1001
,
0000
1000
0010
0000
1000
0000
0001
0000
,
0100
0001
1000
0001
,
0010
0000
0010
0000
0000
0100
0000
0100
,
0010
1001
1000
0100
,
1000
0010
0000
0100
,
0001
0100
0010
0010
,
0100
0000
0000
0000
0100
0000
0000
0000
0001
0000
0000
1000
0000
0001
0000
0000
,
1000
1001
0001
0100
,
0001
0010
0000
0100
,
1000
0000
0100
0000
1000
0000
0000
1000
,
0000
0000
0000
0000
0001
0000
0000
0000
0000
0000
0000
0001
0000
0000
0000
0000
,
0100
0010
0100
0100
,
0001
1000
0001
0001
,
0010
0000
0000
0000
0000
0000
0000
0000
0100
0000
0000
0000
0000
0000
0000
1000
,
0000
0000
0000
1001
0000
0000
0000
0001
0000
0000
0000
0000
0100
0000
0000
0000
,
0001
0100
0100
0010
,
1000
0010
0010
1000
,
0001
1001
0000
1000
,
0000
0001
0000
0100
,
0000
0010
0100
0000
,
0010
0100
0010
1000
,
0001
0001
1000
1000
,
0000
0010
0100
0100
,
0010
1000
0001
1000
,
0001
1000
0010
0100
,
0000
0110
0000
0000
0010
0000
0000
0000
,
1000
1000
0001
0100
;

//--------------- dance-single - GET REAL ----------------
#NOTES:
     dance-single:
     GET REAL:
     Medium:
     7:
     0,0,0,0,0:
0000
0000
0000
0000
,
0000
0000
0000
0000
,
0010
0000
0000
0010
0000
0000
0000
0000
1000
0000
0000
0000
0001
0000
1000
0000
,
0001
0000
1100
0000
1000
0001
1000
0000
,
0001
0000
0000
1000
0000
0000
0001
0000
0010
0000
0000
0000
0100
0000
0000
0010
,
0000
0000
0000
0000
0001
0000
0000
0010
0000
0000
0001
0000
1000
0000
0000
0000
,
0100
0000
0000
0100
0000
0000
0000
0000
0010
0000
0000
0000
0001
0000
0000
0000
,
1000
0001
0100
0000
0010
0000
0100
0100
,
0001
1010
0100
0011
,
0010
0000
0000
0000
0100
0000
0010
0000
0000
0100
0000
0000
0010
0000
0000
0000
,
1001
0000
0001
0100
1000
0000
0100
0000
,
0010
0100
0010
0000
1000
0000
0001
0000
,
0010
0000
0000
0001
0000
0000
0010
0000
0100
0000
0000
0100
0000
0000
0000
0000
,
1000
0000
0000
0000
0001
0000
0100
0010
,
0100
0000
0000
0010
0000
0000
0000
0010
0000
0010
0000
0000
0100
0000
0000
0000
,
0001
0000
0100
0000
0001
0000
0000
1000
0000
0000
0001
0000
1000
0000
0000
0000
,
0010
0000
0000
0100
0000
0000
0001
0000
1000
0000
0000
0000
0100
0000
0000
0000
,
0010
0000
0000
0000
0100
0000
0000
1000
0000
0000
0000
0001
0000
0000
0000
0000
,
1000
0000
0000
1000
0000
0000
0001
0000
1000
0000
0000
0000
0001
0000
0000
0001
,
0000
1000
0000
0000
0001
0000
0000
0000
0100
0000
0000
0100
0000
0000
0010
0000
,
0000
0010
0000
0000
1000
0000
0000
0001
0000
0000
1000
0000
0100
0000
0000
0000
,
0011
0000
0010
0001
0100
0010
1000
0000
,
0010
1000
0100
0010
0001
0000
1000
0010
,
1000
0000
0001
0100
0001
0000
1001
0000
,
0000
0000
0000
0000
1000
0001
0000
0000
1000
0000
0000
0000
0100
0000
0010
0000
,
0100
0000
0010
0000
0001
0000
0100
0010
,
0100
0000
0010
0000
1000
0000
0001
0100
,
0001
0000
0010
0000
0001
1000
0010
0000
,
0100
0000
0010
0000
0110
0000
0100
0001
,
0100
0000
0001
0000
0010
0000
0100
1000
,
0100
0000
0010
0000
0001
0000
1000
0001
,
1000
0000
0001
0000
0010
0100
1000
0000
,
0001
0000
1001
0000
0000
0001
1000
0000
,
0010
0000
0000
0100
0000
0010
0000
0000
0200
0000
0000
0000
0010
0000
0000
0000
,
0010
0300
0000
0000
1001
0000
0000
0000
0001
0000
0000
1000
0001
0000
0000
0000
,
0010
0000
0001
0000
0100
0000
0000
0000
0010
0000
0000
1000
0010
0000
0000
0000
,
1000
0000
0001
0000
1000
0000
0000
0000
0100
0000
0000
0010
0100
0000
0000
0000
,
0010
0000
1001
0000
0001
0100
0001
0000
,
1000
0000
0000
0010
0000
0000
1000
0000
0001
0000
0000
0001
0100
0000
0000
0000
,
0010
0000
0010
0000
0100
0000
0000
0010
0000
0000
0100
0000
0001
0000
0000
0000
,
0010
0000
0000
0000
0100
0000
0100
0000
1000
0000
0000
1000
0100
0000
0000
0000
,
0010
0000
0010
0000
0001
0000
0000
0001
0100
0000
0000
0000
0110
0000
0000
0000
,
0010
0000
1000
0000
0000
0010
0000
0000
1000
0000
0000
0000
0001
0000
0000
0000
,
0100
0001
0100
0000
0010
1000
0010
0000
,
1000
0000
0000
0001
0000
0000
1000
0000
0010
0000
0000
0000
0000
0000
0100
0000
,
0001
0000
1001
1000
0100
0010
0110
0000
,
0000
0010
0001
0000
1001
0000
1000
0100
,
1100
0000
0000
0000
0010
0000
0001
0000
0011
0000
0000
0001
0000
0000
1000
0000
,
0010
0000
0000
0000
0110
0000
0000
0000
0100
0000
0001
0000
1000
0000
0010
0010
,
0010
0000
0110
0000
0100
0001
0100
0010
,
1000
0000
0000
0000
1001
0000
0000
0000
0000
0100
0000
0100
0000
0001
0000
0000
,
1000
0100
1000
0000
0010
0000
1000
0100
,
0010
0000
0001
0000
0100
0000
0000
0000
0010
0000
0000
1000
0000
1001
0000
0000
,
0001
0000
1001
0000
1000
0100
1000
0000
,
0010
0000
0110
0000
0100
0001
0010
0100
,
1000
0000
0010
1000
0010
0000
0100
0001
,
0100
0000
0000
0000
0010
0000
1000
0000
0000
0000
0000
1100
0000
0000
0000
0000
,
1000
0000
0000
0000
0001
0000
0010
0000
0001
0000
0000
0101
0000
0000
0000
0000
,
0001
0000
0000
0000
1000
0000
0010
0000
1000
0000
0000
1001
0000
0000
0000
0000
,
0010
0000
0000
0000
0100
0000
0010
0000
0100
0000
0000
0100
0000
0000
0000
0010
,
0000
0100
0000
0010
0000
0000
0000
1010
0000
0000
0000
0000
1000
0000
0000
0000
,
0001
0000
1000
0000
0001
0000
0000
0011
0000
0000
0000
0000
0001
0000
0000
0000
,
1000
0000
0001
0000
1000
0000
0000
0010
0000
0000
0100
0000
0010
0000
0000
0000
,
0100
0000
0110
0000
0000
0000
0010
1000
,
0000
0100
0000
0010
0000
0001
0000
0100
,
0000
0010
0100
0010
0100
0000
0001
0000
,
0000
1000
0001
1000
0001
0000
1000
0100
,
0000
0100
0000
0000
0000
0000
1000
0000
0001
0000
1000
0000
0001
0000
0000
0000
,
0000
0000
0100
0000
0010
0000
0100
0000
0010
0000
0000
0010
0000
0000
0000
0000
,
1000
0000
0001
0000
0100
0000
0000
0100
0000
0000
0000
0000
0110
0000
0000
0000
,
0010
0000
1000
0000
0010
0000
0000
0000
0100
0000
0001
0000
0100
0000
0000
0010
,
0000
0000
0010
0000
0000
0000
0000
0000
1000
0000
0000
0001
0000
0000
0000
0000
,
0000
0000
0000
0010
0000
0001
0000
1000
0000
0000
0000
0000
1001
0000
0000
0000
;

//--------------- dance-single - SO HARD TO DO ----------------
#NOTES:
     dance-single:
     SO HARD TO DO:
     Hard:
     8:
     0,0,0,0,0:
0000
0000
0000
0000
,
0000
0000
0000
0000
,
0100
0000
0010
0000
1000
0100
0000
1000
0100
0000
0000
0000
1000
0010
0000
0000
,
1000
0001
0000
0000
0010
0000
0000
0000
0001
0000
0100
0000
0001
0000
0000
0000
,
0010
0000
0010
0000
0001
0010
0000
0000
0001
0000
0000
0000
0100
0000
0000
0001
,
0100
0000
0010
0000
1000
0000
0000
0010
0100
0000
0001
0000
0010
0000
0000
0000
,
0001
0000
0100
0000
1000
0000
0000
0100
0010
0000
1000
0000
0100
0000
0000
0000
,
1000
0000
0000
0001
1000
0000
0000
0000
0001
0000
0000
0100
0000
0001
0100
0000
,
0010
0000
0000
1000
0100
0000
0000
0000
0010
0000
0000
0001
0100
0000
0000
0000
,
0001
0000
0000
0000
0000
0000
0000
0000
0000
0000
0000
0000
1000
0000
0000
0001
0000
0000
0000
0000
0000
0000
0000
0000
1000
0000
0000
0000
0001
0000
0000
0000
0010
0000
0000
0000
0100
0000
0000
0000
0000
0000
0000
0000
0000
0000
0000
0000
,
0110
0000
0000
0010
0001
0000
0000
0001
0100
0000
0001
0000
1000
0000
0000
1000
,
0100
0000
0010
0000
0011
0000
0000
0000
0001
1000
0000
0001
1000
0000
0100
0000
,
1000
0000
0000
1000
0001
0000
0010
0000
0001
0000
0100
0000
1000
0100
0000
0000
,
0001
0000
0000
0010
0001
0000
0100
0000
0010
0000
1000
0001
0000
0001
1000
0000
,
0100
0000
1000
0010
1000
0000
0001
0100
0000
0001
0000
0000
0100
0000
0000
0100
,
0010
0000
1000
0000
0100
0000
0000
1000
0001
0000
0010
0000
0001
0000
0100
0000
,
0010
0000
0000
1000
0010
0000
1000
0000
0001
0000
0000
0000
0100
0000
0000
0000
,
0010
0000
0100
0000
0010
0000
0000
1010
0000
0000
0000
0011
0000
0001
0000
0000
,
1001
0000
0000
1000
0100
0000
1000
0000
0001
0000
0000
0000
0010
0000
0001
0100
,
0000
0001
0000
0001
1000
0000
0000
0000
1100
0000
0000
1000
0000
0000
0101
0000
,
0000
0001
0000
0000
0010
0000
0000
0100
0010
0000
0100
0000
1000
0000
0001
0000
,
1001
0000
0000
1000
0010
0000
1000
0100
0000
1000
0001
0000
0100
0000
0000
0001
,
0010
0000
0001
0000
0100
0000
0010
0000
1000
0000
0000
1000
0100
0000
1000
0000
,
0001
0010
0000
0010
0001
0000
0000
1000
0100
0000
1000
0000
1001
0000
0000
0000
,
0000
0000
0000
0000
0001
0001
0000
0000
0100
0000
0001
0000
1000
0000
0000
1000
,
0010
0000
0000
0010
0100
0000
0000
0100
0001
0000
0100
0000
0001
0000
0000
0001
,
0010
0000
0000
0010
0100
0000
0000
0100
1000
0000
0010
0000
1000
0000
0000
1000
,
0001
0000
0000
0001
0010
0000
0000
0010
0100
0000
0000
0100
1000
0000
0000
0001
,
1000
0000
0001
0000
0100
0001
0000
0010
0001
0000
1000
0001
1000
0000
0000
0001
,
0010
0000
0000
0000
0001
0000
0100
0000
0010
0000
0100
0000
0001
0000
0000
1000
,
0010
0000
0000
0010
0000
0000
0100
0010
0000
0100
0010
0000
1000
0000
0000
1000
,
0100
0000
0000
0100
0010
0000
0000
0010
0001
0000
0000
0001
0100
0000
0000
0010
,
0100
0000
0000
0100
0010
0000
0000
0000
0000
0000
0000
0000
1100
0000
0000
1000
,
0001
0000
1000
0010
0000
0100
0000
0000
0101
0000
0000
0000
1010
0000
0000
0000
,
0011
0000
0000
0000
1001
0000
0000
0000
1000
0100
0000
1000
0001
0000
0000
0000
,
0010
0000
0001
0000
0100
0000
0000
0100
0010
0000
0000
0010
0100
0000
0001
0000
,
0100
0000
1000
0000
0100
0000
0000
0000
0010
1000
0000
0010
1000
0000
0000
0000
,
0100
0000
1000
0000
0001
0000
0000
0100
0001
0000
1000
0000
0010
0000
0100
0000
,
0010
0000
0000
0010
0100
0000
0000
0000
0001
0010
0000
0001
0100
0000
0000
0000
,
0010
0000
1000
0000
0100
0000
0000
0100
1000
0000
0010
0000
0100
0000
0000
0100
,
0001
0000
0010
0000
0100
0010
0100
0000
1000
0010
0000
1000
0001
0000
0000
0100
,
0001
0000
1000
0000
0100
0000
0000
1000
0100
0000
0010
0000
0001
0100
0000
0100
,
0010
0000
1000
0010
0000
1000
0100
0000
0010
0000
0000
0000
0001
0000
0000
0000
,
0010
0001
0100
0000
0010
0000
0000
1000
0000
0001
0100
0000
0010
0000
0000
0000
,
0100
0000
0001
0100
0000
0001
1000
0000
0100
0000
0000
0000
0010
0100
0010
0000
,
0001
0000
0100
0000
1010
0000
1000
0010
1000
0000
0100
0000
0011
0000
0000
0000
,
0000
0001
0100
0000
0001
0010
0000
0001
1000
0000
0000
0010
0000
1000
0100
0000
,
1000
0000
0001
0100
0000
0010
0100
0000
0010
0000
1000
0100
0000
0100
0010
0000
,
0001
0000
0000
0000
0000
1000
0000
0000
0000
0000
0000
0000
0001
0000
0000
0000
1000
0000
0000
0000
0000
0000
0000
0000
0000
0000
0000
0000
0000
0000
0000
0000
0001
0000
0000
0000
0100
0000
0000
0000
0001
0000
0000
0000
0000
0000
0000
0000
1000
0000
0000
0000
0100
0000
0000
0000
1000
0000
0000
0000
0001
0000
0000
0000
,
0010
0000
0000
0010
0001
0000
0000
0001
0100
0000
1000
0000
0100
0001
0100
0000
,
0010
0000
0000
0010
1000
0000
0000
1000
0100
0010
0000
0100
0010
0001
0010
0000
,
0001
0000
0000
0001
0100
0000
0010
0000
1000
0000
0000
1000
0100
0000
0000
0010
,
0100
0000
0000
0100
0010
0000
0001
0000
1000
0000
0000
0110
0000
1001
0000
0000
,
1000
0000
0000
0100
1000
0000
0000
0000
0001
0000
0010
0000
1000
0000
0010
0000
,
0001
0000
0000
0001
0100
0000
0000
0010
1000
0000
0000
1000
0100
0000
1000
0000
,
0001
0000
0000
0001
0100
0000
0001
0000
0010
0000
0000
0010
0000
0000
0100
0000
,
0000
0100
0000
0000
1000
0000
0001
0000
0000
0000
0000
1000
0000
0001
0000
0000
,
1001
0000
0000
0100
0000
0010
0000
0000
0110
0000
0000
0010
0000
1000
0000
0000
,
1100
0000
0000
0010
0000
0001
0000
0000
0101
0000
0000
1000
0000
0010
0000
0000
,
1010
0000
0000
0000
0000
0000
0000
0000
0011
0000
0000
0010
0000
0000
0000
0100
,
0000
0100
0010
0100
0000
0000
0000
1100
0000
0101
0000
0000
1001
0000
0000
1000
,
0010
1000
0000
0000
1100
0000
0000
1000
0000
0010
0000
0000
0110
0000
0000
0001
,
0010
0001
0000
0000
0100
0000
0000
0001
0000
0010
0000
0000
0110
0000
0000
1000
,
0001
1000
0000
0000
0001
0000
0000
0000
0100
0000
0000
0000
0010
0000
0010
1000
,
0000
0010
0000
1000
0000
0010
1000
0000
0100
0000
0100
0010
0000
0100
0000
0010
,
0000
0100
1000
0000
0001
0100
0001
0000
0010
0000
0000
0010
0001
0000
1000
0000
,
0010
0000
0010
0000
1000
0100
1000
0000
0010
0000
0000
0100
0001
0000
1000
0000
,
0000
1001
0000
0000
0001
0000
0000
0010
0000
0001
0000
1000
0000
0010
0000
0000
,
0100
0000
0001
0000
0010
0001
0010
0000
0100
0000
0000
0100
0000
0000
1000
0000
,
0010
1000
0010
0000
0100
0010
0000
0010
0100
0000
0001
0000
0100
0001
0100
0000
,
0001
0000
0010
0000
0100
1000
0100
0000
1000
0000
0010
0000
0100
0010
0100
0010
,
0000
0110
0000
0000
1001
0000
0000
0001
,
1000
0010
0000
0100
0000
0100
0000
0100
0000
0010
0100
0000
0110
0000
0000
0000
;

//--------------- dance-single - EXTRA ----------------
#NOTES:
     dance-single:
     EXTRA:
     Challenge:
     9:
     0,0,0,0,0:
0000
0000
0000
0000
,
0000
0000
0000
0000
,
1000
0100
0000
0100
0010
0001
0100
0000
0010
0100
0000
0100
0001
1000
0000
0100
,
0010
0001
0000
0001
0100
0000
0010
0000
1000
0100
0010
0100
0001
0100
1000
0100
,
0010
0001
0000
0001
0100
1000
0000
0100
0000
0010
1000
0100
0010
0000
0000
0010
,
0001
0000
1001
0000
1000
0100
0000
0010
0001
0000
0100
0100
0001
0010
0000
0001
,
1000
0100
0000
0001
0100
0010
0000
0010
0100
1000
0001
0000
1001
0000
0000
0000
,
1000
0000
1000
0010
1000
0100
0000
0010
0001
0000
0000
0100
0001
0010
0100
0100
,
0010
0001
0000
0100
1000
0000
0100
0000
0010
1000
0000
0100
0001
0000
0100
0010
,
0100
0000
0000
1000
0000
0000
0000
0000
0000
0001
0000
0000
0100
0000
0000
0010
0000
0000
1000
0000
0000
0000
0000
0000
0001
0000
0000
0000
0010
0000
0000
0000
0100
0000
0000
0000
0110
0000
0000
0000
0000
0000
0000
0000
0000
0000
0000
0000
,
1100
1000
0000
0100
0010
0000
0000
0010
0001
0100
0010
0000
1000
0100
0000
1000
,
0001
0000
0010
0000
0110
0000
0000
0010
0100
1000
0100
0010
0001
0000
1000
0001
,
1000
0010
0000
0010
0100
0000
0001
0000
0010
0001
0000
1000
0010
0000
0000
0000
,
0000
0000
0000
0000
,
1000
0000
0100
0010
0010
0000
0001
0100
0000
0001
0010
0000
0100
0000
0000
1000
,
0001
0000
1000
0000
1100
0000
0000
0011
0000
0001
1000
0000
0100
0000
0110
0000
,
0010
0000
0001
0010
0001
0000
1000
0000
0100
0010
0000
0010
0100
0000
0000
0000
,
0100
0000
0100
0000
0100
0000
0100
0010
0001
1000
0000
1001
0000
0001
1000
0000
,
1001
0000
1000
0010
0000
0010
0100
0000
0001
0000
0000
0001
0010
0000
0001
0010
,
0000
0010
0001
0100
1000
0000
0100
0000
0110
0000
0000
1010
0000
0000
0101
0000
,
0001
1000
0001
0000
1000
0000
0000
0100
1000
0000
0010
0000
1000
0001
0000
0001
,
0100
0000
0100
0010
0100
0000
0001
0010
0000
0001
0100
0000
0110
0000
0000
0000
,
0010
0000
1000
0100
0000
1000
0001
0000
1001
0000
0000
0001
0010
0000
0001
0000
,
0100
0010
0000
0010
1000
0000
0100
0010
0001
0000
1000
0000
1001
0000
0000
0000
,
0000
0000
0000
0000
0001
0011
0000
0010
0100
0000
1100
0000
1001
0000
1000
0100
,
0010
0000
0000
0010
0001
0000
0001
0010
0100
0000
0010
0000
0110
0000
0100
1000
,
0010
0000
0100
0001
0010
0000
0100
0010
0001
0010
0100
0000
1100
0000
1000
0010
,
0100
0000
0000
0000
0001
0000
0010
0000
0001
0000
0000
0000
0000
0000
0001
0000
1000
0000
0000
0000
0000
0000
0100
1000
0100
0000
0000
0000
0000
0000
0010
0000
,
0100
0000
0010
0001
1000
0001
0000
0001
0100
0000
0110
0010
1000
0000
0100
0010
,
0001
0000
0001
0100
0001
0000
0010
0100
1000
0000
0001
0000
1001
0000
1000
0100
,
0010
0000
0000
0001
0010
0000
0010
0001
0000
0001
0100
0000
0110
0000
0010
1000
,
0100
0000
0000
0000
1000
0000
1000
0000
0001
0000
0000
0000
0000
0000
0001
0000
0010
0000
0000
0000
0000
0000
0001
1000
0001
0000
0000
0000
0000
0000
0001
0000
,
0100
0000
0010
0100
0010
0000
0000
1000
0000
0001
0010
0000
1100
0000
0100
1000
,
0001
0000
1000
0010
0000
0100
0000
0000
0101
0000
0000
0000
1010
0000
0100
0010
,
0011
0000
0010
0100
1100
0000
1000
0000
1001
0001
0000
1000
0100
0000
0010
0100
,
0010
0000
0001
0100
0001
0000
0000
0001
1000
0000
0100
0010
0001
1000
0010
0010
,
0100
0001
0100
0000
1010
0000
0000
0000
1100
0000
1000
0010
0100
0000
0001
0010
,
0100
0000
0000
0100
0010
0000
0001
0100
0001
0010
0000
0010
0100
1000
0100
0010
,
0001
0000
0000
1000
0001
0100
0000
0100
0010
1000
0000
0001
1001
0000
1000
0100
,
0010
0001
0010
0100
1000
0001
0000
0001
0100
0000
0010
0100
0010
1000
0000
0100
,
0001
0000
0100
1000
0010
0010
1000
0100
0010
0001
0000
0001
0100
0000
0010
1000
,
0100
0100
1000
0000
0010
1000
0000
1000
0100
0000
0010
0001
0100
0010
1000
0100
,
0010
0000
0010
0001
0000
0100
0001
0000
1001
0000
0000
0001
1000
0000
0100
0000
,
0010
0001
1000
0000
1100
0000
1000
0010
0000
0010
0100
0000
0101
0000
0001
0010
,
0001
0000
1000
0100
0000
0001
0100
0000
0110
0000
0000
0000
0001
1000
0001
0000
,
0101
0000
0000
0000
0000
0000
0000
0000
1010
0000
0000
0000
0000
0000
0000
0000
0001
0000
0100
0000
0010
0000
1000
0000
1001
0000
0000
0000
0001
0000
1000
1000
,
0000
0100
0010
0000
0010
0100
0000
1000
0001
0000
0001
1000
0000
1000
0001
0000
,
1001
0000
1000
0100
0000
0010
0001
0000
0010
0100
0000
0010
0000
0100
1000
0000
,
0100
0000
0000
0000
0000
0010
0000
0000
0000
0000
0000
0000
0001
0000
0000
0000
1001
0000
0000
0000
0000
0000
0000
0000
0000
0000
0000
0000
0000
0000
0000
0000
0001
0000
0000
0000
0010
0000
0100
0000
0010
0000
0000
0000
0100
0000
0000
0000
1000
0000
0000
0000
0010
0000
0100
0000
0010
0000
0000
0000
0100
0000
0000
0000
,
0110
0000
0010
1000
0100
0010
0000
0010
0001
0000
1001
0000
1000
0100
1000
0000
,
0010
0000
0100
0001
0001
0000
0100
1000
0100
0010
0000
1000
0001
1000
0001
0000
,
0101
0000
0001
1000
0010
0000
1000
0000
1100
0000
0000
1000
0001
0000
0000
0001
,
0010
0000
0000
0000
0000
0000
0000
0000
0100
0000
0000
0000
0010
0000
0000
0000
0100
0000
0000
0000
0000
0000
0000
0000
1000
0000
0000
0000
0000
0000
0000
0000
0001
0000
0000
1000
0000
0001
0000
0000
1000
0000
0000
0000
1001
0000
0000
0000
0001
0000
0100
0000
0001
0000
0000
0000
1000
0000
0000
0000
0010
0000
0000
0000
,
0100
0000
0001
0010
0001
0000
0010
0100
0010
0000
0100
0000
1000
0010
0100
0000
,
0110
0000
0100
0001
0100
0000
0010
1000
0010
1000
0000
0001
1000
0000
1100
0000
,
0011
0000
0000
0000
0000
0000
0001
0000
1000
0000
0000
0000
0100
0000
1000
0000
0100
0000
0000
0010
0000
0000
0001
0000
0000
0100
0000
0000
0010
0000
0000
1000
,
0000
0000
0100
0000
0000
0010
0000
0000
0001
0000
0000
0000
1000
0000
0001
0000
0000
0000
0000
0000
0000
0000
0101
0000
0000
0000
1010
0000
0000
0000
0000
0000
,
1000
0100
0000
0010
0100
0010
0001
0000
0011
0000
0000
0010
0100
1000
0000
0000
,
1001
0000
0000
1000
0010
1000
0100
0000
1100
0000
0000
0100
1000
0010
0100
0000
,
0101
0000
0000
0001
0000
0000
0001
0000
1000
0000
0001
0000
0100
0000
0000
0000
0110
0000
0000
0000
0000
0000
0010
0000
0000
0000
1000
0000
0000
0000
1100
0000
,
0000
0000
0001
0000
0100
0000
0101
0000
0000
0000
0100
0000
0010
0000
1000
0000
0000
0001
1000
0000
0001
0000
0100
0000
0110
0000
0010
0000
0000
0000
1000
0000
,
0100
0000
0000
0000
0001
0000
0000
0000
0000
0000
0000
0000
0100
0000
0000
0000
1000
0000
0000
0000
0000
0000
0000
0000
0010
0000
0000
0000
0100
0000
0000
0000
0000
0000
0000
0000
0001
0000
0000
0000
0010
0000
0000
0000
0000
0000
0000
0000
0100
0000
0000
0010
0000
0000
0100
0000
0000
0000
0000
0000
1000
0000
0000
0000
,
0001
0100
0010
0000
0110
0000
0010
1000
0100
0010
0000
0000
0011
0000
0000
0010
,
0001
0100
0000
0000
1010
0000
0000
1000
0001
0000
0100
0000
0110
0000
0010
1000
,
0000
0010
0000
0010
0000
0010
0100
0000
0010
0000
0010
0001
0000
0010
0000
0110
,
0000
0100
1000
0000
0100
0001
0100
0001
0010
0000
0100
1000
0001
1000
0100
0010
,
0100
0000
1000
0000
0001
0100
0001
0000
1010
0000
0010
1000
0100
0000
0011
0000
,
0001
1000
0000
1000
0001
0000
0100
0001
0000
0010
0001
0010
0100
1000
0000
1000
,
0100
0010
0100
0000
1000
0001
1000
0000
0101
0000
0000
1010
0000
0000
1000
0100
,
0000
1000
0001
0000
1000
0000
0001
0000
0100
0000
0010
0000
0000
0000
0010
0000
0100
0000
0000
0000
0110
0000
0000
0000
1001
0000
0000
0000
0001
0000
0010
0000
,
0001
0010
0000
0100
1000
0001
0000
0001
0100
0000
0110
0000
0010
1000
0100
0010
,
0001
0000
1001
0000
1000
0010
0100
0001
0100
1000
0000
0100
0001
0000
0010
0000
,
0001
1000
0000
1100
0000
0011
0000
1001
0000
1000
0010
0000
0100
0001
0000
0000
,
0000
0000
0000
0001
0000
0000
0000
0000
0000
0000
1000
0000
0000
0000
0000
0000
0001
0000
0000
0000
0000
0000
0010
0000
0000
0000
0000
0000
0000
0000
0000
0100
0000
0000
0000
0000
0000
0000
0000
0000
0000
0000
0000
0000
0000
0000
0000
0000
0000
0000
0000
0000
0000
0000
0000
0000
0000
0000
0000
0000
0000
0000
0000
0000
;

//--------------- dance-solo - BABY MODE ----------------
#NOTES:
     dance-solo:
     BABY MODE:
     Beginner:
     1:
     0,0,0,0,0:
000000
000000
000000
000000
,
000000
000000
000000
000000
,
000100
000000
000000
000000
,
001000
000000
000000
000000
,
000010
000000
000000
000000
,
000010
000000
000000
000000
,
010000
000000
000000
000000
,
010000
000000
000000
000000
,
000001
000000
000001
000000
,
100000
000000
100000
000000
,
100001
000000
000000
000010
,
000000
010000
000000
000000
,
000100
000000
000000
100000
,
000000
000001
000000
000000
,
000100
000000
000000
001000
,
001000
000000
000000
000000
,
000100
000000
000000
001000
,
001000
000000
000000
000000
,
100000
000000
000001
000000
,
100000
000000
000001
000000
,
010000
000000
000010
000000
,
010010
000000
000000
010000
,
000000
000000
000010
000000
,
000000
000100
000000
001000
,
000000
000000
000000
100000
,
000000
000000
000000
100000
,
000000
000000
000000
000001
,
000000
000000
000000
000001
,
000000
000000
000000
001000
,
000000
000000
000000
001000
,
000000
000000
000000
000100
,
000000
000000
000000
000100
,
000000
000100
000000
000100
,
000000
000000
001100
000000
,
000000
000000
000010
000000
,
000000
000010
000000
000000
,
000010
000000
010000
000000
,
000000
010000
000000
000000
,
010000
000000
000001
000000
,
000000
000001
000000
000000
,
000001
000000
100000
000000
,
000000
100000
000000
000000
,
100000
000000
100001
000000
,
000000
010010
000000
001100
,
000000
000000
000100
000000
,
000000
000000
000000
000000
,
000000
000000
001000
000000
,
000010
000000
010000
000000
,
000100
000100
000000
000000
,
100000
000000
000000
000000
,
100000
000000
000000
000000
,
000001
000000
000000
000000
,
000001
000000
000000
000000
,
001000
000000
000000
000000
,
001000
000000
000000
000000
,
000100
000000
000100
000000
,
000100
000000
000000
000000
,
001000
000000
001000
000000
,
000100
000000
000100
000000
,
001000
000000
000100
000000
,
000000
000000
000000
010000
,
000000
010000
000000
000010
,
000000
000010
000000
010000
,
000000
000010
000000
000000
,
000000
000000
000000
000000
,
000000
100000
100000
000000
,
000000
000001
000001
000000
,
100001
000000
000010
000010
,
000000
010000
010000
000000
,
000000
010010
000000
000000
,
000000
000000
000000
000010
,
000000
000000
010000
000000
,
010010
000000
000000
100001
;
