#TITLE:the trees (okay, alright);
#SUBTITLE:;
#ARTIST:bill wurtz;
#TITLETRANSLIT:;
#SUBTITLETRANSLIT:;
#ARTISTTRANSLIT:;
#GENRE:;
#CREDIT:8Chasey 2026 / BWE Volume 3;
#MUSIC:the trees.ogg;
#BANNER:;
#BACKGROUND:;
#CDTITLE:;
#SAMPLESTART:57.35;
#SAMPLELENGTH:15;
#SELECTABLE:YES;
#OFFSET:-0.133;
#BPMS:0.000=98.000
,42.000=49.000
,43.500=98.000
;
#STOPS:;
#BGCHANGES:;
#FGCHANGES:;

//--------------- dance-single - BRAND NEW ----------------
#NOTES:
     dance-single:
     BRAND NEW:
     Beginner:
     1:
     0,0,0,0,0:
0000
0000
0000
0000
,
0001
0000
0000
0000
,
0000
0000
0000
0000
,
1000
0000
0000
0000
,
0000
0000
0000
0000
,
0001
0000
1000
0000
,
0001
0000
0000
0000
,
0000
0000
1000
0000
,
0001
0000
1000
0000
,
0100
0000
0100
0000
,
0000
0000
0100
0000
,
0010
0000
0000
0000
,
0000
0000
0000
0000
,
0100
0000
0010
0000
,
0100
0000
0010
0000
,
0110
0000
0000
0000
,
0010
0000
0000
0000
,
0100
0000
1000
0000
,
0001
0000
0000
0000
,
1000
0000
0000
0000
,
0001
0000
0000
0000
,
0100
0000
0000
0000
,
0010
0000
0000
0000
,
0001
0000
1000
0000
,
0010
0000
0100
0000
,
0001
0000
0000
0000
,
1000
0000
0000
0000
,
0001
0000
0001
0000
,
1000
0000
1000
0000
,
0010
0000
0000
0000
,
0100
0000
0000
0000
,
0001
0000
0000
0000
,
0001
0000
0000
0000
,
1000
0000
1000
0000
,
0000
0000
1001
0000
;

//--------------- dance-single - EASY WAY ----------------
#NOTES:
     dance-single:
     EASY WAY:
     Easy:
     3:
     0,0,0,0,0:
0000
0000
0000
0000
,
0001
0001
0000
0100
,
0000
0000
0000
0000
0001
0000
0000
1000
,
0000
1000
0000
0000
0000
0000
0000
0100
,
0000
0000
1000
0000
,
0001
0000
0001
0001
,
0001
0000
0100
0000
,
0010
0000
1000
0000
,
1000
1000
1000
0000
,
0100
0000
0100
0000
,
0010
0010
0100
0000
,
1000
0001
0000
0001
,
0000
0100
0000
0100
,
0001
1000
0000
1000
,
0000
0010
0000
0010
,
0100
0001
1000
0000
,
0001
0001
1000
0000
,
0100
1000
0001
0000
,
1000
1000
0001
0000
,
1000
0100
1000
0000
,
0001
0100
0001
0000
,
1000
0001
1000
0001
,
0100
0010
0110
0000
,
0100
0000
0010
0000
,
0100
0010
0100
0000
,
0001
0000
0000
0001
0000
0000
0000
0000
0000
0000
0000
0000
0000
0000
0000
0000
,
1000
0000
0000
1000
0000
0000
0000
0000
0000
0000
0000
0000
0000
0000
0000
0000
,
0001
0000
0010
0001
,
1000
0000
0100
1000
,
0001
0000
1000
0000
,
0010
0100
0001
1000
,
1001
0000
0001
0000
,
0100
0000
0001
0000
,
1000
0000
0100
0000
,
1000
0000
0000
0000
0001
0000
0000
0000
1000
0000
0000
0000
0001
0000
0000
0100
;

//--------------- dance-single - GET REAL ----------------
#NOTES:
     dance-single:
     GET REAL:
     Medium:
     6:
     0,0,0,0,0:
0000
0000
0000
0000
,
0001
0100
0001
0000
1000
0000
0001
0000
,
1000
0000
0100
0000
1000
0000
0000
0000
0010
0000
0000
0100
0000
0000
0010
0000
,
0000
0010
0100
0000
0001
0000
1000
1000
,
1000
0000
0001
0100
0001
0000
1000
0010
,
1000
0000
0000
0000
0001
0000
0000
0000
1000
0000
0000
1000
0000
0000
1000
0000
,
0000
0000
0010
0000
0100
0001
0000
0100
,
0001
0000
0000
0000
1000
0000
0000
0000
0001
0000
0000
0001
0000
0000
0001
0000
,
0000
0000
0010
0000
0001
0000
1000
0000
0010
0000
0000
0100
0000
0000
0000
0000
,
0010
0000
0000
0100
0000
0000
0000
0000
0010
0000
0000
0100
0000
0000
0000
0000
,
0001
1000
0200
0300
,
0110
0000
0010
0100
0010
0000
0001
0000
,
0100
0000
0010
0100
0010
0000
1000
0000
,
0001
0100
1000
0000
0001
0010
1000
0000
,
0100
0000
0000
0010
0000
0000
0100
0000
0000
0000
0010
0000
0010
0000
0000
0000
,
0001
0000
1000
0000
0001
0000
0000
0000
1000
0000
0000
1000
0000
0000
0000
0000
,
1000
0000
0001
0000
1000
0000
0000
0000
0001
0000
0000
0001
0000
0000
0000
0000
,
0100
0000
0010
0000
0100
0000
0000
0000
0010
0000
0000
0010
0000
0000
0000
0000
,
0100
0000
0000
0100
0000
0000
0010
0000
0000
0000
0100
0000
0010
0000
0000
0000
,
1000
0000
1000
0001
0000
0001
1000
0000
,
0001
0000
0001
1000
0000
1000
0001
0000
,
0100
0000
0010
0010
0000
0100
0100
0000
,
0001
0100
0010
1000
0100
0000
0010
0000
,
0100
0000
0010
0000
0001
0000
0000
0100
0000
0000
0010
0000
1000
0000
0000
0000
,
0100
0000
0000
0010
0000
0000
0000
0100
0000
0000
0000
0000
0110
0000
0000
0000
,
0010
0000
0000
0001
0000
0000
0000
0000
1000
0000
0001
0000
1000
0000
0000
0000
,
0010
0000
0000
1000
0000
0000
0000
0000
0001
0000
1000
0000
0001
0000
0000
0000
,
1001
0000
0000
0000
1000
0000
0100
0000
1000
0000
0000
0000
0010
0000
0000
0100
,
0000
0000
0000
0000
0001
0000
0100
0000
0001
0000
0000
0000
0010
0000
0000
0100
,
0000
0000
1000
0100
1000
0000
0001
0100
,
0001
0000
0000
0000
0010
0000
0100
0000
0010
0000
0000
0000
0100
0000
0000
0110
,
0000
0000
0010
0001
0100
0000
0010
1000
,
0100
0000
0010
0100
0010
0000
0100
0010
,
0100
0000
0000
0000
0001
0000
0001
0000
0001
0000
0000
0000
1000
0000
0000
0001
,
0000
0000
0001
0000
1000
0000
0001
0000
1001
0000
0000
0000
1000
0000
0000
0200
,
0000
0000
0000
0000
0000
0000
0000
0000
0000
0000
0000
0000
0000
0000
0000
0300
;

//--------------- dance-single - SO HARD TO DO ----------------
#NOTES:
     dance-single:
     SO HARD TO DO:
     Hard:
     8:
     0,0,0,0,0:
0000
0000
0000
0000
,
0001
0100
0000
0001
0100
0000
0010
0000
1000
0000
0100
1000
0100
0000
1000
0000
,
0010
0000
0000
0010
0000
0000
0100
0000
0010
0000
0000
0010
0000
0000
1000
0001
,
0000
1000
0001
1000
0000
0001
1000
0000
0100
0000
0010
0100
0010
0000
0110
0000
,
1001
0000
0000
0001
0000
0000
1000
0000
0001
0000
0000
1000
0001
0000
1000
0000
,
0100
0000
0010
0001
0000
0010
0001
0000
0100
0000
0010
1000
0000
0010
1000
0000
,
0001
0000
0000
1001
0000
0000
1000
0000
0010
0000
0000
0100
0010
0000
0100
0000
,
0001
0000
0000
0010
0000
0000
0001
0000
1000
0000
0000
0100
0000
0000
1000
0010
,
0000
1000
0001
0000
0100
0001
0100
0000
0010
0000
0100
0010
0000
0000
1000
0000
,
0010
0000
0000
0100
0000
0000
0001
0000
0010
0000
0000
0100
0000
0000
1000
0000
,
0001
0000
1000
0000
0100
0010
0000
0000
0200
0000
0000
0000
0300
0000
0100
0000
,
0010
0001
0000
1000
0010
0000
0100
0000
0001
0000
0000
0001
0000
1000
0001
1000
,
0000
0000
0100
1000
0100
0000
1000
0010
1000
0000
0001
0100
0000
0000
0001
0010
,
0000
0000
0100
0000
1000
0100
0000
0000
0001
0000
1000
0010
0001
0000
1000
0100
,
0001
0000
0100
0010
0000
0010
0001
0000
0100
0000
0010
1000
0010
0000
1000
0000
,
1001
0000
0001
0000
1000
0000
0100
0000
0010
0000
0000
0010
0000
0000
0010
0000
,
0001
0000
1000
0000
0001
0000
0010
0000
0100
0000
0000
0100
0000
0000
0100
0000
,
0010
0100
0000
0010
0000
0000
0001
0000
1000
0000
1000
0000
0001
0000
0100
0000
,
0110
0000
0000
1010
0000
0000
0101
0000
0000
0000
0000
0000
0000
0000
0001
1000
,
0001
0000
0010
0000
0001
0000
1100
0000
0000
0000
1000
0100
0000
0000
1000
0001
,
1000
0000
0010
0000
1000
0000
0101
0000
0000
0000
0001
0100
0000
0000
0010
0100
,
0010
0000
1000
0000
0100
0000
0110
0000
0000
0000
0010
0001
0000
0000
0010
0100
,
0010
0000
0010
0000
0100
0000
0100
0000
1000
0001
0000
0000
1000
0001
1000
0000
,
0010
0100
0000
0001
0000
1000
0000
1001
0000
0001
0100
0001
0100
0000
0010
0000
,
1000
0000
0100
0010
0000
0010
0000
0100
0000
0100
1000
0000
0001
1000
0001
0000
,
0100
0000
0000
0110
0000
0000
0010
0000
1000
0000
0100
0000
1000
0000
0001
0000
,
0010
0000
0000
0110
0000
0000
0100
0000
1000
0000
0001
0010
0000
0001
0100
0000
,
0010
0000
1000
0000
0001
0000
0100
0000
0001
0010
0000
0001
0000
0100
0000
0010
,
0000
0000
1000
0000
0001
1000
0001
0000
0101
0000
0000
0000
0010
0000
0100
0010
,
0000
0000
0010
0100
0000
0001
1000
0000
1100
0000
0100
0000
0010
0000
0001
0010
,
0000
0001
1000
0000
0010
0000
0100
0000
0110
0000
0010
0000
1000
0000
0000
1001
,
0000
0000
0001
0100
0000
0001
0100
0000
0010
0000
1000
0000
0001
0000
0010
0001
,
0000
0000
1000
0100
0000
1000
0100
0000
0010
0000
0010
0100
0010
0000
0110
0000
,
0100
0000
1000
0100
0000
0100
1000
0000
1001
0000
0001
0000
0010
0001
0010
0001
,
0000
0000
0100
0000
0001
0100
0001
0000
0010
0000
0100
1000
0001
0000
0000
2002
,
0000
0000
0000
0000
,
0000
0000
0000
0000
0000
0000
0000
3003
0000
0000
0000
0000
0000
0000
0000
0000
;

//--------------- dance-solo - BABY MODE ----------------
#NOTES:
     dance-solo:
     BABY MODE:
     Beginner:
     1:
     0,0,0,0,0:
000000
000000
000000
000000
,
000010
000010
000000
000000
,
001000
000000
000000
010000
,
010000
000000
000000
000100
,
000000
000000
001000
000000
,
000010
000000
010000
000000
,
000010
000000
000000
000000
,
100000
000000
100000
000000
,
000001
000000
100000
000000
,
001000
000000
001000
000000
,
000100
000000
001000
000000
,
000100
000000
000000
000000
,
100000
000000
000000
000000
,
001000
000000
000000
000000
,
000001
000000
000000
000000
,
100000
000000
000000
000000
,
000010
000000
100000
000000
,
000001
000000
000000
000000
,
010000
000000
000001
000000
,
000100
000000
000100
000000
,
001000
000000
001000
000000
,
100000
000000
000001
000000
,
100000
000000
000001
000000
,
000010
000000
010000
000000
,
000100
000000
001000
000000
,
000001
000000
000000
000000
,
100000
000000
000000
000000
,
000010
000000
000010
000000
,
010000
000000
010000
000000
,
000100
000000
000000
000000
,
001000
000000
000000
000000
,
000001
000000
000000
000000
,
100000
000000
000000
000000
,
000010
000000
010000
000000
,
000000
000000
010010
000000
;
