#TITLE:the moon is made of cheese;
#SUBTITLE:but i can't taste it;
#ARTIST:Bill Wurtz;
#TITLETRANSLIT:;
#SUBTITLETRANSLIT:;
#ARTISTTRANSLIT:;
#GENRE:;
#CREDIT:;
#MUSIC:the moon is made of cheese but i can't taste it.ogg;
#BANNER:the moon is made of cheese but i can't taste it-bn.png;
#BACKGROUND:the moon is made of cheese but i can't taste it-bg.png;
#CDTITLE:;
#SAMPLESTART:0.975;
#SAMPLELENGTH:15.000;
#SELECTABLE:YES;
#OFFSET:1.230;
#BPMS:0.000=94.000;
#STOPS:;
#ORIGIN:;
#PREVIEWVID:;
#JACKET:;
#CDIMAGE:;
#DISCIMAGE:;
#BGCHANGES:1.500=the-moon-is-made-of-cheese-but-i-cant-taste-it.avi=1.000=0=0=0=StretchNoLoop==CrossFade_Fastest==,
99999.000=-nosongbg-=1.000=0=0=0=StretchNoLoop====
;
#FGCHANGES:;

//--------------- dance-single - ----------------
#NOTES:
     dance-single:
     :
     Beginner:
     1:
     0.092116,0.116066,0.042987,0,0,45,42,3,0,0,0,0,0,0,0.092116,0.116066,0.042987,0,0,45,42,3,0,0,0,0,0,0:
0000
0000
0000
0000
,
0001
0000
0001
0000
,
0001
0000
0000
0000
,
1000
0000
1000
0000
,
1000
0000
0000
0000
,
0010
0000
0000
0000
,
0100
0000
0000
0000
,
0110
0000
0000
0000
,
1001
0000
0000
0000
,
0001
0000
1000
0000
,
0001
0000
0000
0000
,
1000
0000
0001
0000
,
1000
0000
0000
0000
,
0001
0000
0010
0000
,
1000
0000
0010
0000
,
0100
0000
0100
0000
,
0100
0000
0000
0000
,
0001
0000
0001
0001
,
0001
0000
0000
0000
,
1000
0000
1000
1000
,
1000
0000
0000
0000
,
0010
0000
0001
0000
,
0010
0000
0100
0000
,
1000
0000
0010
0000
,
1001
0000
0000
0000
,
0010
0000
0000
0000
,
0000
0100
0000
0010
,
0010
0000
0000
0000
;

//--------------- dance-single - ----------------
#NOTES:
     dance-single:
     :
     Easy:
     3:
     0.15762,0.194786,0.028658,0.257924,0.028658,77,75,2,18,0,0,0,0,0,0.15762,0.194786,0.028658,0.257924,0.028658,77,75,2,18,0,0,0,0,0:
0000
0000
0000
0000
,
0001
0100
0010
0000
,
1000
1000
1000
0000
,
0100
0010
0100
0000
,
1000
0000
0100
1000
0100
0000
0000
0000
,
0020
0031
2000
3010
,
1001
0000
0000
0000
0000
0000
0000
0000
0100
0000
0000
0100
0000
0000
0000
0000
,
0010
0000
0000
0010
0000
0000
0000
0000
1000
0000
0000
0000
0001
0000
0000
0000
,
0020
0000
0000
0000
0000
0000
0000
0130
0000
0000
0000
0000
0000
0000
0000
0000
,
0001
1000
0100
0000
,
0010
0020
0000
0030
,
1000
0001
1000
0001
,
0100
0000
0010
0010
0010
0000
0000
0000
,
2000
0000
3100
0000
,
0002
0000
0103
0000
,
0020
0000
0130
0000
,
2002
0000
3003
0000
,
0001
0010
0010
0000
,
0200
0000
1300
0000
,
2000
3010
0002
0013
,
0200
0000
0301
0000
,
1000
1000
0020
0030
,
0001
0001
0200
0300
,
0010
0010
0100
0100
,
0020
0000
0030
0000
,
2000
0000
0000
0000
0000
3002
0000
0000
,
0000
0000
1003
0000
0000
0000
0010
0010
,
0010
0000
0000
0010
0000
0000
0000
0000
0000
0000
0000
0000
0000
0000
0000
0000
;

//--------------- dance-single - ----------------
#NOTES:
     dance-single:
     :
     Medium:
     5:
     0.264065,0.272701,0.114633,0.343899,0.057316,129,121,8,24,0,0,0,0,0,0.264065,0.272701,0.114633,0.343899,0.057316,129,121,8,24,0,0,0,0,0:
0000
0000
0000
0000
,
0100
1000
0001
0000
0010
0100
0001
1000
,
0001
0000
1000
0100
0010
0000
0001
0000
,
1000
0010
0100
0000
0001
1000
0010
0000
,
0100
0000
0001
0000
0010
0010
0010
0000
,
1000
0100
1000
0010
0100
0000
0001
0000
,
2002
0000
0000
0000
3003
0000
0000
0000
0100
0000
0000
0020
0000
0000
0030
0000
,
1000
0000
0000
0200
0000
0000
0300
0000
1000
0000
0000
0000
0001
0000
0010
0000
,
0100
0000
0000
0100
0000
0100
0000
0110
0000
0000
0000
0000
0000
0000
0000
0000
,
1000
0100
0010
0000
0002
0000
0003
0000
,
0100
0000
0010
0000
1000
0000
0100
0000
0100
0000
0000
1000
0000
0000
0001
0000
,
0020
0000
0030
0100
0001
1000
0100
0010
,
0100
0000
0110
0000
1000
1000
0001
0000
,
0020
0130
0220
0330
,
0100
0010
1000
0000
2002
0000
3003
0000
,
0100
0001
1000
0000
0010
0100
0001
0000
,
0020
0000
0230
0300
,
1000
0100
0010
0000
0010
0000
0001
1000
,
0100
0020
0130
1100
,
0200
0301
0020
1030
,
0100
1000
0001
0000
0010
0010
1000
0000
,
0100
0001
1000
0000
0200
0000
0300
0000
,
0001
1000
0100
0000
2000
0000
3000
0000
,
0010
0000
0110
0000
0001
0100
0010
0000
,
2000
0000
3020
0000
,
0130
0000
0000
0002
0000
0000
0000
0000
0003
0000
2002
0000
0000
0000
0000
0000
,
3003
0000
0020
0000
0030
0000
0100
0001
,
1000
0000
0000
0010
0000
0000
0000
0000
0000
0000
0000
0000
0000
0000
0000
0000
;

//--------------- dance-single - ----------------
#NOTES:
     dance-single:
     :
     Hard:
     8:
     0.433967,0.486966,0.429873,0.257924,0.422709,212,182,30,18,0,0,0,0,0,0.433967,0.486966,0.429873,0.257924,0.422709,212,182,30,18,0,0,0,0,0:
0000
0000
0000
0000
,
1000
0000
0000
0100
0010
0000
0100
0000
0110
0000
0000
0001
0010
0001
0000
0000
,
0011
0000
0000
1000
0001
0000
0100
0000
0101
0000
0000
0000
1100
0000
0100
0000
,
0010
0000
0100
0001
0100
0000
0000
0001
0000
1000
0000
1000
0001
0000
0000
0000
,
0011
0000
0000
1000
0100
1000
0010
0000
0110
0000
0000
0001
0010
0000
0001
0000
,
1000
0100
0000
0010
0100
0000
0110
0000
0001
0100
0000
0010
0100
0000
0110
0000
,
2002
0000
0000
0000
3003
0000
0000
0000
0110
0000
0000
0002
0000
0000
0103
0000
,
0101
0000
0000
0020
0000
0000
0030
0000
1000
0100
1000
0000
0100
0000
0100
0000
,
0010
0000
0000
1100
0000
1100
0000
1001
0000
0000
0000
0010
0100
0000
0010
0000
,
0001
0000
0000
0001
0100
0001
0000
0011
0000
0000
0000
0000
1000
0000
0100
0000
,
0100
0000
0000
0010
0100
0000
0000
0000
0002
0000
0000
0000
1003
0000
1000
0000
,
0020
0000
0000
0001
0000
0000
0031
0000
1000
0001
0000
0100
0000
0000
0010
0000
,
0001
0001
0000
0000
1000
1000
0000
0010
0000
0110
0000
0000
0100
0000
0000
0000
,
0001
0000
0010
0000
0001
0000
0100
0000
0000
0100
0000
0000
0220
0000
0000
0000
0000
0000
0330
0000
0000
0000
0000
0000
,
1000
0000
0010
0000
1000
0000
0100
0000
0000
0100
0000
0000
2002
0000
0000
0000
0000
0000
3003
0000
0000
0000
0000
0000
,
0001
0000
0000
0010
0001
0000
0100
0000
0001
0000
1000
0000
1000
0000
0100
0000
,
2020
0030
0002
3003
,
0001
0000
0000
0010
0001
0000
0000
0010
0001
0000
0101
0000
0101
0000
0000
0000
,
1000
0000
0000
0010
1000
0000
0000
0010
1000
0000
0100
0000
0011
0000
0000
0000
,
0001
0010
0100
0000
0001
0000
1000
0000
1000
0000
0010
0000
0010
0000
0100
0010
,
0100
0000
0011
0000
0011
0000
0000
1000
0100
0010
0000
1000
0010
0000
0010
0000
,
0001
0010
0100
1000
0000
0000
1000
0100
0010
0001
0000
0000
,
1000
1100
1010
0000
0001
0011
0101
0000
,
0100
0000
0000
1000
0100
0000
0000
0010
0001
0000
0000
0101
0000
0000
0010
0000
,
2000
0000
0000
0000
3100
0000
0010
0100
0020
0000
0000
0000
0000
0000
0100
0000
,
0130
0000
0000
0002
0000
0000
0000
0000
2003
0000
0020
0000
0000
0000
0000
0000
,
3030
0000
0000
0000
0101
0000
0000
0000
0010
0000
0100
0000
0001
0010
0001
0000
,
1000
0010
0000
0001
0000
0000
0000
0000
0000
0000
0000
0000
0000
0000
0000
0000
;

//--------------- dance-solo - ----------------
#NOTES:
     dance-solo:
     :
     Beginner:
     1:
     0,0,0,0,0:
000000
000000
000000
000000
,
000010
000000
100000
000000
,
000001
000000
000000
000000
,
010000
000000
000001
000000
,
100000
000000
000000
000000
,
001000
000000
000100
000000
,
001100
000000
010010
000000
,
100001
000000
000000
000000
,
001000
001000
001000
000000
,
000100
000000
001100
000000
,
000100
000000
000000
000000
,
010000
000000
000010
000000
,
010000
000000
000010
000000
,
100000
000000
100001
000000
,
000001
000000
100001
000000
,
000001
000000
100000
000000
,
010010
000000
000000
000000
,
100000
000000
001000
000000
,
100000
000000
000000
000000
,
000001
000000
000100
000000
,
000001
000000
000000
000000
,
010000
000000
010000
000000
,
000010
000000
000010
000000
,
001000
000000
001000
000000
,
010010
000000
000000
000000
,
000100
000000
000100
000000
,
000000
000000
000000
000100
,
000100
000000
000000
000000
;
