#VERSION:0.83;
#TITLE:the ground plane;
#SUBTITLE:;
#ARTIST:Bill Wurtz;
#TITLETRANSLIT:;
#SUBTITLETRANSLIT:;
#ARTISTTRANSLIT:;
#GENRE:;
#ORIGIN:;
#CREDIT:;
#BANNER:the ground plane.png;
#BACKGROUND:the ground plane-bg.jpg;
#PREVIEWVID:;
#JACKET:the ground plane-jacket.png;
#CDIMAGE:;
#DISCIMAGE:Black.png;
#LYRICSPATH:;
#CDTITLE:;
#MUSIC:the ground plane.ogg;
#OFFSET:1.145000;
#SAMPLESTART:19.709999;
#SAMPLELENGTH:12.000000;
#SELECTABLE:YES;
#BPMS:0.000=165.000,
28.000=96.000;
#STOPS:28.000=8.800;
#DELAYS:;
#WARPS:;
#TIMESIGNATURES:0.000=4=4;
#TICKCOUNTS:0.000=4;
#COMBOS:0.000=1;
#SPEEDS:0.000=1.000=0.000=0;
#SCROLLS:0.000=1.000;
#FAKES:;
#LABELS:0.000=Song Start;
#BGCHANGES:3.000=Black.png=1.000=0=0=1===CrossFade_Fastest==,
4.625=the ground plane.avi=1.000=0=0=0=StretchNoLoop====,
99999=-nosongbg-=1.000=0=0=0 // don't automatically add -songbackground-
;
#KEYSOUNDS:;
#ATTACKS:
;

//---------------dance-single - ----------------
#NOTEDATA:;
#CHARTNAME:;
#STEPSTYPE:dance-single;
#DESCRIPTION:;
#CHARTSTYLE:;
#DIFFICULTY:Hard;
#METER:8;
#RADARVALUES:0.377265,0.405572,0.217803,0.435605,0.333510,388.000000,356.000000,32.000000,64.000000,0.000000,0.000000,0.000000,0.000000,0.000000,0.377265,0.405572,0.217803,0.435605,0.333510,388.000000,356.000000,32.000000,64.000000,0.000000,0.000000,0.000000,0.000000,0.000000;
#CREDIT:;
#NOTES:
// measure 0
0000
0000
0000
0000
,  // measure 1
0000
0000
0000
0000
,  // measure 2
0000
0000
0000
0000
,  // measure 3
0000
0000
0000
0000
,  // measure 4
0000
0000
0000
0000
,  // measure 5
0010
1000
0000
0000
0101
0000
0000
0000
0010
0100
1000
0000
0001
0000
0000
0000
,  // measure 6
1000
0100
1000
0000
0010
0000
0100
0000
0011
0000
0000
0000
1000
0000
0001
0000
,  // measure 7
2002
3003
0000
0000
0000
0000
0000
0000
0000
0000
0000
0000
0010
0100
0001
0000
,  // measure 8
0010
0000
0000
0000
0110
0000
0000
1000
0100
1000
0100
0000
0010
0000
0000
0000
,  // measure 9
1001
0000
0000
0100
0001
0000
0000
0010
1000
0100
1000
0000
0001
0000
1001
0000
,  // measure 10
0010
0000
0010
0000
1000
0100
1000
0000
0020
0000
0000
0000
1030
0000
0001
0000
,  // measure 11
0101
0000
0000
1100
0000
0000
0010
0000
0000
1000
0001
0000
0010
0000
0010
0000
,  // measure 12
0200
0000
0000
0000
0301
1000
0001
0000
1000
0000
0010
0000
0010
0000
0100
0000
,  // measure 13
0001
0000
0000
1000
0100
0000
0000
0010
0100
0000
1000
0000
1001
0000
0000
0000
,  // measure 14
0001
0000
0000
0011
0000
0000
0100
0000
0020
0000
0000
0000
1030
0000
0100
0000
,  // measure 15
1000
0100
0010
0001
0000
0000
0000
0000
0110
0000
0000
2000
0000
0002
3000
0000
,  // measure 16
0013
0100
0110
0000
2000
0001
3001
0100
,  // measure 17
0020
0000
0000
0000
0001
0000
0030
0000
1000
0100
1000
0000
0010
0000
0101
0000
,  // measure 18
0000
1000
0010
0001
0020
0000
0130
0000
,  // measure 19
1100
0000
0000
0101
0000
0000
1001
0000
0010
0100
0010
0100
0010
1000
0000
1000
,  // measure 20
0002
0000
0003
0000
0210
0000
0300
0001
,  // measure 21
0020
0000
0000
0100
0030
0100
2000
0000
3001
0001
0000
0100
0001
1000
0001
0000
,  // measure 22
1100
0000
0000
0020
0000
0000
0100
0000
0130
0000
0000
0001
1000
0000
0000
0000
,  // measure 23
0001
0100
0000
0001
0100
0000
0010
0000
2000
0100
0000
3020
0000
0000
0230
0000
,  // measure 24
0300
0000
0000
0001
0100
0010
2000
0000
3001
0100
0000
0010
0001
0000
1100
0000
,  // measure 25
0102
0000
0000
0020
0003
0000
0000
0000
0130
1000
0001
0000
0010
0000
0001
0000
,  // measure 26
1000
0010
0000
0000
0000
0000
0000
0000
2002
0000
0000
0000
3003
0000
0010
0000
,  // measure 27
0020
0000
0000
0230
0000
0000
0300
0000
0011
0000
0000
0000
0010
0020
0000
0000
,  // measure 28
1030
0000
0001
0000
0100
0000
0010
0000
0100
0001
0010
0000
0200
0000
0000
0000
,  // measure 29
2300
0000
0000
0000
0010
0000
0000
0000
3010
0000
0100
0000
0001
0010
0001
0000
,  // measure 30
0100
0000
0000
0100
0000
0000
0100
0000
0002
0000
1000
0000
0020
0000
0003
0000
,  // measure 31
0031
0000
0000
0100
0001
0100
0010
0000
1000
0001
0000
0001
1000
0000
0000
0000
,  // measure 32
0020
0030
0000
0020
0000
0000
0130
0000
0002
0000
0000
0000
1003
0000
0000
0000
,  // measure 33
0100
1000
0100
1000
0001
0000
0100
0000
0010
0000
0000
1010
0000
0000
0000
0000
,  // measure 34
0010
0001
0100
0000
0001
0100
2000
0000
,  // measure 35
3010
0000
0000
0000
0000
0000
0000
0000
0000
0000
0000
0000
0000
0000
0000
0000
0100
0000
0000
0001
0000
0000
1000
0000
0001
0000
0000
0000
0000
0000
0000
0000
,  // measure 36
1000
0020
0000
0000
0030
0000
0100
0000
0000
0001
0100
0001
0010
0100
1000
0001
,  // measure 37
0200
0000
0300
0010
0001
0000
1000
0000
0001
1000
0000
1000
1000
0000
0000
0000
,  // measure 38
0011
0000
0000
1100
0000
0000
0000
0001
0200
0000
0300
0000
0010
1000
0002
0000
,  // measure 39
0023
0000
0030
0000
0000
1100
0000
0010
0202
0000
0000
0000
0303
0000
0000
0000
,  // measure 40
1000
0100
0000
0001
0100
0000
0000
0000
0020
1000
0000
0230
0001
0000
0000
0000
,  // measure 41
0310
0000
0000
0010
0100
0000
0000
0000
1000
0000
0010
0000
0100
0001
0010
0000
,  // measure 42
1000
0000
0000
0000
0000
0000
0001
0000
0000
0001
0000
0000
1000
0001
1000
0001
,  // measure 43
1000
0000
0000
0000
0010
0010
0000
0000
0001
0000
0100
0000
0010
0000
0001
0000
,  // measure 44
1100
0000
0000
0100
0001
0000
0010
0000
0002
0000
0000
0000
0003
0000
0000
0100
,  // measure 45
0001
1000
0010
0100
0002
0010
1003
0100
,  // measure 46
2000
0000
0000
3002
0000
0010
0023
0000
0230
0000
0000
0000
0300
0000
0000
0000
,  // measure 47
0010
0100
0001
0000
0010
0000
2000
0000
0100
0000
0000
0000
3001
0000
0000
0000
,  // measure 48
0101
0000
1010
0000
0001
0000
0000
0000
0100
0010
1000
0100
0010
0000
0000
0000
,  // measure 49
0002
0000
0010
0000
0103
0000
0010
0100
2000
0100
0000
0000
3100
0000
0000
0000
,  // measure 50
0002
0023
0032
0103
0200
0000
0300
0000
,  // measure 51
1010
0000
0000
0100
0001
0000
0010
0000
0010
0000
1000
0000
0100
0000
0000
0000
,  // measure 52
0012
0000
0000
0100
0000
0000
0200
0000
0003
0000
0000
0000
0320
0000
0000
0000
,  // measure 53
0130
0000
0000
0000
1000
0100
1000
0000
0002
0000
0000
2003
0000
0000
3010
0000
,  // measure 54
0010
0000
0100
0000
0001
0010
0100
0000
1000
0000
1000
0000
0010
0000
1000
0000
,  // measure 55
0200
0000
0000
0000
2300
0000
0000
0000
3001
0010
0001
0000
1000
0001
0100
0000
,  // measure 56
0020
0000
0000
0030
;

//---------------dance-single - ----------------
#NOTEDATA:;
#CHARTNAME:;
#STEPSTYPE:dance-single;
#DESCRIPTION:;
#CHARTSTYLE:;
#DIFFICULTY:Medium;
#METER:4;
#RADARVALUES:0.226554,0.270382,0.027225,0.142933,0.051047,233.000000,229.000000,4.000000,21.000000,0.000000,0.000000,0.000000,0.000000,0.000000,0.226554,0.270382,0.027225,0.142933,0.051047,233.000000,229.000000,4.000000,21.000000,0.000000,0.000000,0.000000,0.000000,0.000000;
#CREDIT:;
#NOTES:
// measure 0
0000
0000
0000
0000
,  // measure 1
0000
0000
0000
0000
,  // measure 2
0000
0000
0000
0000
,  // measure 3
0000
0000
0000
0000
,  // measure 4
0000
0000
0000
0000
,  // measure 5
0001
0001
0001
0000
1000
0100
0001
0000
,  // measure 6
1000
1000
1000
0000
0001
0010
1000
0010
,  // measure 7
0001
0000
0000
0000
,  // measure 8
0001
0100
0010
0000
0100
0100
1000
0000
,  // measure 9
0100
0000
0001
0000
1000
0001
1000
0000
,  // measure 10
1000
0000
0000
0001
0000
0000
1000
0000
0020
0000
0000
0000
0030
0000
0000
0000
,  // measure 11
0100
0000
0001
0000
1000
0000
0100
0010
,  // measure 12
0100
0000
1000
0000
0001
0000
0000
0100
,  // measure 13
0100
0000
0000
0000
0001
0000
0000
0000
1000
0000
0000
0001
0000
0000
0100
0000
,  // measure 14
0001
1000
0100
0010
,  // measure 15
0100
1000
0001
0000
1000
0000
0010
0000
,  // measure 16
0020
0000
0000
0100
0000
0000
0100
0000
0000
0000
0000
0000
0130
0000
0000
0000
,  // measure 17
1000
0000
0001
0000
1000
0001
0010
0000
,  // measure 18
0002
0000
0000
1000
0000
0000
1000
0000
0000
0000
0000
0000
1003
0000
0000
0000
,  // measure 19
0100
0010
0100
0010
0110
0000
0001
1000
,  // measure 20
0002
0000
1003
0000
0200
0000
0300
0010
,  // measure 21
0020
0030
1000
1000
,  // measure 22
0001
0000
0100
0010
0100
0000
0000
0000
,  // measure 23
0001
0000
1000
0000
0010
0000
0000
0000
0100
0000
0000
0001
0000
0000
1000
0000
,  // measure 24
0000
0000
0010
0100
0000
0000
0010
0000
,  // measure 25
2000
0000
3100
0000
0001
0010
0100
0000
,  // measure 26
1000
0001
0200
0300
,  // measure 27
0010
0000
0000
0100
0000
0000
0001
0000
1000
0000
0000
0000
1000
0000
0000
0000
,  // measure 28
0001
0000
0000
0000
0001
0000
0000
0000
1000
0000
0000
0100
0000
0000
0010
0000
,  // measure 29
0002
0000
0103
0000
0000
0001
1000
0001
,  // measure 30
2000
3010
0200
0310
,  // measure 31
0001
0000
1000
0100
1000
0001
1000
0000
,  // measure 32
0010
0000
0000
0010
0000
0000
0000
0000
0100
0000
0000
0100
0000
0000
0000
0000
,  // measure 33
0001
0000
0000
0001
0000
0000
0000
0000
1000
0000
0000
1000
0000
0000
0000
0000
,  // measure 34
0100
1000
0001
0000
0100
0001
1000
0000
,  // measure 35
1001
0000
0010
0010
,  // measure 36
0100
0100
0001
0000
0100
0010
1000
0000
,  // measure 37
0200
0000
0000
0000
1300
0000
0000
0000
0001
0000
0000
0010
0000
0000
0010
0000
,  // measure 38
0100
1000
0002
0003
,  // measure 39
1000
1000
0001
0001
0200
0000
0310
0000
,  // measure 40
0200
0301
1000
0001
,  // measure 41
1000
0001
1000
0001
,  // measure 42
0200
0301
0020
1030
,  // measure 43
0001
1000
1000
0000
0010
0100
0000
0000
,  // measure 44
0001
1001
1000
0000
,  // measure 45
0100
0110
0010
0000
,  // measure 46
0001
1000
0001
0000
1000
0000
0000
0000
,  // measure 47
0100
0001
1000
0010
0200
0000
0300
0000
,  // measure 48
0001
0000
0001
0000
0000
1000
0001
0000
,  // measure 49
1000
0000
1000
0000
0000
0001
1000
0000
,  // measure 50
0100
0000
1000
0001
0010
0000
0100
0000
,  // measure 51
0100
0010
0001
1000
,  // measure 52
0000
0000
0000
0002
0000
0000
1000
0000
0000
0000
0000
0000
0003
0000
0000
0000
,  // measure 53
0100
0000
0000
0001
0000
0000
1000
0000
0100
0000
0000
1000
0000
0000
0001
0000
,  // measure 54
0020
0130
1000
0001
,  // measure 55
0100
0000
0010
0000
0001
1000
0010
0000
,  // measure 56
0200
0000
0000
0300
;

//---------------dance-single - ----------------
#NOTEDATA:;
#CHARTNAME:;
#STEPSTYPE:dance-single;
#DESCRIPTION:;
#CHARTSTYLE:;
#DIFFICULTY:Easy;
#METER:2;
#RADARVALUES:0.128348,0.171520,0.081676,0.163352,0.000000,132.000000,120.000000,12.000000,24.000000,0.000000,0.000000,0.000000,0.000000,0.000000,0.128348,0.171520,0.081676,0.163352,0.000000,132.000000,120.000000,12.000000,24.000000,0.000000,0.000000,0.000000,0.000000,0.000000;
#CREDIT:;
#NOTES:
// measure 0
0000
0000
0000
0000
,  // measure 1
0000
0000
0000
0000
,  // measure 2
0000
0000
0000
0000
,  // measure 3
0000
0000
0000
0000
,  // measure 4
0000
0000
0000
0000
,  // measure 5
0001
0001
1000
1000
,  // measure 6
0010
0100
0010
0100
,  // measure 7
0001
0000
0000
0000
,  // measure 8
1000
0001
0000
0001
,  // measure 9
0010
0100
1000
0000
,  // measure 10
0010
0010
0020
0000
,  // measure 11
0130
0000
0110
0000
,  // measure 12
0100
0200
0300
0000
,  // measure 13
0100
0010
1000
0001
,  // measure 14
1000
0001
1001
0000
,  // measure 15
0001
2000
3001
0000
,  // measure 16
1000
0100
0000
0100
,  // measure 17
1000
0001
0000
0001
,  // measure 18
0001
0100
0000
0100
,  // measure 19
0001
1000
0000
1000
,  // measure 20
1001
0000
0100
0000
,  // measure 21
0010
0000
1000
0001
,  // measure 22
0100
0000
0100
0000
,  // measure 23
0001
0000
1000
0001
,  // measure 24
1000
0000
0200
0000
,  // measure 25
0310
0000
0001
1000
,  // measure 26
0001
0000
1000
0000
,  // measure 27
0010
0100
0000
0000
,  // measure 28
1001
0000
0000
0000
,  // measure 29
0020
0000
0030
0000
,  // measure 30
0100
0001
1000
0000
,  // measure 31
0100
0000
0000
0000
,  // measure 32
0010
0010
0100
0000
,  // measure 33
0100
0100
0010
0000
,  // measure 34
0220
0000
0000
0000
,  // measure 35
0330
0000
0000
0000
,  // measure 36
0001
0001
1000
0100
,  // measure 37
1000
0000
0000
0000
,  // measure 38
1001
0000
0020
0030
,  // measure 39
0100
0010
0200
0300
,  // measure 40
0002
0003
2000
3000
,  // measure 41
2002
3003
2002
3003
,  // measure 42
0020
0000
0030
0000
,  // measure 43
0000
0000
0100
1001
,  // measure 44
0100
0000
0200
0300
,  // measure 45
0010
0000
0020
0030
,  // measure 46
0001
1000
1001
0000
,  // measure 47
2000
3000
0002
0003
,  // measure 48
2002
3003
0000
0000
,  // measure 49
0100
0001
0010
0000
,  // measure 50
0100
1000
0010
0000
,  // measure 51
0100
0000
0100
0000
,  // measure 52
0000
0010
0020
0000
,  // measure 53
0000
0000
0100
0000
,  // measure 54
0230
0000
0300
0000
,  // measure 55
0001
1000
0001
1000
,  // measure 56
1001
0000
0000
0000
;

//---------------dance-single - ----------------
#NOTEDATA:;
#CHARTNAME:;
#STEPSTYPE:dance-single;
#DESCRIPTION:;
#CHARTSTYLE:;
#DIFFICULTY:Beginner;
#METER:1;
#RADARVALUES:0.067091,0.114346,0.061257,0.000000,0.000000,69.000000,60.000000,9.000000,0.000000,0.000000,0.000000,0.000000,0.000000,0.000000,0.067091,0.114346,0.061257,0.000000,0.000000,69.000000,60.000000,9.000000,0.000000,0.000000,0.000000,0.000000,0.000000,0.000000;
#CREDIT:;
#NOTES:
// measure 0
0000
0000
0000
0000
,  // measure 1
0000
0000
0000
0000
,  // measure 2
0000
0000
0000
0000
,  // measure 3
0000
0000
0000
0000
,  // measure 4
0000
0000
0000
0000
,  // measure 5
0001
0000
1000
0000
,  // measure 6
0001
0000
1000
0000
,  // measure 7
1001
0000
0000
0000
,  // measure 8
0100
0000
0000
0000
,  // measure 9
0000
0000
0000
0000
,  // measure 10
0010
0000
0000
0000
,  // measure 11
0010
0000
0000
0000
,  // measure 12
0100
0000
0000
0000
,  // measure 13
0100
0000
0000
0000
,  // measure 14
0001
0000
1000
0000
,  // measure 15
1001
0000
0000
0000
,  // measure 16
0100
0000
0000
0000
,  // measure 17
0000
0000
0000
0000
,  // measure 18
0010
0000
0000
0000
,  // measure 19
0000
0000
0000
0000
,  // measure 20
1001
0000
0100
0000
,  // measure 21
0010
0000
0000
0000
,  // measure 22
0100
0000
0000
0000
,  // measure 23
0100
0000
0000
0000
,  // measure 24
0000
0000
0001
0000
,  // measure 25
1000
0000
0000
0000
,  // measure 26
0010
0000
0000
0000
,  // measure 27
0010
0000
0100
0000
,  // measure 28
0110
0000
0000
0000
,  // measure 29
1001
0000
0000
0000
,  // measure 30
0001
0000
0000
0000
,  // measure 31
1000
0000
0000
0000
,  // measure 32
0010
0000
0010
0000
,  // measure 33
0010
0000
0000
0000
,  // measure 34
0100
0000
0100
0000
,  // measure 35
0100
0000
0000
0000
,  // measure 36
1001
0000
0000
0000
,  // measure 37
0001
0000
1000
0000
,  // measure 38
0001
0000
1000
0000
,  // measure 39
0010
0010
0010
0000
,  // measure 40
0010
0000
0000
0000
,  // measure 41
0100
0100
0100
0000
,  // measure 42
0100
0000
0000
0000
,  // measure 43
0001
0000
1000
0000
,  // measure 44
0010
0000
0000
0000
,  // measure 45
0100
0000
0000
0000
,  // measure 46
0001
0000
1000
0000
,  // measure 47
1001
0000
0000
0000
,  // measure 48
1001
0000
0000
0000
,  // measure 49
0000
0000
0000
0000
,  // measure 50
0010
0000
0000
0000
,  // measure 51
0000
0000
0000
0000
,  // measure 52
0100
0000
0000
0000
,  // measure 53
0000
0000
0000
0000
,  // measure 54
0100
0000
0000
0000
,  // measure 55
0000
0000
0000
0000
,  // measure 56
1001
0000
0000
0000
;

//---------------dance-single - Impossible----------------
#NOTEDATA:;
#CHARTNAME:;
#STEPSTYPE:dance-single;
#DESCRIPTION:Impossible;
#CHARTSTYLE:;
#DIFFICULTY:Challenge;
#METER:10;
#RADARVALUES:0.615487,0.656641,0.204190,0.163352,1.017547,633.000000,603.000000,30.000000,24.000000,0.000000,0.000000,0.000000,0.000000,0.000000,0.615487,0.656641,0.204190,0.163352,1.017547,633.000000,603.000000,30.000000,24.000000,0.000000,0.000000,0.000000,0.000000,0.000000;
#CREDIT:;
#NOTES:
// measure 0
0000
0000
0000
0000
,  // measure 1
0000
0000
0000
0000
,  // measure 2
0000
0000
0000
0000
,  // measure 3
0000
0000
0000
0000
,  // measure 4
0000
0000
0000
0000
,  // measure 5
0010
1000
0001
0100
0001
0000
0010
0000
0100
1000
0010
0100
0001
0010
1000
0000
,  // measure 6
0010
0100
1000
0000
0001
0100
0010
0001
0010
1000
0100
0000
1001
0000
0010
0000
,  // measure 7
0200
0300
0000
0000
0000
0000
0000
0000
0000
0000
0000
0000
0000
0000
0000
0000
0000
0000
0000
0000
0000
0000
0000
0000
0000
0000
0000
0000
0000
0000
0000
0000
0000
0000
0000
0000
0000
0000
0000
0000
0000
0000
0000
0000
0000
0000
0000
0000
0000
0000
0000
0000
0000
0000
0000
0000
0000
0000
0000
0000
0000
0000
0000
0000
0001
0000
0000
0000
0000
0000
0000
0000
0000
0000
0000
0000
0000
0000
0000
0000
1000
0000
0000
0000
0000
0000
0000
0000
0000
0000
0000
0000
0000
0000
0000
0000
0010
0000
0000
0000
0000
0000
0000
0000
0000
0000
0000
0000
0000
0000
0000
0000
0001
0000
0000
0000
0000
0000
0000
0000
0000
0000
0000
0000
0000
0000
0000
0000
0100
0000
0000
0000
0000
0000
0000
0000
0000
0000
0000
0000
0000
0000
0000
0000
0010
0000
0000
0000
0000
0000
0000
0000
0000
0000
0000
0000
0010
0000
0000
0000
0000
0000
0000
0000
0000
0000
0000
0000
0000
0000
0000
0000
0000
0000
0000
0000
0000
0000
0000
0000
0100
0000
0000
0000
0000
0000
0000
0000
0000
0000
0000
0000
,  // measure 8
0010
0000
0000
0000
1000
0000
0000
0000
0101
0000
0000
0000
0000
0000
0010
0000
0001
0000
0010
0000
1000
0000
0010
0000
0100
0000
0000
0000
1000
0000
0001
0100
,  // measure 9
0001
0010
0000
0001
1000
0000
0101
0000
0010
1000
0001
0010
1000
0010
0100
0000
,  // measure 10
0001
0000
0100
0000
0000
0000
0010
0100
0010
0000
0100
0000
0001
0000
0000
0000
0020
0000
0000
0000
0100
0000
0000
0000
0031
0000
1000
0000
0001
0000
0000
0000
,  // measure 11
0100
0000
0010
0000
0000
0000
0100
0001
0010
0000
0100
0000
1000
0000
0001
0000
0100
0000
0100
0000
0010
0000
0000
0000
1000
0000
0001
0000
0010
0000
0000
0000
,  // measure 12
0100
1000
0001
0000
0200
0000
0000
0000
0310
0010
0000
1000
0100
0001
1000
0000
,  // measure 13
0010
0000
0100
0000
0001
0000
0010
0000
0000
0000
0000
0000
0100
0000
0000
1000
0000
0000
0001
0000
0000
0000
0000
0000
0100
0000
0000
0001
0000
0000
1000
0000
0000
0010
0000
0000
0100
0000
0000
0100
0000
0000
0100
0000
0000
0000
0000
0000
,  // measure 14
0001
0000
0010
0000
0100
0000
0010
0000
0001
0000
1000
0010
1000
0000
0001
0000
1000
0000
0100
0000
0010
0000
0000
0000
0101
0000
0000
0000
1000
0000
0000
0000
,  // measure 15
0010
0000
0010
0000
0100
0000
0020
0000
0000
0000
1000
0000
1030
0000
0000
0000
0001
0000
0000
0000
0100
0001
0100
0000
0000
0000
0010
0000
1000
0100
1000
0000
,  // measure 16
0001
0100
0010
2000
0100
0000
0001
0000
3001
1000
0010
0100
0001
0010
0100
0000
,  // measure 17
1100
0000
0000
0000
0000
0000
0000
0000
0000
0000
0000
0000
0000
0000
0000
0000
0000
0000
0000
0000
0000
0000
0000
0000
0000
0000
0000
0000
0000
0000
0000
0000
0000
0000
0000
0000
0001
0000
0000
0000
0000
0000
0100
0000
0000
0000
0000
0000
0001
0000
0000
0000
0000
0000
0000
0000
0000
0000
0000
0000
0010
0000
0000
0000
0000
0000
0000
0000
0000
0000
0000
0000
0001
0000
0000
0000
0000
0000
0000
0000
1000
0000
0000
0000
0000
0000
0000
0000
0100
0000
0000
0000
0000
0000
0000
0000
1000
0000
0000
0000
0000
0000
0000
0000
0010
0000
0000
0000
0000
0000
0000
0000
0100
0000
0000
0000
0000
0000
0000
0000
0001
0000
0000
0000
0000
0000
0000
0000
0000
0000
0000
0000
1000
0000
0000
0000
0000
0000
0000
0000
0000
0000
0000
0000
0010
0000
0000
0000
0000
0000
0000
0000
0000
0000
0000
0000
0100
0000
0000
0000
0000
0000
0000
0000
0000
0000
0000
0000
0001
0000
0000
0000
0000
0000
0000
0000
0000
0000
0000
0000
0000
0000
0000
0000
0000
0000
0000
0000
0000
0000
0000
0000
,  // measure 18
1100
0000
0000
0102
0010
0000
0010
0000
0103
0000
0010
0000
1000
0100
0010
0000
,  // measure 19
1000
0001
1000
0000
0000
0000
0100
0000
0010
0000
0010
0000
0100
0000
0000
0000
0001
0010
0100
0000
1000
0000
0001
0000
0000
0000
0001
0000
1000
0000
0010
0000
,  // measure 20
0010
0000
0000
0000
0000
0000
0000
0000
0000
0100
0000
0000
0010
0000
0000
0000
1000
0000
0000
0000
0001
0000
0000
0000
0200
0000
0000
0000
0001
0000
0000
0000
0010
0000
0000
0000
0301
0000
0000
0000
1000
0000
0000
0000
0001
0000
0000
0000
,  // measure 21
0010
0000
0000
0000
0001
0000
1000
0000
0000
0000
1000
0100
1000
0000
0010
0000
0100
0000
0100
0000
0001
0000
1000
0000
0000
0000
0001
0000
1000
0000
0000
0000
,  // measure 22
0010
0100
0001
1000
0000
0001
1000
0010
0020
0000
0000
0000
0130
0000
0001
0000
,  // measure 23
1000
0000
0100
1000
0000
0100
1000
0000
0010
0000
0010
0000
0100
0000
0000
0000
0001
0000
0100
0000
1000
0000
0102
0000
0000
0000
0010
0000
1003
0000
0000
0000
,  // measure 24
0100
0000
0000
0000
1000
0000
0001
0000
0100
0000
0001
0000
0010
0000
0000
0000
0100
0000
0000
1000
0100
0000
1000
0000
0010
0000
0100
0000
0001
0000
0000
0000
,  // measure 25
1100
0000
0000
0010
0000
0000
0001
0000
0100
0000
0000
0000
0010
0000
0000
0000
1000
0001
0000
1000
0001
0000
0010
0000
0100
0000
0000
0000
1000
0000
0000
0000
,  // measure 26
0202
0000
0000
0000
0000
0000
0000
0000
0303
0000
0000
0000
0000
0000
0000
0000
2200
0000
0000
0000
0000
0000
0000
0000
3300
0000
0000
0000
0001
1000
0100
0000
,  // measure 27
0010
0000
0000
0000
0000
0000
0010
0000
0000
0100
0000
0000
0000
0000
0000
0100
0000
0000
1000
0000
0000
0000
0000
0000
0001
0000
0000
0000
1000
0000
0000
0000
0001
0000
1000
0000
0100
0000
0000
0010
0000
0000
0100
0000
0000
0000
0000
0000
,  // measure 28
1000
0001
0100
0002
0000
0000
0013
0000
1100
0000
0010
0100
1000
0100
0001
0000
,  // measure 29
1010
0000
0000
0000
0000
0000
0000
0000
0000
0000
0000
0000
0000
0000
0000
0000
0000
0000
0000
0100
0000
0000
0001
0000
0000
0000
0010
0000
0000
0100
0000
0000
,  // measure 30
1000
0000
0000
0000
0001
0100
0001
0000
0000
0000
0010
0000
0100
0000
0000
0000
1100
0000
0010
0000
0100
0000
0002
0000
0000
0000
0000
0000
0003
0000
0000
0000
,  // measure 31
1000
0010
0000
0000
0100
0000
0000
0000
0001
0000
0010
0000
0100
1000
0100
1000
0001
0000
0100
0000
0000
0000
0010
0000
0100
0000
0001
0000
1000
0000
0000
0000
,  // measure 32
0001
0010
0001
0000
0000
0000
0100
0010
0100
0000
0010
0000
1000
0000
0000
0000
0101
0000
0000
0000
0000
0000
1000
0100
0010
0000
0001
0000
1000
0000
0000
0000
,  // measure 33
0001
0000
0100
0000
1000
0000
0100
0000
0010
0000
0000
0000
1000
0000
0000
0001
0100
0000
0010
0000
0000
0000
0100
0000
0020
0000
0000
0000
0130
0000
0000
0000
,  // measure 34
0110
0000
0000
0000
,  // measure 35
1001
0000
0000
0000
0000
0000
0000
0000
0000
0000
0000
0000
0000
0000
0000
0000
0000
0000
0000
0000
0000
0000
0000
0000
0000
0000
0000
0000
0000
0000
0000
0000
0000
0000
0000
0000
0000
0000
0000
0000
0000
0000
0000
0000
0000
0000
0000
0000
1000
0000
0000
0000
0000
0000
0000
0000
0100
0000
0000
0000
0000
0000
0000
0000
0001
0000
0000
0000
0000
0000
0000
0000
0100
0000
0000
0000
0000
0000
0000
0000
1000
0000
0000
0000
0000
0000
0000
0000
0001
0000
0000
0000
0000
0000
0000
0000
1000
0000
0000
0000
0000
0000
0000
0000
0000
0000
0000
0000
0000
0000
0000
0000
0000
0000
0010
0000
0000
0000
0000
0000
0000
0000
0000
0000
0000
0000
0000
0000
0000
0000
0000
0000
0101
0000
0000
0000
0000
0000
0000
0000
0000
0000
0000
0000
0000
0000
0000
0000
0000
0000
1000
0000
0000
0000
0000
0000
0000
0000
0000
0000
0000
0000
0000
0000
0000
0000
0000
0000
0010
0000
0000
0000
0000
0000
0000
0000
0000
0000
0000
0000
0000
0000
0000
0000
0000
0000
0000
0000
0000
0000
0000
0000
,  // measure 36
0100
0000
0000
0002
0000
0000
0000
0000
0000
0000
0000
0000
0103
0000
0000
0000
0000
0000
0010
0000
0000
0000
0000
0000
1000
0000
0100
0000
1000
0000
0100
0000
0001
0000
0100
0000
0010
0000
0001
0000
1000
0000
0010
0000
0100
0000
0001
0000
,  // measure 37
1000
0000
0000
0001
1000
0001
1000
0001
1000
0000
0000
0020
0000
0000
0030
0000
,  // measure 38
1000
0000
0000
0000
0000
0000
0000
0000
0000
0000
0000
0000
0000
0000
0000
0000
0000
0000
0000
0000
0000
0000
0000
0000
0000
0000
0000
0000
0000
0000
0000
0000
0000
0000
0000
0000
0100
0000
0000
0000
0000
0000
0000
0000
0000
0000
0000
0000
0010
0000
0000
0000
0000
0000
0000
0000
0000
0000
0000
0000
0001
0000
0000
0000
0000
0000
0000
0000
0000
0000
0000
0000
1000
0000
0000
0000
0000
0000
0000
0000
0000
0000
0000
0000
0000
0000
0000
0000
0000
0000
0000
0000
0000
0000
0000
0000
0010
0000
0000
0000
0000
0000
0000
0000
0000
0000
0000
0000
0000
0000
0000
0000
0000
0000
0100
0000
0000
0000
0000
0000
0000
0000
0000
0000
0000
0000
0000
0000
0000
0000
0000
0000
0100
0000
0000
0000
0000
0000
0000
0000
0000
0000
0000
0000
0010
0000
0000
0000
0000
0000
0000
0000
0100
0000
0000
0000
0000
0000
0000
0000
0010
0000
0000
0000
0000
0000
0000
0000
1000
0000
0000
0000
0000
0000
0000
0000
0000
0000
0000
0000
0000
0000
0000
0000
0001
0000
0000
0000
0000
0000
0000
0000
,  // measure 39
0000
0000
0000
0000
1000
0000
0000
0000
0010
0100
0001
0010
0100
0000
0000
0000
1000
0000
0001
0000
1000
0000
0101
0000
0000
0000
0010
0100
0010
0000
1000
0000
,  // measure 40
0100
1000
0000
0101
0000
1000
0000
0010
0100
0001
0010
0100
1000
0001
1000
0000
,  // measure 41
0001
0100
0000
0001
0100
0000
0010
0000
0100
0000
0100
0000
0001
0000
0000
0000
1000
0000
0100
0000
0010
0000
0100
0000
1000
0000
0000
0001
0000
0000
1000
0000
,  // measure 42
0002
0000
0000
0000
0000
0000
0000
0000
0000
0100
0000
0000
0000
0000
0000
0000
0000
0000
0100
0000
0000
0000
0000
0000
1003
0000
0000
0010
0000
0000
0100
0000
0000
0000
0000
0000
0001
0000
0010
0000
0100
0000
1000
0000
0001
0000
1000
0000
,  // measure 43
0001
0000
1000
0000
0001
0000
0000
0000
0010
0100
1000
0000
0000
0000
0000
0000
0101
0000
0010
0000
0100
0000
0000
0000
0001
0000
1000
0000
0001
0000
0000
0100
,  // measure 44
0001
0000
0010
0000
0100
0000
0010
0000
0000
0000
0100
0000
1000
0000
0000
0000
0010
0000
0000
0000
0000
0000
0000
0000
0110
0000
0000
0000
0000
0000
0000
0100
,  // measure 45
0010
0100
0001
0010
0000
0100
1000
0000
0101
0000
0000
1000
0001
0000
0101
0000
,  // measure 46
0010
0000
1000
0000
0001
0000
0100
0000
0000
0000
0001
0010
0001
0000
0000
0000
1000
0000
0000
0100
0000
0000
1000
0000
0100
0000
0000
0000
1000
0000
0000
0000
,  // measure 47
0010
0000
0000
0000
0100
0000
0000
0000
0011
0000
0000
0000
1000
0000
0000
0000
0010
0000
0000
0000
0000
0100
0000
0000
0000
0000
0010
0000
0000
0000
0000
0000
,  // measure 48
0101
0000
0000
0000
0001
0000
1000
0000
0001
0100
0010
0000
0000
0000
0000
0000
1000
0000
0100
0000
0000
0000
0100
0010
0100
0000
0010
0000
0001
0000
0000
0000
,  // measure 49
1000
0000
0010
0000
0100
0000
0001
0000
0000
0000
0010
0000
0100
0000
0000
0000
1000
0010
1000
0000
0001
0000
0100
0000
0010
0000
0001
0000
0010
0000
0000
0000
,  // measure 50
1000
0000
0000
0000
0000
0000
0000
0000
0100
0000
0000
0000
0000
0000
0000
0000
0001
0000
0000
0000
0000
0000
0000
0000
0100
0000
0000
0000
0000
0000
0000
0000
0010
0000
0000
0000
0000
0000
0000
0000
0001
0000
0000
0000
0000
0000
0000
0000
1000
0000
0000
0000
0000
0000
0000
0000
0010
0000
0000
0000
0000
0000
0000
0000
0100
0000
0000
0000
0000
0000
0000
0000
0001
0000
0000
0000
0000
0000
0000
0000
0000
0000
0000
0000
0000
0000
0000
0000
0000
0000
0000
0000
0000
0000
0000
0000
1000
0000
0000
0000
0000
0000
0000
0000
0001
0000
0000
0000
0000
0000
0000
0000
1000
0000
0000
0000
0000
0000
0000
0000
0001
0000
0000
0000
0000
0000
0000
0000
0000
0000
0000
0000
0100
0000
0000
0000
0000
0000
0000
0000
0000
0000
0000
0000
0000
0000
0000
0000
0000
0000
0000
0000
0000
0000
0000
0000
0010
0000
0000
0000
0000
0000
0100
0000
0000
0000
0000
0000
0001
0000
0000
0000
0000
0000
0000
0000
0000
0000
0000
0000
1000
0000
0000
0000
0000
0000
0000
0000
0000
0000
0000
0000
,  // measure 51
0100
0000
0020
0000
0000
0000
0000
0000
0130
0000
0000
0100
0010
0000
0001
0000
1000
0000
0100
0000
0000
0000
0100
0000
1000
0000
0010
0000
0100
0000
0001
0000
,  // measure 52
0000
0000
0000
0000
1000
0100
1000
0000
0000
0000
1000
0000
0002
0000
0000
0000
0100
0000
0000
0000
0000
0000
0000
0000
0020
0000
0000
0000
0000
0000
0000
0000
,  // measure 53
0033
0000
0000
0000
0100
1000
0010
0000
0000
0000
0100
0000
0001
0000
0000
0000
1100
0000
0000
0010
0000
0000
0100
0000
0001
0000
0000
0000
1100
0000
0000
0000
,  // measure 54
0101
0000
0000
0000
0000
0000
0000
0000
0000
0000
0000
0000
0000
0000
0000
0000
0000
0000
0000
0000
0000
0000
0000
0000
1000
0000
0000
0000
0000
0000
0000
0000
0100
0000
0000
0000
0000
0000
0000
0000
0001
0000
0000
0000
0000
0000
0000
0000
0100
0000
0000
0000
0000
0000
0000
0000
1000
0000
0000
0000
0000
0000
0000
0000
0010
0000
0000
0000
0000
0000
0000
0000
0100
0000
0000
0000
0000
0000
0000
0000
0000
0000
0000
0000
0000
0000
0000
0000
0000
0000
0000
0000
0000
0000
0000
0000
0001
0000
0000
0000
0000
0000
0000
0000
0000
0000
0000
0000
0100
0000
0000
0000
0000
0000
0000
0000
0000
0000
0000
0000
0000
0000
0000
0000
0000
0000
0000
0000
0000
0000
0000
0000
0100
0000
0000
0000
0000
0000
0010
0000
0000
0000
0000
0000
1000
0000
0000
0000
0000
0000
0000
0000
0000
0000
0000
0000
0001
0000
0000
0000
0000
0000
0000
0000
0000
0000
0000
0000
0000
0000
0000
0000
0000
0000
0000
0000
0000
0000
0000
0000
0000
0000
0000
0000
0000
0000
0000
0000
0000
0000
0000
0000
,  // measure 55
1000
0000
0000
0001
0000
0000
0000
0000
0000
0000
0100
0000
0000
0000
0100
0000
0000
0000
0100
0000
0000
0000
0100
0000
0000
0000
0001
0000
1000
0000
0000
0000
0000
0000
0000
0000
0010
0000
0000
0100
0000
0000
0001
0000
0000
1000
0000
0000
,  // measure 56
2002
0000
0000
3003
;
