#TITLE:song 41;
#SUBTITLE:;
#ARTIST:Bill Wurtz;
#TITLETRANSLIT:;
#SUBTITLETRANSLIT:;
#ARTISTTRANSLIT:;
#GENRE:;
#CREDIT:8Chasey;
#MUSIC:song41.ogg;
#BANNER:;
#BACKGROUND:;
#CDTITLE:;
#SAMPLESTART:20.280;
#SAMPLELENGTH:15.000;
#SELECTABLE:YES;
#OFFSET:-0.212;
#BPMS:0.000=200.000
,65.000=400.000
,120.000=200.000
,121.000=100.000
,153.000=400.000
,216.000=100.000
;
#STOPS:63.500=0.900
,120.000=1.050
;
#BGCHANGES:3.750=song41.avi=1.000=0=0=0=StretchNoLoop====,
99999.000=-nosongbg-=1.000=0=0=0=StretchNoLoop====
;
#FGCHANGES:;

//--------------- dance-single - 8Chasey - 2025 chart ----------------
#NOTES:
     dance-single:
     8Chasey - 2025 chart:
     Beginner:
     3:
     0,0,0,0,0:
0000
0000
0000
0000
,
1001
0000
0001
0000
,
1000
0000
0001
0000
,
1000
0000
0010
0000
,
0100
0100
0100
0000
,
0110
0000
0000
0000
,
0001
0000
1000
0000
,
0010
0000
0100
0000
,
1001
0000
0000
0000
,
1000
1000
1000
0000
,
1000
0000
1000
0000
,
0001
0001
0001
0000
,
0001
0000
0001
0000
,
0010
0010
0010
0000
,
0100
0100
0100
0000
,
0110
0000
1001
0000
,
0000
0001
0000
0000
,
0000
0001
0000
0000
,
0000
0001
0000
0000
,
0000
0001
0000
0000
,
0000
1000
0000
0000
,
0000
1000
0000
0000
,
0000
1000
0000
0000
,
0000
1000
0000
0000
,
0000
0010
0000
0000
,
0000
0010
0000
0000
,
0000
0100
0000
0000
,
0000
0100
0000
0000
,
0000
1001
0000
0000
,
0000
0000
0000
0000
,
0000
1001
0000
0000
,
0000
0000
0000
0000
,
0000
0000
0000
0000
,
0000
0000
0000
0000
,
0000
0110
0000
0000
;

//--------------- dance-single - 8Chasey ----------------
#NOTES:
     dance-single:
     8Chasey:
     Easy:
     4:
     0,0,0,0,0:
0000
0000
0000
0000
,
1001
0000
0001
0000
,
0100
0100
0100
0000
,
0001
0000
1000
0000
,
0100
0100
0100
0000
,
1000
0000
0000
0000
,
0010
0000
1000
0000
,
0001
0000
0100
0010
,
0100
0000
0010
0000
,
1000
0100
1000
0000
,
1001
0000
0000
0000
,
0001
0100
0001
0000
,
0010
0010
0000
0000
,
0100
1000
0001
0000
,
0100
0001
1000
0000
,
1001
0000
0000
0000
0010
0000
0000
0100
,
0000
0001
0000
0000
,
0000
0001
0000
0000
,
0000
0001
0000
0000
,
0000
0001
0000
0000
,
0000
1000
0000
0000
,
0000
1000
0000
0000
,
0000
1000
0000
0000
,
0000
1000
0000
0000
,
0000
0010
0000
0000
,
0000
0010
0000
0000
,
0000
0100
0000
0000
,
0000
0100
0000
0000
,
0000
1001
0000
0000
,
0000
0000
0000
0000
,
0000
1001
0000
0000
,
0000
0000
0000
0000
,
0000
0000
0000
0000
,
0000
0000
0000
0000
,
0000
0110
0000
0000
;

//--------------- dance-single - 8Chasey ----------------
#NOTES:
     dance-single:
     8Chasey:
     Medium:
     7:
     0,0,0,0,0:
0000
0000
0000
0000
,
1001
0001
1000
0001
,
1000
1000
1000
0100
,
1000
0000
0010
1000
,
0001
0000
0000
0100
0001
0000
1000
0000
,
1001
0000
0100
0010
,
0100
0100
0001
1000
,
0100
0010
0100
0010
,
0100
1000
0101
0000
,
1100
0010
0100
0010
,
0100
0000
0001
0000
,
0011
1000
0010
1000
,
0010
0000
0100
0000
,
1010
1000
0100
0000
,
1000
0001
0100
0000
,
0010
0000
0100
0000
0010
0100
0000
0010
,
0000
1001
0000
0001
,
0000
1001
0000
0001
,
0000
0101
0000
0100
,
0000
0101
0000
0100
,
0000
1001
0000
1000
,
0000
1001
0000
1000
,
0000
1100
0000
0100
,
0000
1100
0000
0100
,
0000
1001
0000
0010
,
0000
1001
0000
0100
,
0000
0011
0000
1000
,
0000
1010
0000
0001
,
0000
0100
0010
0100
,
0000
0010
0100
0000
,
0110
1001
0000
0000
,
0000
0000
0000
0000
,
0000
0000
0000
0000
,
0000
0000
0000
0000
,
0010
0110
0000
0000
,
0000
0000
0000
0000
,
0000
0000
0000
0000
,
0000
0000
0000
0000
,
0000
0000
0000
1001
0000
0000
0000
0000
0000
0000
0000
0000
0000
0000
0000
0000
;

//--------------- dance-single - 8Chasey ----------------
#NOTES:
     dance-single:
     8Chasey:
     Hard:
     10:
     0,0,0,0,0:
0000
0000
0000
0000
,
1001
0000
1000
0001
0020
0000
0031
0000
,
1000
0010
1000
1100
0000
0010
0100
0000
,
0011
0000
1000
0010
1000
0000
1100
0000
,
0002
0000
0013
0001
2000
0000
3100
0000
,
0220
0000
0330
0010
0001
0000
1000
0100
,
1000
0000
0000
0000
0010
0000
1000
0010
1000
0000
0001
0000
0000
0000
0100
0000
,
0001
1000
0010
0000
0200
0000
0301
0020
,
0000
0130
0010
0000
0100
1000
1100
0000
,
1020
0000
0100
0000
1000
0000
0130
0001
,
0100
0000
0000
0000
0001
0000
0010
0001
0010
0000
0001
0000
0100
0000
0000
0000
,
0201
0000
0010
0000
0301
0100
0010
1000
,
0000
0000
0100
1000
0100
0000
1000
0000
0010
0000
1000
0000
0001
0000
0000
0000
,
2001
0000
0100
0000
3001
0010
0001
0100
,
0000
0000
0010
0100
0010
0000
0000
0000
1000
0000
0010
0000
0110
0000
0000
0000
,
0010
1000
0020
0000
0130
0001
0100
0101
,
1100
0001
0010
0001
,
0010
0100
1000
0020
,
0000
1030
0001
0100
,
0001
0000
0010
0000
0001
0000
1000
0001
,
1000
0010
1000
0010
,
0100
0001
0100
0000
0010
0000
0200
0000
,
0000
0310
1000
0100
,
0010
0000
0001
0000
1000
0000
0001
1000
,
0001
1000
0010
1000
,
0001
0010
0100
2000
,
0000
3010
1000
0001
,
0100
0000
0010
0000
1000
0000
0001
0100
,
0001
0100
0001
0100
,
0010
1000
0001
1000
,
1001
2002
0000
0000
,
0000
0000
0000
0000
,
0000
0000
0000
3003
,
0000
0000
0000
0200
0000
0000
0000
0300
,
0010
0100
0000
0000
0220
0000
0000
0000
0000
0000
0000
0000
0000
0000
0000
0000
,
0000
0000
0000
0000
,
0000
0000
0000
0000
,
0000
0000
0000
0000
,
0330
0000
0000
2002
0000
0000
0000
0000
0000
0000
0000
0000
0000
0000
0000
0000
,
0000
0000
0000
0000
,
0000
0000
0000
0000
,
0000
0000
0000
0000
,
0000
0000
0000
0000
,
0000
0000
0000
0000
,
0000
0000
0000
0000
,
0000
0000
0000
0000
,
0000
0000
0000
0000
,
0000
0000
0000
0000
,
0000
0000
0000
0000
,
0000
0000
0000
0000
,
0000
0000
0000
0000
,
0000
0000
0000
0000
,
0000
0000
0000
0000
,
0000
0000
0000
0000
,
3003
0000
0000
0000
;

//--------------- dance-single - 8Chasey - 2025 chart ----------------
#NOTES:
     dance-single:
     8Chasey - 2025 chart:
     Challenge:
     10:
     0,0,0,0,0:
0000
0000
0000
0000
,
1001
0000
1000
0001
0020
0000
0031
0000
,
1000
0010
1000
1100
0000
0010
0100
0000
,
0011
0000
1000
0010
1000
0000
1100
0000
,
0002
0000
0013
0001
2000
0000
3100
0000
,
0220
0000
0330
0010
0001
0000
1000
0100
,
1000
0000
0000
0000
0010
0000
1000
0010
1000
0000
0001
0000
0000
0000
0100
0000
,
0001
1000
0010
0000
0200
0000
0301
0020
,
0000
0130
0010
0000
0100
1000
1100
0000
,
1020
0000
0100
0000
1000
0000
0130
0001
,
0100
0000
0000
0000
0001
0000
0010
0001
0010
0000
0001
0000
0100
0000
0000
0000
,
0201
0000
0010
0000
0301
0100
0010
1000
,
0000
0000
0100
1000
0100
0000
1000
0000
0010
0000
1000
0000
0001
0000
0000
0000
,
2001
0000
0100
0000
3001
0010
0001
0100
,
0000
0000
0010
0100
0010
0000
0000
0000
1000
0000
0010
0000
0110
0000
0000
0000
,
0010
1000
0020
0000
0130
0001
0100
0101
,
1100
0001
0010
0001
,
0010
0100
1000
0020
,
0000
1030
0001
0100
,
0001
0000
0010
0000
0001
0000
1000
0001
,
1000
0010
1000
0010
,
0100
0001
0100
0000
0010
0000
0200
0000
,
0000
0310
1000
0100
,
0010
0000
0001
0000
1000
0000
0001
1000
,
0001
1000
0010
1000
,
0001
0010
0100
2000
,
0000
3010
1000
0001
,
0100
0000
0010
0000
1000
0000
0001
0100
,
0001
0100
0001
0100
,
0010
1000
0001
1000
,
1001
2002
0000
0000
,
0000
0000
0000
0000
,
0000
0000
0000
3003
,
0000
0000
0000
0200
0000
0000
0000
0300
,
0010
0100
0000
0000
0220
0000
0000
0000
0000
0000
0000
0000
0000
0000
0000
0000
,
0000
0000
0000
0000
,
0000
0000
0000
0000
,
0000
0000
0000
0000
,
0330
0000
0000
0000
0000
0000
0000
0000
0000
0000
0000
0000
0000
0000
0000
0000
0000
0000
0000
0000
0000
0100
0000
0000
0000
0000
0000
0000
0000
0000
0000
0000
1000
0000
0000
0000
0000
0000
0000
0000
0000
0000
0000
0000
0000
0000
0000
0000
0010
0000
0000
0000
0000
0000
0000
0000
0000
0000
0000
0000
0000
0000
0000
0000
0100
0000
0000
0000
0000
0000
0000
0000
0000
0000
0000
0000
0000
0000
0000
0000
0001
0000
0000
0000
0000
0000
0000
0000
0000
0000
0000
0000
0000
0000
0000
0000
,
1000
0000
0100
0000
1000
0000
0100
0000
0010
0000
0100
0000
,
1000
0000
0010
0000
1000
0000
0001
0000
0100
0000
0010
0000
,
1000
0000
0010
0000
1000
0000
0100
0000
0010
0000
0001
0000
,
1000
0000
0100
0000
0010
0000
0001
0000
1000
0000
0010
0000
,
1000
0000
0100
0000
0010
0000
0100
0000
1000
0000
0010
0000
,
0100
0000
0001
0000
0010
0000
0100
0000
0010
0000
0100
0000
,
1000
0000
0010
0000
0100
0000
0001
0000
1000
0000
0010
0000
,
1000
0000
0100
0000
0010
0000
0001
0000
0010
0000
0001
0000
,
0100
0000
0001
0000
1000
0000
0100
0000
0010
0000
0100
0000
,
0010
0000
0001
0000
0100
0000
0010
0000
1000
0000
0010
0000
,
0100
0000
0010
0000
1000
0000
0100
0000
1000
0000
0001
0000
,
0100
0000
0010
0000
1000
0000
0010
0000
1000
0000
0100
0000
,
0010
0000
0001
0000
1000
0000
0100
0000
0010
0000
0100
0000
,
1000
0000
0010
0000
0100
0000
0010
0000
1000
0000
0001
0000
,
0100
0000
0001
0000
0010
0000
0001
0000
1000
0000
0010
0000
;

//--------------- dance-solo - 8Chasey ----------------
#NOTES:
     dance-solo:
     8Chasey:
     Beginner:
     1:
     0,0,0,0,0:
000000
000000
000000
000000
,
010010
000000
000010
000000
,
010000
000000
000010
000000
,
100000
000000
000001
000000
,
100000
000000
000000
000000
,
001000
000000
000000
000000
,
010000
000000
000010
000000
,
010000
000000
000010
000000
,
010010
000000
000000
000000
,
001000
001000
001000
000000
,
001000
000000
000000
000000
,
000001
000001
000001
000000
,
000001
000000
000000
000000
,
100000
100000
100000
000000
,
100000
000000
000000
000000
,
010010
000000
000000
000000
,
000000
000010
000000
000000
,
000000
000010
000000
000000
,
000000
000010
000000
000000
,
000000
000010
000000
000000
,
000000
010000
000000
000000
,
000000
010000
000000
000000
,
000000
010000
000000
000000
,
000000
010000
000000
000000
,
000000
000001
000000
000000
,
000000
000001
000000
000000
,
000000
100000
000000
000000
,
000000
100000
000000
000000
,
000000
001100
000000
000000
,
000000
000000
000000
000000
,
000000
010010
000000
000000
,
000000
000000
000000
000000
,
000000
000000
000000
000000
,
000000
000000
000000
000000
,
000000
001100
000000
000000
,
000000
000000
000000
000000
,
000000
000000
000000
000000
,
000000
000000
000000
000000
,
000000
100001
000000
000000
;
