#TITLE:15 minutes;
#SUBTITLE:;
#ARTIST:bill wurtz;
#TITLETRANSLIT:;
#SUBTITLETRANSLIT:;
#ARTISTTRANSLIT:;
#GENRE:;
#CREDIT:8Chasey 2026 / BWE Volume 3;
#MUSIC:precursor.ogg;
#BANNER:;
#BACKGROUND:;
#CDTITLE:;
#SAMPLESTART:9.610;
#SAMPLELENGTH:15.000;
#SELECTABLE:YES;
#OFFSET:-0.032;
#BPMS:0.000=150.100;
#STOPS:;
#BGCHANGES:;
#FGCHANGES:;

//--------------- dance-single - BRAND NEW ----------------
#NOTES:
     dance-single:
     BRAND NEW:
     Beginner:
     2:
     0,0,0,0,0:
0000
0000
0000
0000
,
0000
0000
0000
0000
,
0001
0000
0000
0001
,
0001
0000
0000
0000
,
1000
0000
0000
1000
,
1000
0000
0000
0000
,
0001
0000
1000
0000
,
0001
0001
0001
0000
,
1000
0000
0001
0000
,
1000
1000
1000
0000
,
1001
0000
0010
0000
,
0100
0000
0100
0000
,
0001
0000
1000
0000
,
0010
0010
0010
0010
,
0010
0000
0100
0000
,
0010
0000
0010
0000
,
1000
0000
0001
0000
,
1001
0000
0000
0000
,
1000
0000
0001
0000
,
1000
1000
1000
0000
,
0001
0000
1000
0000
,
0001
0001
0001
0000
,
0100
0000
0100
0000
,
0010
0000
0010
0000
,
1000
0000
0001
0001
,
0000
1000
0000
1001
,
1001
0000
0000
0000
;

//--------------- dance-single - EASY WAY ----------------
#NOTES:
     dance-single:
     EASY WAY:
     Easy:
     3:
     0,0,0,0,0:
0000
0000
0000
0000
,
0000
0000
0000
0000
,
1001
0000
0000
1000
0000
0000
0000
0001
,
0000
0000
0000
0000
,
0010
0000
0000
0001
0000
0000
0000
1000
,
0000
0000
0000
0000
,
1100
0000
1000
0001
,
0010
0010
0001
0000
,
0101
0000
0000
0000
0001
0000
0000
1000
,
0000
0010
1000
1000
,
1001
0000
0000
0001
,
1000
0000
0000
0001
0000
0000
0001
0000
,
0010
0001
0100
1000
,
0100
0010
0000
0110
,
1010
0101
0000
0100
,
0001
0000
1000
0000
0100
0000
0000
0010
,
0000
0100
0010
0000
,
0011
0000
0000
1100
0000
0000
0000
1001
,
0000
0000
0001
0100
,
0000
0001
1000
0000
,
0010
0000
0000
1000
0000
0000
0000
0000
,
0100
0000
0000
0001
0000
0000
0100
0000
,
1000
0000
0010
1000
,
0001
0000
0100
0001
,
1000
0000
1001
0000
,
0000
0011
0000
1100
,
1001
0000
0000
0000
;

//--------------- dance-single - GET REAL ----------------
#NOTES:
     dance-single:
     GET REAL:
     Medium:
     4:
     0,0,0,0,0:
0000
0000
0000
0000
,
0000
0000
0000
0000
,
0001
0000
1000
0100
0000
0100
0000
0100
,
0000
0000
0000
0000
,
1000
0000
0001
0010
0000
0010
0100
0010
,
0000
0000
0000
0100
,
0001
0000
1000
0001
0000
0000
1000
0000
,
0100
0000
0010
0000
0100
0010
0000
0000
,
0010
0000
0100
0000
1000
0000
0001
1000
,
0000
0001
1001
1000
,
0010
0100
0000
0001
,
0100
0001
1000
0100
,
1000
0000
0010
0000
0100
0010
0100
0000
,
0001
1000
0100
0010
,
0011
1100
0000
1000
,
0010
0000
1000
0001
0000
1000
0001
0000
,
0100
0000
0001
0000
0010
0100
0010
0000
,
0100
0000
0000
1000
0000
0001
0000
1001
,
0000
1000
0010
0100
,
0001
0000
0100
0010
0100
0000
0010
0000
,
1000
0000
0000
0100
0000
0000
0010
0000
,
0001
0000
0000
0100
0000
0000
0010
0000
,
0000
0000
1000
0000
0001
0000
0000
0010
,
0000
0010
0000
0000
0100
0000
0100
0000
,
1000
0001
0100
0010
,
0000
0000
1000
0010
0000
0100
0001
0000
,
1001
0000
0000
0000
;

//--------------- dance-single - SO HARD TO DO ----------------
#NOTES:
     dance-single:
     SO HARD TO DO:
     Hard:
     6:
     0,0,0,0,0:
0000
0000
0000
0000
,
0000
0000
0000
0000
,
1001
0000
0001
0010
0000
0001
0000
0100
,
0000
0000
0000
0000
,
0010
0000
1000
0100
0000
1000
1000
0010
,
0000
0000
0000
0000
0000
0000
0100
0001
,
0100
0000
0001
0010
0000
0001
1000
0000
,
0010
0000
1000
0000
0001
1000
0000
0100
,
1000
0000
0010
0000
0100
0001
0100
0010
,
0000
1000
0010
0000
0100
0000
0001
0000
,
1001
0000
1000
0000
0100
0000
1000
0010
,
0000
1000
0010
0100
0010
0000
0100
0000
,
0001
0010
0001
0001
0100
0000
0001
0010
,
0001
0000
1000
0000
0010
1000
0010
0000
,
0110
0000
0100
0001
0100
0000
0001
0000
,
0010
0001
0000
0010
0000
0010
0100
1000
,
0000
0010
1000
0010
1000
0010
0100
0000
,
0101
0000
0001
0010
0000
0011
0000
1010
,
0000
0000
1000
0100
0000
0000
1000
0001
,
0000
0010
0001
0010
0001
1000
0100
1000
,
0100
0000
1000
0001
0000
0010
0001
0000
,
0100
0000
0001
1000
0000
0010
1000
0000
,
0100
0000
0010
0100
0000
0000
0010
0001
,
0000
0100
0000
0010
1000
0100
1000
0100
,
1000
0000
1001
0000
0001
0100
0001
0100
,
0010
0000
1010
0000
0000
0001
0100
0000
,
0110
0020
0000
0000
,
0000
0000
0000
0000
,
0000
0000
0000
0000
,
0000
0000
0000
0000
,
0000
0030
0000
0000
;

//--------------- dance-single - EXTRA ----------------
#NOTES:
     dance-single:
     EXTRA:
     Challenge:
     7:
     0,0,0,0,0:
0000
0000
0000
0000
,
0000
0000
0000
0000
,
1001
0000
0001
0010
0000
0011
0000
1100
,
0000
0000
0000
0000
,
0110
0000
0010
0001
0000
0100
0010
1010
,
0000
0000
0000
0000
0000
0000
1000
0001
,
0100
0000
0101
0001
0000
0010
0001
1000
,
0010
0000
1010
0000
0101
0001
0000
1000
,
0100
1000
0010
0010
0100
0001
0100
0110
,
0000
0010
1000
0100
0001
0100
0010
0010
,
0110
0000
0100
1000
0100
0000
1000
0010
,
0100
0010
0000
0110
0000
0100
0001
1000
,
0001
0010
0001
0001
0100
1000
0100
0010
,
1000
0100
1000
0000
0010
1000
0010
0100
,
0101
0000
1010
0010
1000
1000
0001
0000
,
0010
0001
1000
0010
0000
0010
0100
0110
,
0000
0010
1000
0010
1000
0010
0100
0000
,
0101
0000
0001
0010
0000
0011
0000
1010
,
0000
0010
1000
0100
0000
0100
1000
0001
,
0000
0010
0001
1000
0100
0010
0100
1000
,
0001
0000
0100
0010
0000
0010
1000
0010
,
0100
0000
0001
1000
0000
0010
1000
1000
,
0100
0000
0010
0100
1000
0100
0010
0001
,
0000
0001
0100
0010
1000
0100
1000
0100
,
1000
0001
1001
0000
0001
0100
0001
0100
,
0010
0000
1010
0000
0000
0001
0100
0000
,
0110
0020
0000
0000
,
0000
0000
0000
0000
,
0000
0000
0000
0000
,
0000
0000
0000
0000
,
0000
0030
0000
0000
;
