#TITLE:outside;
#SUBTITLE:;
#ARTIST:bill wurtz;
#TITLETRANSLIT:;
#SUBTITLETRANSLIT:;
#ARTISTTRANSLIT:;
#GENRE:;
#CREDIT:8Chasey 2025;
#MUSIC:outside.ogg;
#BANNER:outside-bn.png;
#BACKGROUND:outside-bg.png;
#CDTITLE:;
#SAMPLESTART:39.100;
#SAMPLELENGTH:12.000;
#SELECTABLE:YES;
#OFFSET:-2.370;
#BPMS:0.000=101.000;
#STOPS:58.000=1.782;
#BGCHANGES:-1.875=outside.avi=1.000=0=0=0=StretchNoLoop====,
155.500=outside-bg.png=1.000=1=0=1===CrossFade==,
99999.000=-nosongbg-=1.000=0=0=0=StretchNoLoop====
;
#FGCHANGES:;

//--------------- dance-single - 8Chasey ----------------
#NOTES:
     dance-single:
     8Chasey:
     Beginner:
     1:
     0,0,0,0,0:
0000
0000
0000
0000
,
0000
0000
0000
0000
,
0000
0000
0000
0000
,
0000
0000
0000
0000
,
0100
0000
0010
0000
,
0100
0000
0000
0000
,
0001
0001
0000
0000
,
0000
0000
1001
0000
,
0010
0000
0100
0000
,
0010
0000
0000
0000
,
1000
1000
0000
0000
,
0100
0100
0000
0000
,
0010
0000
0100
0100
,
0000
0000
0000
0100
,
0000
0010
0010
0000
,
1000
0000
0001
0000
,
0100
0000
0000
0000
,
0001
0000
1000
0000
,
0010
0000
0000
0000
,
0100
0000
0100
0000
,
0010
0000
0000
0000
,
0010
0000
0010
0000
,
0100
0000
0000
0000
,
0001
0000
0100
0000
,
0001
0000
0000
0000
,
1000
0000
0010
0000
,
1000
0000
0000
0000
,
0010
0000
0010
0000
,
0100
0000
0100
0000
,
0010
0000
0000
0000
,
0100
0000
0100
0000
,
1000
0000
0000
0000
,
0100
0000
0100
0000
,
0001
0000
0000
0000
,
0010
0000
0010
0000
,
0100
0000
0100
0000
,
0110
0000
0000
0000
,
1001
0000
0000
0000
;

//--------------- dance-single - 8Chasey ----------------
#NOTES:
     dance-single:
     8Chasey:
     Easy:
     2:
     0,0,0,0,0:
0000
0000
0000
0000
,
0000
0000
0000
0000
,
0000
0000
0000
0000
,
0000
0000
0000
0000
,
0100
0010
0100
0000
,
0002
0000
0003
0000
,
1000
0001
0000
0000
,
0001
1000
1001
0000
,
0010
0100
0010
0000
,
2000
0000
3000
0000
,
0020
0000
0130
0000
,
0200
0000
0310
0000
,
0100
0001
0100
0002
,
0000
0013
0000
0100
,
1000
0100
2000
0000
,
3001
0000
1001
0000
,
1000
0000
0010
0010
,
1000
0000
1001
0000
,
0001
0000
0100
0100
,
0010
0000
0110
0000
,
0010
0100
0010
0000
,
0100
0000
0110
0000
,
0001
1000
0001
1000
,
0002
0000
0103
0000
,
0001
1000
0001
0000
,
2000
0000
3100
0000
,
1000
0001
1000
0000
,
0020
0000
0130
0000
,
0200
0000
0310
0000
,
0110
0000
0000
0000
,
0002
0000
0013
0000
,
0001
1000
0001
0000
,
2000
0000
3010
0000
,
0100
0010
0100
0000
,
0020
0000
1030
0000
,
0200
0000
0301
0000
,
1000
0000
0001
0000
0100
0000
0000
0020
,
0000
0000
0030
0000
;

//--------------- dance-single - 8Chasey ----------------
#NOTES:
     dance-single:
     8Chasey:
     Medium:
     5:
     0,0,0,0,0:
0000
0000
0000
0000
,
0000
0000
0000
0000
,
0000
0000
0000
0000
,
0000
0000
0000
0000
,
0001
1000
0001
0000
1000
0000
0100
2000
,
0000
0000
3010
0000
0100
0001
0100
0000
,
0002
0023
0001
0031
,
1000
0010
1000
0001
0000
2002
0000
3003
,
0001
0100
0001
0000
1000
0000
1000
0020
,
0000
0000
0130
0000
0001
0100
0001
0000
,
2000
0000
3010
0000
1000
0001
1000
0000
,
0002
0000
0013
0000
0001
1000
0001
0000
,
0200
0000
0000
0020
0000
0000
0000
0000
,
0000
0330
0110
0001
,
0000
2000
0000
0000
3020
0000
0130
0001
,
1000
0010
1000
0002
0000
0000
0013
0000
,
0100
1000
0010
0000
1000
0000
0001
0000
,
0010
0010
0001
2000
0000
0000
3010
0000
,
0100
0001
0010
0000
0001
0000
1000
0000
,
0100
1000
0010
0200
0000
0000
0301
0000
,
0020
0031
2000
3010
,
0100
0001
0010
0200
0000
0000
1300
0000
,
0020
1030
0002
0013
,
0100
0000
1000
0000
0100
0010
0001
0020
,
0000
0001
0100
0031
,
0100
0000
0001
0000
0100
0010
1000
0200
,
0000
1000
0010
1300
,
0010
1000
0010
0000
0100
0001
1000
0001
,
0000
1000
0000
1001
0000
0010
0100
0020
,
0000
0000
0130
0000
1001
0000
0001
1000
,
0001
0000
0010
0000
0100
0000
1000
0200
,
0000
0000
1300
0000
0010
1000
0100
0000
,
0010
0000
0100
0000
0010
0000
0001
0200
,
0000
0000
0301
0000
0010
0001
0100
0000
,
0010
1000
0010
0000
0100
0001
1000
0001
,
0000
1000
1000
0010
0000
0000
1000
0200
,
0000
0000
0000
0000
1300
0000
0000
0000
0001
0000
0000
0100
0000
0000
0020
0000
,
0000
0000
0000
0030
;

//--------------- dance-single - 8Chasey ----------------
#NOTES:
     dance-single:
     8Chasey:
     Hard:
     8:
     0,0,0,0,0:
0000
0000
0000
0000
,
0000
0000
0000
0000
,
0000
0000
0000
0000
,
0000
0000
0000
0000
,
0001
0000
0010
0000
0100
0000
0000
0000
1000
0000
0000
0001
0000
0000
1001
0000
,
0000
0100
0010
0000
0100
0000
0010
1000
0000
0000
0010
0000
0100
0000
0001
0000
,
0010
0000
0000
0002
0000
0000
0100
0000
0100
0000
0000
0000
1003
0000
0010
0000
,
2000
0000
0000
0100
0000
0000
3001
0000
0000
0000
2002
0000
0000
0000
3003
0000
,
1000
0000
0010
0000
0100
0000
0000
0000
0001
0000
0010
0001
0000
0000
1100
0000
,
0000
0000
0010
1000
0010
0000
1000
0000
0001
0000
0100
0000
0010
0100
0010
0000
,
0200
0000
0000
0302
0000
0000
0000
0000
0010
0000
0000
0000
1003
0000
0001
0000
,
2000
0000
0000
0010
0000
0000
0000
0000
3100
0000
0010
0100
0010
0000
0100
0000
,
0020
0000
0030
0002
0000
0000
2000
0000
,
0000
0000
0000
0000
0000
0000
3003
0000
0000
0000
0100
0000
0001
0000
0000
1000
,
0000
0000
0020
0000
0000
0000
0000
0000
0230
0000
0300
0000
0001
0100
0001
0000
,
2002
0000
3003
1100
0000
1000
0100
1000
,
0010
0000
0000
0010
0000
0000
1000
0000
0002
0000
0000
0000
0103
0000
0010
0000
,
0220
0000
0330
0101
0000
0001
0010
0100
,
1000
0000
0000
0100
0000
0000
1000
0000
0010
0000
0010
0000
0100
0000
0001
0000
,
0022
0000
0033
1010
0000
1000
0100
0010
,
0001
0010
0000
0001
0000
0000
0100
0000
0010
0000
0010
0000
0100
0010
0100
0000
,
0220
0000
0000
0000
0330
0000
1001
0000
0000
0000
0001
0000
0010
0000
0001
1000
,
0001
0100
0000
0001
0000
0010
0100
0000
1000
0000
0010
0100
0000
0001
0100
0000
,
0002
0010
0023
0000
0130
1000
0010
2010
,
0001
0000
0000
0001
0000
0000
0001
0000
0100
0000
3100
0000
1000
0000
0010
0000
,
2000
0010
3020
0000
0130
0001
0010
0011
,
0001
0100
0000
0010
0000
0100
0001
0000
1000
0100
1000
0000
0010
0100
0010
0000
,
0200
0000
0000
0001
0000
0000
0301
0000
1000
0000
0000
0010
1000
0000
0010
0000
,
0100
0000
0000
0001
0000
0000
1001
0000
0000
0100
0001
0100
0000
0000
0002
0000
,
0010
0000
0000
0000
1000
0000
1003
0000
0001
0100
0001
0000
1000
0000
0010
0000
,
1000
0000
0100
0000
0010
0000
0100
0000
0110
0000
0000
0001
1000
0000
0020
0000
,
0000
0000
1030
0010
2000
0000
3100
0000
0010
0000
0001
0000
1000
0001
1000
0000
,
0010
0000
0000
0010
0000
0000
1000
0000
1001
0000
0000
0001
0100
0000
0020
0000
,
0000
0000
1000
0000
0000
0000
0001
0000
0100
0000
0000
0100
0000
0000
0130
0000
,
0010
0000
1000
0001
0000
0000
0010
0000
0100
0000
0010
0001
0010
0000
0001
0000
,
1000
0000
0100
1000
0000
0000
0100
0000
1000
0000
0010
1000
0010
0000
1000
0000
,
0001
0000
0100
0000
0001
0000
1000
0000
0010
0000
1000
0001
0000
0000
2002
0000
,
0000
0000
0000
0000
0000
0000
0000
3003
;

//--------------- dance-single - Fantasy ----------------
#NOTES:
     dance-single:
     Fantasy:
     Edit:
     7:
     0,0,0,0,0:
0000
0000
0000
0000
,
0000
0000
0000
0000
,
0000
0000
0000
0000
,
0000
0000
0000
0000
,
0001
0000
0100
0000
0010
0000
1000
0000
0011
0000
0000
1100
0000
0000
1010
0000
,
0000
0100
0002
0000
0010
0000
1003
0010
0000
0000
1000
0000
0001
0000
0000
0000
,
0110
0000
2200
0000
0010
0001
3310
1000
,
0010
0100
0001
0200
0002
2323
0000
0000
,
3131
0000
1100
0000
0001
0010
0002
0200
,
0000
1000
1303
0000
0010
0001
1000
0100
,
0011
0000
0000
1100
0000
0000
0000
0000
1000
0000
0001
0000
1000
0000
0000
0000
,
1100
0000
0000
0011
0000
0000
0000
0000
0100
0000
0010
0000
0100
0000
0000
0000
,
0002
0000
0000
0020
0000
0000
2200
0000
0000
0000
0000
0000
3333
0000
0000
0000
,
0110
0000
1001
0000
0000
0000
1000
0001
,
0010
0100
0000
0000
2222
0000
3333
0000
,
0010
0001
0100
1000
0010
0001
0100
1000
,
0010
0010
1000
1000
0010
0010
1000
1000
,
0001
0010
1000
0100
0001
0010
1000
0100
,
0001
0001
0100
0100
0001
0001
0100
0100
,
1010
0000
0101
0000
1111
0000
0010
1000
,
0010
0000
1000
0010
1000
0000
0001
0100
,
0001
0000
0100
0001
0100
0000
1001
0000
,
0110
0000
1000
0010
0100
0001
0200
0000
,
0010
0000
0000
1000
0000
0000
0010
0000
1000
0000
0000
0010
0000
0000
1300
0000
,
0001
0000
0100
0000
0001
0100
0002
0000
,
1000
0000
0000
0010
0000
0000
1000
0000
0010
0000
0000
1000
0000
0000
0013
0000
,
0100
0000
0001
0000
0101
1010
0101
1010
,
0101
0000
1100
0000
0011
0000
1100
0011
,
0000
0000
0000
0000
0011
0000
1100
0000
0000
0000
0010
1000
0010
0000
2000
0000
,
0001
0100
0001
0000
0100
0001
0100
0000
0010
0000
0101
0000
0010
0000
3101
0000
,
0000
0000
0100
0000
0001
1000
0200
0000
,
0010
0001
0010
0000
0002
0000
0313
0000
,
0001
0000
0010
0000
0001
1000
0020
2000
,
0000
0001
0100
0000
3131
0000
1010
0000
,
0010
1000
0010
0000
1000
0000
0010
0000
0000
0000
0000
0000
0000
0000
0000
0000
,
1000
0010
1000
0000
0010
0000
1000
0000
0000
0000
0001
0000
0100
0000
0001
0000
,
0000
0000
0100
0000
0001
0000
0100
0000
1010
0000
0000
0101
0000
0000
2222
0000
,
0000
0000
0000
3333
;
