#VERSION:0.83;
#TITLE:onestop;
#SUBTITLE:;
#ARTIST:Microsoft;
#TITLETRANSLIT:;
#SUBTITLETRANSLIT:;
#ARTISTTRANSLIT:;
#GENRE:;
#ORIGIN:;
#CREDIT:;
#BANNER:Banner_Missing.png;
#BACKGROUND:;
#PREVIEWVID:;
#JACKET:;
#CDIMAGE:;
#DISCIMAGE:;
#LYRICSPATH:;
#CDTITLE:;
#MUSIC:onestop.ogg;
#OFFSET:-1.465000;
#SAMPLESTART:36.970001;
#SAMPLELENGTH:15.000000;
#SELECTABLE:YES;
#BPMS:0.000=81.000,
48.000=100.000,
90.000=100.500,
92.000=114.000,
124.000=181.000,
160.000=81.000,
161.000=80.500,
162.000=79.000,
162.500=79.500,
162.750=75.999,
163.167=64.000,
163.500=52.500,
163.750=45.000,
164.000=61.749,
177.000=61.000,
177.250=55.000,
177.500=50.000,
178.500=51.500,
178.750=59.000,
179.000=70.000,
179.250=82.500,
179.500=100.000,
179.750=144.000,
180.000=288.000,
212.000=120.000,
247.000=44.000,
248.000=41.000,
256.000=41.500,
257.375=42.500,
258.000=41.000,
259.000=40.500,
260.000=40.000,
262.000=39.000,
262.500=37.000,
263.000=35.000,
263.250=31.000,
263.500=26.000,
263.750=17.500,
264.000=11.625,
264.500=78.999;
#STOPS:;
#DELAYS:;
#WARPS:;
#TIMESIGNATURES:0.000=4=4;
#TICKCOUNTS:0.000=4;
#COMBOS:0.000=1;
#SPEEDS:0.000=1.000=0.000=0;
#SCROLLS:0.000=1.000;
#FAKES:;
#LABELS:0.000=Song Start;
#BGCHANGES:;
#KEYSOUNDS:;
#ATTACKS:
;

//---------------dance-single - ----------------
#NOTEDATA:;
#CHARTNAME:;
#STEPSTYPE:dance-single;
#DESCRIPTION:;
#CHARTSTYLE:;
#DIFFICULTY:Hard;
#METER:9;
#RADARVALUES:0.426833,0.599179,0.129029,0.270155,0.425393,741.000000,709.000000,32.000000,67.000000,0.000000,0.000000,0.000000,0.000000,0.000000,0.426833,0.599179,0.129029,0.270155,0.425393,741.000000,709.000000,32.000000,67.000000,0.000000,0.000000,0.000000,0.000000,0.000000;
#CREDIT:;
#NOTES:
// measure 0
0001
0000
0100
0010
1000
0000
0100
1000
0001
0000
0010
0100
1000
0000
0001
0100
,  // measure 1
0001
0000
1000
0100
1000
0000
0010
0100
0010
0000
0001
1000
0001
0000
0100
0001
,  // measure 2
2000
0000
0010
0000
0000
0000
0010
0000
0000
0000
3010
0000
0200
0000
0000
0301
,  // measure 3
0020
0000
0000
0000
0001
0000
0000
0000
0100
0000
0000
0000
0031
0000
1000
0001
,  // measure 4
0200
0000
0000
0000
0010
0000
0000
0000
0001
0000
0000
0000
0310
0000
1000
0001
,  // measure 5
0200
0000
0000
0000
0010
0000
0000
0000
0301
0000
1000
0000
0020
0000
0000
0130
,  // measure 6
0002
0000
0000
0000
0000
0000
1000
0000
0000
0000
0000
0000
0103
0000
0000
0000
0000
0000
0001
0010
0100
2000
0000
0000
,  // measure 7
0001
0000
0000
0000
0000
0000
0010
0000
0000
0000
0000
0000
3100
0000
0000
0000
0000
0000
1000
0000
0000
0000
0000
0000
0100
0000
0000
1000
0000
0000
0001
0000
0000
0000
0000
0000
0001
0000
0000
0000
0010
0000
0001
0000
0000
0000
0000
0000
,  // measure 8
2000
0000
0000
0000
0100
0000
0000
0000
3000
0000
0010
0000
0200
0000
0000
0301
,  // measure 9
1000
0010
0100
0010
0100
0010
0200
0000
,  // measure 10
0002
0000
0000
0000
0000
0000
0000
0300
,  // measure 11
2000
0000
0000
3003
,  // measure 12
0010
0000
1000
0100
1000
0000
0001
0000
0000
0001
0000
0000
0001
0000
0100
0000
,  // measure 13
0010
0000
1000
0100
0000
1000
0100
0000
0001
0100
0000
0001
0100
0000
1001
0000
,  // measure 14
0010
0000
1000
0100
0001
0000
0010
0000
0100
0000
0001
0000
1000
0000
0010
1000
,  // measure 15
0010
0000
0100
0000
0001
0000
1000
0100
1000
0010
0100
0000
0101
0000
0000
0000
,  // measure 16
1100
0000
0010
0100
0001
0000
1000
0000
1000
0000
0010
0000
0100
0000
0001
0000
,  // measure 17
0100
0010
1000
0000
0100
0010
0001
0000
1000
0001
0100
0000
0001
1000
0010
0000
,  // measure 18
1000
0000
0100
1000
0010
0000
0100
0000
0001
0000
0001
0000
0010
0000
0010
0000
,  // measure 19
0100
1000
0001
0100
0010
1000
0001
0100
0001
0010
0100
1000
0001
0100
0010
0000
,  // measure 20
1100
0000
0000
0001
0000
0000
0101
0000
0000
0010
0000
0000
0110
0000
0000
0000
,  // measure 21
1000
0001
0100
0010
0100
0001
1000
0100
1000
0010
0100
0001
1000
0100
1000
0010
,  // measure 22
0000
0000
1001
0000
0000
0110
0000
0000
1001
0000
0000
0000
0000
0000
0000
0000
,  // measure 23
0000
0000
0001
0100
0000
0000
0010
0000
1000
0001
0000
0000
,  // measure 24
0100
0000
0001
1000
0000
0100
1000
0000
0010
0100
0001
1000
,  // measure 25
0002
0000
0000
0013
0000
0000
0100
0000
0001
0010
0000
0100
,  // measure 26
1000
0000
0010
0100
0001
1000
0010
0000
0100
0010
0000
0000
,  // measure 27
0110
0000
0000
1001
0000
0000
0001
0100
0010
1000
0000
0000
,  // measure 28
0100
0000
0001
0010
0001
0100
0010
0000
1000
0100
0000
0000
,  // measure 29
1000
0000
0001
0100
0000
0001
0010
0000
0001
1000
0100
0010
,  // measure 30
0100
0000
1000
0100
0000
1000
0010
0000
1000
0001
0100
0010
,  // measure 31
0100
0000
0000
0000
0000
0000
0000
0000
0000
0000
0000
1002
,  // measure 32
0000
0000
0000
0103
0000
0000
0010
0000
0100
0010
0000
1000
,  // measure 33
0001
0000
0100
0010
0000
0100
0001
0000
1000
0100
0000
0010
,  // measure 34
0100
0000
1000
0001
0000
0100
0001
0000
0010
0001
0000
0000
,  // measure 35
1001
0000
0000
0000
0000
0010
0100
0000
0000
0110
0000
0000
,  // measure 36
0001
1100
0101
0010
,  // measure 37
1000
0000
0100
1000
0000
0001
0100
0000
0020
0000
0000
0000
,  // measure 38
0130
0000
0010
0000
,  // measure 39
0001
0000
0000
1000
0000
0000
0120
0000
,  // measure 40
0031
1000
0100
1000
0001
0000
0100
0010
0100
0000
0001
1000
0001
0000
0010
0100
,  // measure 41
0020
0000
0130
0000
1000
0001
1000
0000
0002
0000
0000
0000
0200
0000
0303
0000
,  // measure 42
1000
0000
0010
0100
0001
0000
0100
0000
0020
0000
0000
0000
1030
0000
0002
0000
,  // measure 43
2003
0000
0010
0000
3100
0000
0001
0010
0001
1000
0100
1000
0001
0000
0010
0000
,  // measure 44
0020
0000
0100
0000
0001
0000
0100
0000
0002
0000
0000
0000
0000
0033
0000
0000
,  // measure 45
0001
0100
0010
1000
0100
1000
0001
0000
,  // measure 46
0010
0100
0001
1000
0010
0100
0001
0000
,  // measure 47
0001
0010
0001
0100
0001
1000
0100
0000
,  // measure 48
0001
0100
0010
1000
0001
1000
0001
0000
,  // measure 49
0100
0001
0100
0000
0010
0100
0010
0000
,  // measure 50
1000
0100
1000
0000
0001
1000
0001
0000
,  // measure 51
0010
1000
0001
0100
0010
1000
0100
0010
,  // measure 52
0001
1100
0011
0000
,  // measure 53
0000
0000
0000
0000
,  // measure 54
0001
0000
0100
0001
0000
0100
0010
0000
0100
0010
0000
0010
,  // measure 55
1000
0000
1000
0001
0000
0001
0100
0010
0100
0010
0000
0110
,  // measure 56
0000
0000
1001
0000
0000
0100
0001
0100
0001
1000
0000
0010
,  // measure 57
1000
0001
0100
0001
0010
0001
0100
0000
0010
1000
0000
0001
,  // measure 58
0100
0001
0100
0010
0100
0001
1000
0001
1000
0001
1000
0100
,  // measure 59
0010
0100
1000
0001
0100
0010
1000
0001
0100
0010
1000
0001
,  // measure 60
0200
0000
0000
0001
0000
0000
0310
0000
0100
0001
1000
0100
,  // measure 61
0010
0000
0000
0101
0000
0000
1100
0000
0000
0000
0220
0000
0000
0000
0000
0000
0000
0000
0330
0000
0000
0000
0000
0000
,  // measure 62
0001
0100
0010
0100
0001
0100
0001
1000
0100
0010
0100
1000
0001
0100
0001
1000
,  // measure 63
0010
0000
0100
0000
0010
0000
0100
0000
0001
0000
0010
0000
0000
0010
0000
0000
0100
0000
1000
0000
0100
0000
0010
0000
0001
0000
1000
0000
0100
0000
1000
0000
,  // measure 64
0020
0000
0100
0000
1030
0001
1000
0000
0200
0000
1000
0000
0310
0001
1000
0100
,  // measure 65
2000
0000
0001
0000
3010
0000
0100
0000
1000
0001
0100
0010
1000
0001
0100
0001
,  // measure 66
2000
0001
3002
0000
0103
0020
0000
1000
,  // measure 67
2030
0000
3200
0000
0300
0220
0000
0000
,  // measure 68
0300
0000
0001
0000
0032
0000
0000
0000
1003
0100
2000
0000
0000
0000
3010
0000
,  // measure 69
0020
0000
0130
0001
1000
0002
0000
0000
,  // measure 70
0000
0000
0103
0010
2000
0000
0000
0000
0100
0000
3200
0000
0000
0000
0320
0000
,  // measure 71
0000
0230
0000
0000
0302
0000
0000
1003
0100
0000
1200
0000
0000
0000
0020
0000
,  // measure 72
0300
0001
0032
0000
1003
0010
0000
2002
,  // measure 73
0000
3003
0200
0302
2003
3020
0000
0030
,  // measure 74
0100
0001
0100
0000
0010
0000
0000
0000
1010
0000
0000
0000
0100
0001
1000
0001
,  // measure 75
0010
0100
0010
0001
1000
0000
0000
0000
0100
0000
0010
0000
0001
0000
1000
0100
,  // measure 76
0010
0000
0100
0000
1000
0000
0001
0100
0010
0000
2000
0000
0001
0000
0000
0000
,  // measure 77
3001
0000
0100
0001
0010
0000
0100
0000
0100
0000
1100
0000
0000
0000
0001
0000
,  // measure 78
0020
0000
0000
0000
0130
0000
1000
0001
0010
0000
0002
0000
0100
0000
0003
0000
,  // measure 79
0001
0000
0010
0001
1000
0000
0100
0000
1000
0001
0010
0000
0001
0000
0100
0000
,  // measure 80
0010
1000
0100
0000
0002
0000
0000
1003
0100
0000
1000
0000
0001
0100
0010
0100
,  // measure 81
0001
0000
0000
0000
1000
0000
1000
0000
0010
0100
0001
0000
1000
0000
2000
0000
,  // measure 82
0000
0000
0010
0000
3010
0000
0100
0001
0100
0000
0020
0000
1000
0000
0000
0000
,  // measure 83
1030
0000
0001
0100
0010
0100
0001
1000
,  // measure 84
0100
0000
1000
0000
0010
0100
0001
0100
0010
0000
0000
0000
1000
0100
1000
0010
,  // measure 85
1000
0001
1000
0000
0020
0000
0000
0000
0130
0001
2000
0000
0100
0000
0100
0000
,  // measure 86
3200
0000
0000
0000
1300
0000
0001
0000
0100
0010
0100
0000
0001
0000
0001
0000
,  // measure 87
1001
0000
0010
0100
0001
0100
0010
1000
,  // measure 88
0100
0000
0000
0000
0110
0000
0000
0001
0100
0000
0000
0010
0100
0000
0000
0001
,  // measure 89
1000
0000
0000
0100
1000
0000
0000
0001
1000
0000
0000
0010
0100
0000
0100
0000
,  // measure 90
1001
0000
0000
0000
0001
0000
1000
0000
0010
0100
0010
0000
1000
0000
0100
0000
,  // measure 91
0010
0001
0010
0000
0001
1000
0010
0100
0001
1000
0010
0100
0001
1000
0010
0100
,  // measure 92
0001
1000
0010
0100
0002
0000
0000
0000
0000
0000
2000
0000
0000
0000
3003
0000
;

//---------------dance-single - ----------------
#NOTEDATA:;
#CHARTNAME:;
#STEPSTYPE:dance-single;
#DESCRIPTION:;
#CHARTSTYLE:;
#DIFFICULTY:Challenge;
#METER:11;
#RADARVALUES:0.525333,0.692801,0.165319,0.310476,0.675387,912.000000,871.000000,41.000000,77.000000,57.000000,0.000000,0.000000,0.000000,0.000000,0.525333,0.692801,0.165319,0.310476,0.675387,912.000000,871.000000,41.000000,77.000000,57.000000,0.000000,0.000000,0.000000,0.000000;
#CREDIT:;
#NOTES:
0001
0100
0010
1000
0100
1000
0001
0100
0010
0100
0001
1000
0100
1000
0010
0010
,
0100
0001
0100
0001
1000
0010
0100
0001
0100
0010
1000
0100
1000
0000
0001
0100
,
0020
0000
100M
0000
010M
0000
100M
0000
0130
0000
0001
0000
2000
0000
0000
3010
,
0200
0000
0000
0000
M001
0000
0000
0000
M000
0000
0000
0000
M001
0000
0000
0000
M000
0000
0000
0000
M001
0000
0000
0000
0300
0000
0000
0000
0010
0000
1000
0001
,
0200
0000
0001
0000
0310
0000
1000
0100
1000
0010
0100
0001
0010
0000
0001
1000
,
0200
0000
1000
0000
0010
0000
1000
0000
0310
0000
0001
0000
0200
0000
0000
0310
,
2000
0000
0000
0001
0000
0000
0001
0000
0000
0001
0000
0000
0001
0000
0000
3000
0000
0000
0010
0100
0001
2000
0000
0000
,
0010
0000
0000
0100
0000
0000
0001
0000
0000
0100
0000
0000
3010
0000
0000
1000
0000
0000
0001
0100
0001
1000
0100
1000
,
0020
0000
0000
0000
1000
0000
0100
0000
0130
0000
1000
0000
0002
0000
0000
0013
,
0100
0000
0000
1000
0001
0100
0010
0000
0000
0001
1000
0100
0010
0000
0000
0001
1000
0001
0100
0010
0100
0001
0000
0000
,
2002
0000
0000
0000
0000
0000
0000
0000
0000
0000
0000
0000
3003
0000
0000
0200
,
0000
0020
0000
0000
0000
0000
0000
0000
0000
0000
0000
0000
0000
0000
0000
0000
0000
0000
0330
0000
0000
0000
0000
0000
,
1001
0000
0100
0001
0010
0000
0100
1000
0000
0100
1000
0000
0100
0010
0100
0000
,
1000
0001
1000
0010
0000
0100
0010
1000
0001
0100
0001
0010
0001
0000
1001
0000
,
0001
0200
0010
0000
0020
0000
0330
0000
1000
0100
1000
0001
0100
0010
0100
0000
,
0001
1000
0001
1000
0001
1000
0010
0100
0001
1000
0100
0000
0110
0000
0000
0000
,
1001
0000
0100
0001
0100
0010
1000
0000
0001
0001
0100
0000
0010
0010
1000
0000
,
0100
1000
0001
0000
0010
0100
1000
0000
0100
0001
0010
0000
0001
0000
0101
0000
,
1000
0100
0020
0000
0001
0000
0100
0000
0031
1000
0001
1000
0001
0000
0100
0000
,
0010
1000
0010
1000
0010
0000
0001
0000
0010
0001
0010
0001
0010
0000
1000
0000
,
1001
0000
0100
0001
0100
0000
0110
0000
1000
0000
0100
0000
0100
0000
0010
0000
,
1000
0001
1000
0100
0010
0001
1000
0100
0010
0100
1000
0001
0100
0010
1000
0001
,
0000
0000
0101
0000
0000
1100
0000
0000
1001
0000
0000
0000
MMMM
0000
0000
0000
,
0010
0000
1000
0001
0000
0000
0100
0010
0100
0001
0000
0000
,
1000
0010
1000
0001
0100
0001
0010
0000
0010
0100
1000
0001
,
1000
0000
0000
0000
0000
0000
0010
0000
0000
0000
0010
0000
0100
0000
0000
0000
0001
1000
0100
0000
0000
0000
0010
0000
,
0001
1000
0100
1000
0001
0100
0001
0000
0010
0100
0000
0000
,
1001
0000
0000
0001
0100
0001
0010
0000
0100
1000
0000
0001
,
1000
0010
0100
0001
0000
0001
1000
0000
0000
1001
0000
0000
,
0100
0000
0002
1000
0003
0002
0100
0003
0001
0010
0001
2000
,
0010
0000
0000
0100
0000
0000
3001
0100
0010
1000
0001
1000
,
0001
0000
0100
1000
0000
0010
0100
0000
0001
0010
0000
0002
,
0000
0000
0000
1003
0000
0000
0010
1000
0010
0100
0000
0101
,
0000
0000
0000
1000
0000
0010
0100
0000
0001
0010
0000
0100
,
1000
0000
0000
0101
0000
0000
1000
0000
0010
0100
0000
0001
,
0100
0010
1000
0001
0000
0100
0001
0000
0100
0001
0000
1000
,
0010
0000
0000
0110
0000
0000
1000
0000
0100
1000
0000
0001
,
0100
0000
0010
1000
0000
0001
0100
0000
0020
1000
0000
0000
,
0130
0000
0011
0000
,
1010
0000
0000
0110
0000
0000
1002
0000
,
0103
0010
1000
0001
0100
0001
0010
0100
1000
0001
0100
0010
1000
0100
1000
0001
,
0020
0000
0130
0000
1000
0001
0010
0000
0002
0000
1003
0000
0200
0000
0310
0000
,
1000
0100
1000
0001
0010
0000
0001
0100
0010
0000
1000
0100
0010
0000
1001
0000
,
0010
0000
0100
0000
0010
0000
1000
0000
0100
0000
0000
0000
1000
0000
0001
0000
0010
0000
0100
0010
0100
0010
0100
0010
0100
0000
0000
0000
1000
0000
0000
0000
,
0002
0000
0010
0000
1000
0000
0100
0100
2000
0000
0000
0000
0000
0000
3003
0000
,
0100
0001
1000
0010
0100
0001
0100
0001
,
1000
0010
0100
0001
1000
0100
0010
0100
,
1000
0001
0100
0010
1000
0001
0100
0001
,
1000
0100
0010
0100
1000
0001
0010
0100
,
0010
0001
1000
0100
1000
0001
1000
0010
,
0100
0010
0100
0001
0010
0001
1000
0100
,
1000
0010
0100
0001
1000
0100
0010
0001
,
1000
0101
1010
0000
,
0000
0000
0000
0001
0100
0001
1000
0100
1000
0010
0100
0010
,
1000
0000
0000
0000
0001
0000
0100
0000
0000
0000
0010
0000
1000
0000
0000
0000
0100
0000
1000
0000
0001
0010
0001
0000
,
0100
0000
0010
1000
0000
0100
1000
0001
0010
0001
0000
1100
,
0000
0000
0101
0000
0000
1000
0010
0100
0001
0100
0001
0100
,
0010
0000
0000
1100
0000
0000
0010
0100
0001
1000
0000
0000
,
0001
0000
0100
0000
0001
0000
0010
0100
1000
0000
0001
0000
0100
0000
0001
0000
0010
0100
1000
0000
0001
0000
0100
0000
,
0001
0000
0010
0100
1000
0000
0001
0000
0100
0000
0001
0000
0010
0100
1000
0000
0001
0000
0100
0000
0001
0000
0010
0100
,
2000
0000
0000
0000
0000
0000
0100
0000
0000
0000
0000
0000
3010
0000
0000
0000
0100
0000
0001
0000
1000
0000
0010
0100
,
0010
0000
0000
1010
0000
0000
0011
0000
0000
0000
2002
0000
0000
0000
0000
0000
0000
0000
3003
0000
0000
MMMM
0000
0000
,
0001
0100
0010
1000
0100
1000
0001
0010
0001
0100
0001
1000
0010
0100
0001
1000
,
0010
0000
0100
0000
0020
0000
0000
0000
1030
0000
0001
0000
1000
0010
0000
0100
0001
0000
1000
0000
0100
0000
1000
0000
0010
0000
0100
0000
0001
1000
0100
1000
,
0020
0000
0100
0000
0230
0000
0000
0000
0301
0000
1000
0000
0020
0000
0000
0000
0130
0000
0001
0000
1000
0000
0001
0000
0100
0000
0010
0000
1000
0100
1000
0001
,
0010
0000
1000
0000
0101
0000
0000
0000
0001
0000
1000
0000
0110
0000
0000
0000
0020
0000
0032
00M0
0203
000M
0320
0M00
2030
00M0
3002
M000
0203
000M
0310
0000
,
2002
0MM0
3MM3
0000
0010
0000
1000
0000
0200
0000
0000
0000
0000
0000
0000
0000
1300
0000
0000
0000
0002
0000
0000
0000
0000
0000
0000
0000
0013
0000
0100
0000
,
2000
0000
3020
0000
0130
0002
1000
0MM0
,
1003
0000
0100
0010
0200
0000
0000
0000
1300
0001
0020
0000
0000
0000
0130
0000
,
0200
0000
0302
2003
3002
0023
0100
M00M
,
0130
0000
1000
0100
2000
0000
00M0
0000
0001
0000
3002
0000
0000
0000
0013
0000
,
0001
1000
0000
0000
0002
0000
0000
0103
0010
0000
0020
0000
0000
0000
100M
0000
,
0030
0000
0100
1000
0002
0000
0000
0000
0M10
0000
0013
0000
0000
0000
0220
0000
,
0000
0300
0M01
0032
10M0
2000
0000
0000
,
3003
0000
0000
0000
0001
0000
0100
0001
0010
0000
0100
1000
0001
0000
1000
0010
,
0100
0001
0100
0001
0010
0000
0000
0000
0110
0000
1001
0000
0000
0100
0001
0000
,
0002
0010
0023
010M
0130
21M0
0001
0000
,
3001
0000
M100
0001
0010
0000
0100
0000
1000
0000
0011
0000
0000
0000
0100
1000
,
0010
0000
0010
0000
0100
0001
0100
0001
0010
0000
0020
0000
M100
0000
M001
0000
,
M130
0000
M100
0010
M001
0000
0000
0100
0010
0000
0010
0000
1000
0100
1000
0000
,
0001
0010
0001
0000
0200
0000
0000
0310
1000
0M00
1000
0000
0001
0010
0001
0010
,
0001
0100
0000
0000
001M
1000
0000
1000
0100
0000
1000
0001
0010
0100
0010
0000
,
0110
0000
0100
0000
1000
0001
0100
0001
0010
0000
0100
0000
100M
0000
1000
0000
,
0010
0100
0001
0100
0001
0000
0010
0100
1000
0000
0010
0100
0001
0000
0100
0000
,
1001
0000
0000
0010
0000
0000
1000
0100
0000
1000
0010
0000
1000
0001
0000
1001
0000
0000
0001
0100
0000
0001
0010
0000
,
0001
1000
0MM1
1000
1001
0000
0000
0100
0010
1000
0200
0000
001M
0000
1000
0000
,
0320
0000
0M00
0000
0031
0000
10M0
0000
0001
0100
0020
0000
1030
0100
1000
0001
,
0020
0000
0000
0000
1030
0000
0001
0100
0010
0000
1000
0100
1000
0000
0001
0100
,
0001
0010
0001
1000
0100
0010
0000
0100
1000
0001
0000
1000
0010
0100
0000
0001
,
0010
0100
0000
1000
0001
0100
0000
0010
0100
0001
0000
1000
0100
0010
0000
0001
,
1000
0010
0100
0000
0001
0000
0100
0010
0000
0100
0000
0001
0000
1000
0001
0000
,
0010
0100
0010
0100
0000
0000
1000
0100
0000
0001
0100
0000
1000
0100
0000
0001
0100
0000
1000
0010
0000
0001
0010
0000
,
1000
0000
0010
0000
0000
0000
0001
0000
0010
0000
0000
0000
0002
0000
0000
0000
0000
0000
0000
0000
0000
0000
0000
0000
1003
0000
0000
0200
0000
0000
M02M
0000
0000
0000
0000
0000
M00M
0000
0000
0000
0000
0000
M33M
0000
0000
0000
0000
0000
;

//---------------dance-single - ----------------
#NOTEDATA:;
#CHARTNAME:;
#STEPSTYPE:dance-single;
#DESCRIPTION:;
#CHARTSTYLE:;
#DIFFICULTY:Medium;
#METER:6;
#RADARVALUES:0.222921,0.299590,0.048386,0.145158,0.050402,387.000000,375.000000,12.000000,36.000000,0.000000,0.000000,0.000000,0.000000,0.000000,0.222921,0.299590,0.048386,0.145158,0.050402,387.000000,375.000000,12.000000,36.000000,0.000000,0.000000,0.000000,0.000000,0.000000;
#CREDIT:;
#NOTES:
// measure 0
0001
0000
0100
0001
0010
0000
0100
1000
,  // measure 1
0100
0000
0010
0001
1000
0000
0100
1000
,  // measure 2
0020
0000
0000
0000
0030
0100
0002
0000
,  // measure 3
2003
0000
0000
0000
0000
0000
3000
0010
,  // measure 4
0200
0000
0000
0000
0000
0000
0300
1000
,  // measure 5
0002
0000
0000
0000
0000
0013
0001
1000
,  // measure 6
0200
0000
0000
0000
0000
0000
0000
0020
,  // measure 7
0000
0000
0000
0000
0330
0000
1000
0001
,  // measure 8
0020
0000
0000
0000
0030
0100
1000
0000
,  // measure 9
0002
0000
0010
0000
0010
0000
0103
0010
,  // measure 10
2000
0000
0000
0000
,  // measure 11
0002
0000
0000
3003
,  // measure 12
0001
0000
1000
0000
0100
0000
1000
0000
0000
1000
0000
0000
0010
0000
0000
0000
,  // measure 13
0100
0000
0000
0010
0000
0000
0010
0000
0000
0000
0100
0000
0000
0000
1001
0000
,  // measure 14
0000
0000
0001
0000
0010
0000
0001
0000
0000
1000
0000
0000
0100
0000
0000
0000
,  // measure 15
0010
0001
0100
0001
0010
0000
0110
0000
,  // measure 16
0001
0000
0100
0000
0001
0000
1000
0000
0000
1000
0000
0000
0010
0000
0000
0000
,  // measure 17
0100
0001
0100
0010
1000
0001
1000
0010
,  // measure 18
0000
0000
0010
0000
0100
0000
0001
0000
0000
0001
0000
0000
0001
0000
0000
0000
,  // measure 19
1000
0100
1000
0100
0010
0100
0010
0100
,  // measure 20
1000
0000
0001
0010
0000
0100
0010
0000
,  // measure 21
1000
0100
0001
0100
1000
0100
0010
0010
,  // measure 22
0000
0000
1001
0000
0000
1001
0000
0000
1001
0000
0000
0000
0000
0000
0000
0000
,  // measure 23
0100
0001
0010
0100
,  // measure 24
1000
0000
0000
0001
0000
0000
0100
0000
0001
0000
0000
0000
,  // measure 25
1000
0000
0000
0010
0000
0000
0010
0000
0000
0000
0000
0110
,  // measure 26
0000
0100
0001
1000
,  // measure 27
0010
0000
0000
0010
0000
0000
1000
0000
0100
1000
0000
0000
,  // measure 28
0001
0001
0020
0030
,  // measure 29
0000
0000
0100
0000
0000
0100
0000
0000
0000
1000
0000
0001
,  // measure 30
0000
0000
0000
0010
0000
0000
0100
0000
1000
0100
0000
0000
,  // measure 31
0010
0000
0000
0000
0000
0000
0000
0000
0000
0000
0000
0110
,  // measure 32
0000
0000
0000
0001
0000
0000
1000
0000
0100
1000
0000
0000
,  // measure 33
0010
0100
0001
0000
,  // measure 34
1000
0000
0000
0100
0000
0000
1000
0000
0010
1000
0000
0000
,  // measure 35
0001
0100
0010
0000
,  // measure 36
1000
0010
0100
0010
,  // measure 37
0100
0001
0010
0000
,  // measure 38
1001
0000
0000
0000
,  // measure 39
0000
0000
0000
2002
,  // measure 40
0000
0000
0000
3003
,  // measure 41
0001
0000
1000
0001
0010
0000
0100
0000
,  // measure 42
1000
0001
1000
0100
1000
0000
0010
0000
,  // measure 43
0100
0001
1000
0100
0020
0000
0130
0000
,  // measure 44
0220
0000
0000
0330
,  // measure 45
0001
0100
0001
0000
,  // measure 46
0010
0100
1000
0000
,  // measure 47
1000
0100
1000
0000
,  // measure 48
0010
0100
0001
0000
,  // measure 49
1000
0001
1000
0001
,  // measure 50
0010
0100
0010
0000
,  // measure 51
0001
0100
0010
1000
,  // measure 52
0001
0100
0100
0000
,  // measure 53
0000
0000
0000
0000
,  // measure 54
0110
0010
0100
0001
,  // measure 55
1000
0000
0100
1000
0000
0000
0010
0000
0000
0000
0000
0000
,  // measure 56
1001
0000
0000
0001
0000
0000
0010
0000
0100
0010
0000
0000
,  // measure 57
0001
0000
0000
1000
0000
0100
1000
0000
0000
0010
0000
0000
,  // measure 58
1000
0000
0100
0000
1000
0000
0100
0000
0000
1000
0000
0000
,  // measure 59
0001
0000
0100
0000
0001
0000
0100
0000
0000
0001
0000
0000
,  // measure 60
0020
0100
0000
0130
,  // measure 61
0001
0000
0000
1000
0000
0000
0001
0000
0000
0000
1000
0000
0000
0000
0000
0000
0000
0000
0000
0000
0000
0000
0000
0000
,  // measure 62
0010
0000
0010
0000
0100
0001
0100
0000
,  // measure 63
0010
0000
1000
0100
1000
0001
1000
0000
,  // measure 64
0010
0000
0100
0001
0010
0000
0100
1000
,  // measure 65
0001
0000
0010
0001
1000
0100
0010
0001
,  // measure 66
1000
0000
0020
0000
0000
0130
0000
0100
,  // measure 67
0010
0000
2000
0000
0000
3002
0000
0000
,  // measure 68
0003
0000
0200
0000
0010
0310
0000
0000
,  // measure 69
2000
0000
3001
0000
0001
2000
0000
3000
,  // measure 70
0000
0000
0200
0000
0000
1300
0000
0002
,  // measure 71
0000
0000
0000
0000
0013
0000
0000
0100
0000
0000
0020
0000
0000
0000
0030
0000
,  // measure 72
0000
0001
2000
0000
0000
0010
0000
0010
,  // measure 73
3000
0000
0002
0000
0100
0200
0000
0000
,  // measure 74
0303
0000
0010
0000
1000
0000
0100
1000
,  // measure 75
0001
0000
0010
0000
0001
0100
0001
0000
,  // measure 76
1000
0000
1000
0000
0010
0100
0000
0100
,  // measure 77
0010
0000
1000
0000
0001
0000
0010
0100
,  // measure 78
0010
0000
0001
0000
0100
0000
0010
0010
,  // measure 79
0010
0000
2000
0000
0000
0001
0000
0000
,  // measure 80
3001
0000
0020
0000
0000
0130
0000
0010
,  // measure 81
0001
0000
1000
0000
0100
0000
0010
0100
,  // measure 82
0010
0000
0001
0000
1000
0002
0000
0000
,  // measure 83
0103
0000
0010
0000
0100
0000
0001
0100
,  // measure 84
0001
0000
1000
0100
1000
0000
0010
0000
,  // measure 85
0010
0000
0020
0000
0000
1000
0000
0000
,  // measure 86
1030
0000
0001
0000
0100
0002
0000
0000
,  // measure 87
0013
0000
0100
0000
1000
0000
0001
0100
,  // measure 88
0001
0100
0001
0000
1000
0000
0100
0100
,  // measure 89
0010
0000
0001
0000
1000
0000
0100
1000
,  // measure 90
0010
0100
0001
1000
,  // measure 91
0001
0000
0100
0010
0100
0000
0100
0010
,  // measure 92
0100
0000
0010
0000
0000
0020
0000
0030
;

//---------------dance-single - ----------------
#NOTEDATA:;
#CHARTNAME:;
#STEPSTYPE:dance-single;
#DESCRIPTION:;
#CHARTSTYLE:;
#DIFFICULTY:Easy;
#METER:3;
#RADARVALUES:0.150342,0.223180,0.028225,0.177415,0.006048,261.000000,254.000000,7.000000,44.000000,0.000000,0.000000,0.000000,0.000000,0.000000,0.150342,0.223180,0.028225,0.177415,0.006048,261.000000,254.000000,7.000000,44.000000,0.000000,0.000000,0.000000,0.000000,0.000000;
#CREDIT:;
#NOTES:
// measure 0
0001
0000
1000
0000
0010
0100
0010
0000
,  // measure 1
0100
0000
0001
0000
0010
0100
1000
0000
,  // measure 2
0002
0000
0003
1000
,  // measure 3
2000
0000
0000
0000
3000
0000
0000
0010
,  // measure 4
0020
0000
0030
0000
,  // measure 5
0200
0000
0300
0010
,  // measure 6
0020
0000
0000
0000
0000
0000
0000
0200
,  // measure 7
0000
0000
0330
0000
,  // measure 8
0001
0000
0001
0000
0000
0001
1000
0000
,  // measure 9
1000
0010
0100
0001
,  // measure 10
0020
0000
0000
0030
,  // measure 11
0200
0000
0000
0300
,  // measure 12
0001
1000
0010
0010
,  // measure 13
0100
0001
1000
0010
,  // measure 14
1000
0001
0010
0010
,  // measure 15
0100
1000
0010
0100
,  // measure 16
0001
1000
1000
0010
,  // measure 17
1000
0001
1000
0001
0100
0000
0000
0010
,  // measure 18
0000
0010
1000
0001
,  // measure 19
0100
0100
0100
0000
0010
0010
0010
0000
,  // measure 20
1000
0000
0001
1000
0000
0001
1000
0000
,  // measure 21
0002
0000
0000
0000
2000
0000
0000
3003
,  // measure 22
0000
0000
0010
0000
0000
0010
0000
0000
0010
0000
0000
0000
0000
0000
0000
0000
,  // measure 23
1000
0100
1000
0100
,  // measure 24
0001
0100
0001
0100
,  // measure 25
0020
0000
0130
0000
,  // measure 26
0002
0000
0003
1000
,  // measure 27
0010
0000
0010
0010
,  // measure 28
1000
0001
1000
0000
,  // measure 29
0002
1000
1000
0000
,  // measure 30
2003
0000
3010
0100
,  // measure 31
1001
0000
0000
0000
0000
0000
0000
0000
0000
0000
0000
0001
,  // measure 32
0000
1000
0010
0000
,  // measure 33
0100
0100
0100
0000
,  // measure 34
1000
0001
0010
0100
,  // measure 35
0020
0000
0130
0000
,  // measure 36
1000
1000
0001
0001
,  // measure 37
0100
0010
0100
0010
,  // measure 38
0110
0000
0000
0000
,  // measure 39
0000
0000
0000
0002
,  // measure 40
0000
0000
0003
0000
,  // measure 41
0100
1000
0002
0003
,  // measure 42
0100
0001
2000
3000
,  // measure 43
0010
0010
0200
0300
,  // measure 44
0020
0000
0030
0000
,  // measure 45
0001
0000
0000
0000
,  // measure 46
0001
0000
1000
0000
,  // measure 47
1000
0000
0000
0000
,  // measure 48
1000
0000
0001
0000
,  // measure 49
0010
0000
0010
0000
,  // measure 50
0100
0000
0100
0000
,  // measure 51
0220
0000
0000
0000
,  // measure 52
0330
0000
0000
0000
,  // measure 53
0000
0000
0000
0000
,  // measure 54
0001
0001
0010
0000
,  // measure 55
1000
1000
0010
0000
,  // measure 56
0200
0000
0000
0310
,  // measure 57
0020
0000
0000
0030
,  // measure 58
0001
0100
1000
0100
,  // measure 59
0001
0010
1000
0010
,  // measure 60
0002
1000
0000
1003
,  // measure 61
0000
0000
0000
0010
0000
0000
0010
0000
0000
0000
0010
0000
0000
0000
0000
0000
0000
0000
0000
0000
0000
0000
0000
0000
,  // measure 62
2000
0001
0000
0001
3002
0000
0003
0000
,  // measure 63
0002
1000
0000
1000
2003
0000
3000
0000
,  // measure 64
0020
0100
0000
0100
0230
0000
0300
0000
,  // measure 65
0200
0010
0000
0010
0320
0000
0030
0000
,  // measure 66
0000
0001
0000
1000
,  // measure 67
0000
0020
0000
0030
,  // measure 68
0000
1000
0000
0001
,  // measure 69
0000
0020
0000
0030
,  // measure 70
0000
1000
0001
1000
,  // measure 71
0001
0000
0100
0000
0000
0100
0000
0000
,  // measure 72
0000
0000
0010
0000
0000
0010
0000
0000
,  // measure 73
0000
0000
0001
0000
0000
1000
0000
0000
,  // measure 74
0000
0001
0010
0001
,  // measure 75
1000
0010
0100
0010
,  // measure 76
0100
0002
0000
1003
,  // measure 77
0000
1000
1000
0100
,  // measure 78
0000
0010
0001
1000
,  // measure 79
0000
1001
0000
0100
,  // measure 80
0001
2000
0000
3001
,  // measure 81
0000
0010
0010
0100
,  // measure 82
0100
0010
0100
0110
,  // measure 83
0000
0002
0010
0000
,  // measure 84
0013
2000
0010
0000
,  // measure 85
3010
2002
3003
0000
,  // measure 86
0000
0200
0000
0300
,  // measure 87
0000
0010
0010
0010
,  // measure 88
0000
0000
1000
0000
0001
0000
1000
0001
,  // measure 89
1000
0010
0010
0100
,  // measure 90
0100
0002
1003
0200
,  // measure 91
0301
1000
0001
1000
,  // measure 92
0001
1001
0000
0000
;
