#TITLE:might quit;
#SUBTITLE:;
#ARTIST:Bill Wurtz;
#TITLETRANSLIT:;
#SUBTITLETRANSLIT:;
#ARTISTTRANSLIT:;
#GENRE:;
#CREDIT:8Chasey 2024/Bill Wurtz Edition;
#MUSIC:might quit.ogg;
#BANNER:might quit.png;
#BACKGROUND:might quit-bg.png;
#CDTITLE:;
#SAMPLESTART:37.464;
#SAMPLELENGTH:12.000;
#SELECTABLE:YES;
#OFFSET:-1.540;
#BPMS:0.000=119.000
,276.000=112.000
,277.000=108.000
,278.000=98.000
,279.000=90.000
;
#STOPS:168.000=1.008;
#DISPLAYBPM:119.000;
#BGCHANGES:-2.375=might quit.avi=1.000=0=0=0=StretchNoLoop====,
284.500=might quit-bg.png=1.000=1=0=1===CrossFade==,
99999.000=-nosongbg-=1.000=0=0=0=StretchNoLoop====
;
#FGCHANGES:;

//--------------- dance-single - 8Chasey ----------------
#NOTES:
     dance-single:
     8Chasey:
     Beginner:
     2:
     0,0,0,0,0:
0000
0000
0000
0000
,
0001
0000
0001
0000
,
0001
0001
0001
0000
,
1000
0000
1000
0000
,
1000
1000
1000
0000
,
0010
0000
0010
0000
,
0010
0010
0010
0000
,
0100
0000
0100
0100
,
0100
0000
0000
0000
,
0000
1001
0000
0000
,
1000
0000
1000
0000
,
1000
1000
1000
0000
,
0001
0000
0001
0000
,
0001
0001
0001
0000
,
0100
0000
0100
0000
,
0100
0100
0100
0000
,
0010
0000
0010
0010
,
0010
0000
0000
0000
,
1000
0000
1000
0000
,
0100
0000
0001
0000
,
0001
0000
1001
0000
,
0000
0000
0000
0000
,
0010
0000
1000
0000
,
0001
0000
0000
0000
,
0100
0000
0001
0000
,
1000
0000
0000
0000
,
0100
0000
0000
0000
,
0110
0000
0000
0000
,
0001
0000
0000
0000
,
0000
0000
0000
0000
,
0001
0000
0000
0000
,
0001
0000
0001
0000
,
1000
0000
0000
0000
,
0000
0000
0000
0000
,
1000
0000
0000
0000
,
1000
0000
1000
0000
,
0010
0010
0010
0000
,
0100
0100
0100
0000
,
0010
0000
0100
0000
,
0010
0000
0100
0000
,
0001
0000
0000
0000
,
1000
0000
0000
0000
,
1001
0000
0000
0000
,
0100
0000
0100
0100
,
0100
0000
0000
0000
,
0001
0000
0010
0000
,
0001
0001
0001
0000
,
1000
0000
0010
0000
,
1000
1000
1000
0000
,
0100
0000
0010
0000
,
0100
0100
0100
0000
,
0010
0000
0010
0010
,
0010
0000
0000
0000
,
1001
0000
1000
0000
,
0100
0000
0001
0000
,
0010
0000
0010
0000
,
0110
0000
0100
0000
,
0001
0001
0001
0000
,
1000
1000
1000
0000
,
0001
0000
1000
0000
,
0100
0000
0000
0000
,
0000
0000
0000
0000
,
0010
0010
0010
0000
,
1000
0000
1000
0000
,
1000
1000
1000
0000
,
0001
0000
0001
0000
,
0001
0001
0001
0000
,
0100
0000
0100
0000
,
0010
0010
0010
0000
,
0100
0000
0010
0000
,
1001
0000
0000
0000
;

//--------------- dance-single - 8Chasey ----------------
#NOTES:
     dance-single:
     8Chasey:
     Easy:
     3:
     0,0,0,0,0:
0000
0000
0000
0000
,
0001
0100
0001
0000
,
1000
0100
1000
0000
,
0010
0000
0010
0000
,
0001
0010
1000
0000
,
0100
1000
0010
0000
,
0100
0001
0010
0000
,
0002
0003
2000
3000
,
0020
0000
0000
0000
0000
0000
0130
0000
0000
0001
0000
1000
,
0000
0001
0000
1000
0000
0000
0000
0000
0000
0000
0000
0000
,
0010
0010
1000
0000
,
0100
0100
0001
0000
,
0010
0010
0100
0100
,
1000
0001
1000
0001
,
0001
0000
0101
0000
,
1000
0000
1100
0000
,
0010
1000
0001
0100
,
0020
0000
0030
0000
,
2000
0000
3100
0010
,
0002
0000
0103
0010
,
0200
0000
0020
0000
,
0000
0000
0330
0000
,
0001
0001
0010
0000
,
0001
0001
0100
0000
,
1000
1000
0010
0000
,
1000
1000
0100
0000
,
1001
0000
0200
0000
,
0310
2002
0000
3003
,
0001
0000
1000
0000
,
0001
1000
0001
0000
,
0001
1000
0001
1000
,
0001
0001
0001
0000
,
1000
0000
0001
0000
,
1000
0001
1000
0000
,
1000
0001
1000
0001
,
1000
1000
1000
0000
,
1200
0000
0310
0000
,
0201
0000
0310
0000
,
0002
0000
0013
0000
,
2000
0000
3010
0000
,
1000
0100
0001
0000
,
1000
0010
0001
0000
,
0200
0000
0000
0000
,
0310
0000
1000
0000
,
0101
0000
0000
0000
,
0001
0010
0001
0000
,
1000
0100
1000
0000
,
0001
0100
0001
0000
,
1000
0010
1000
0000
,
0100
0001
0001
0000
,
0010
1000
1000
0000
,
0002
0003
2000
3000
,
0020
0000
0030
0000
,
0001
0010
0001
0000
,
1000
0100
1000
0000
,
1100
0000
0110
0000
,
0011
0000
0100
0000
,
0002
0000
0013
0001
,
2000
0000
3100
0010
,
0010
0000
0100
0000
,
0200
0000
0000
0000
,
0300
0000
0000
0000
,
0001
1000
2002
3003
,
1000
1000
0100
0000
,
0001
0001
0010
0000
,
1000
0000
0100
0000
,
0001
0010
0110
0000
,
0001
0100
0001
0000
,
1000
0010
1000
0000
,
0200
0000
0300
0000
,
2002
0000
0000
3003
;

//--------------- dance-single - 8Chasey ----------------
#NOTES:
     dance-single:
     8Chasey:
     Medium:
     6:
     0,0,0,0,0:
0000
0000
0000
0000
,
0001
0000
0010
0000
0001
0000
0010
0000
0000
0100
0000
0000
,
1000
0000
0010
0000
1000
0000
0010
0000
0000
0100
0000
0000
,
0001
0001
1000
1000
,
0100
0010
0200
0300
,
1000
0000
0010
0000
1000
0000
0010
0000
0000
0100
0000
0000
,
0001
0000
0010
0000
0001
0000
0010
0000
0000
0100
0000
0000
,
0010
0001
1000
0100
,
0200
0000
0000
0000
0000
0000
0310
0000
0000
1000
0000
0001
,
0000
1000
0000
0001
0000
0000
2002
0000
0000
3003
0000
0000
,
0001
0000
0000
0001
0000
0000
0011
0000
0000
0000
0010
0000
,
1000
0000
0000
1000
0000
0000
1010
0000
0000
0000
0100
0000
,
0001
0010
0100
1000
,
0011
1010
0200
0300
,
0001
0010
2000
3100
,
1000
0010
0002
0103
,
0001
0000
0010
0001
0000
0000
1000
0000
0010
1000
0000
0000
,
0200
0000
1300
0001
,
0101
0001
0202
0303
,
1100
1000
2200
3300
,
0010
2000
0002
3000
,
0100
0000
0103
0000
,
0010
0000
1000
0000
0001
0000
0100
0000
0000
0100
0000
0000
,
0200
0000
0001
0310
,
1000
0000
0001
0001
,
1000
1000
0010
0010
,
0020
0000
0000
0000
0000
0000
0130
0000
0001
0000
1000
0000
,
0100
0110
0020
0030
,
0100
0001
0100
0001
,
0100
0001
0100
1001
,
1000
0100
1000
0100
,
1000
0100
1000
0110
,
0001
0000
0001
0000
0001
0000
0022
0000
0000
0033
0000
0000
,
1000
0000
1000
0000
1000
0000
2020
0000
0000
3030
0000
0000
,
0100
0000
0100
0000
0100
0000
0001
0000
0000
1000
0000
0000
,
0200
0000
0000
0300
0000
0000
1000
0001
1000
0001
0000
0000
,
0010
0000
0000
0001
0000
0000
0100
0000
0100
0001
0000
0100
,
0010
0000
0000
1000
0000
0000
0100
0000
0100
1000
0000
0100
,
1000
0001
1000
0001
,
0101
1100
0020
0030
,
1000
0100
0001
0010
,
0002
0003
2000
3000
,
0220
0000
0000
0330
,
1000
0100
0001
0100
,
0110
0000
0000
0000
0100
0100
0100
0000
,
0001
0010
0001
0100
,
1000
0010
1000
0100
,
1000
0000
0010
0000
1000
0000
0001
0000
0010
0000
0001
0000
,
0100
0001
0010
1000
,
1100
0000
0010
0000
0100
0000
0101
0000
0000
0000
0000
0000
,
0011
0000
0100
0000
0010
0000
1010
0000
0000
0000
0000
0000
,
1000
0100
0010
0001
,
0200
0300
2002
3003
,
1000
0100
2020
3030
,
0001
0100
0022
0033
,
1000
0010
0001
0010
,
1000
0001
0100
1001
,
1000
0000
0100
0000
0100
0000
0001
0000
0100
0000
0100
0000
,
0001
0000
0010
0000
0100
0000
1000
0000
0010
0000
0100
0000
,
0002
0013
2000
3100
,
0202
0000
0000
0303
,
1000
0000
0000
0000
0001
0000
0001
0000
0000
0000
0000
0000
,
0001
1000
0100
0000
0020
0000
0030
0000
,
0001
0100
0001
0101
,
1000
0100
1000
1100
,
0010
0010
1000
0001
,
0010
0010
0210
0000
,
1300
0010
0100
0000
,
0001
0010
0100
0000
,
2000
3000
0002
0003
,
2002
0000
0000
3003
;

//--------------- dance-single - 8Chasey ----------------
#NOTES:
     dance-single:
     8Chasey:
     Hard:
     8:
     0,0,0,0,0:
0000
0000
0000
0000
,
0001
0000
1000
0010
0000
0000
2000
0000
0000
3100
0000
0000
,
1000
0000
0001
0010
0000
0000
0002
0000
0000
0103
0000
0000
,
1010
0000
1000
0100
0000
0000
0011
0000
0001
0100
0000
0000
,
0101
1100
2002
3003
,
0010
0000
1000
0001
0000
0000
0002
0000
0000
0013
0000
0000
,
0010
0000
0001
1000
0000
0000
2000
0000
0000
3010
0000
0000
,
1100
0000
0101
0000
0100
0000
0010
0000
0000
0110
0000
0000
,
2002
0000
0000
3003
0000
0000
0100
0000
0000
0001
0000
1000
,
0000
0011
0000
0210
0000
0000
1300
0010
0100
0001
0010
0100
,
1000
0000
1000
0000
0100
0000
1100
0000
0000
0010
0000
0000
,
0001
0000
0001
0000
0100
0000
0101
0000
0000
1000
0000
0000
,
0010
0000
1000
0001
0000
0000
0100
0000
0001
1000
0000
0100
,
0010
0010
0011
1010
,
1000
0000
0010
0000
0100
0001
0010
0000
0000
0001
0000
1000
,
0001
0000
0010
0000
0100
1000
0010
0000
0000
1001
0000
0000
,
1000
0000
0010
0100
0000
0000
0001
0000
0000
0010
0000
0000
,
0200
0000
0000
0300
0000
0000
1000
0001
1000
0100
0000
0000
,
0010
0000
0010
0000
0001
0000
1200
0000
0000
0310
0000
0000
,
0001
0000
1000
0000
0010
0000
0201
0000
0000
0310
0000
0000
,
1000
0000
0000
1000
0001
0000
0021
0000
0000
0100
0000
0000
,
0130
0000
1000
0100
0000
0001
0100
0000
0010
0100
0000
0000
,
1010
0000
1000
0000
0001
0000
0011
0000
0000
0100
0010
0000
,
0020
1030
0200
0301
,
0100
0000
0010
0001
0010
0000
0100
1000
0100
0010
0000
0000
,
0011
1000
0010
0001
,
0200
0000
0000
0000
0000
0000
0301
0000
0011
0000
1010
0000
,
1000
0000
0000
1001
0000
0000
1000
0010
0100
0001
0010
0001
,
1000
0000
0100
1000
0000
0000
0001
0000
0100
0001
0000
0000
,
1000
0000
0100
1000
0000
0000
0001
0000
0100
0001
0000
0000
,
0100
1000
0010
0001
,
0100
0000
0000
1010
0000
0000
0100
0000
0000
0101
0010
0001
,
0010
0000
0011
0000
0011
0000
0110
0000
0000
0000
1000
0010
,
1000
0000
1010
0000
1010
0000
0110
0000
0000
0000
1000
0100
,
0001
0000
0010
0000
0010
0000
0002
0000
0000
2003
0000
0000
,
3200
0000
0000
0300
0000
0000
0010
0001
0010
0100
0010
1000
,
1000
0000
1100
0000
1000
0000
0002
0000
0000
0103
0000
0100
,
0010
0000
0101
0000
1100
0000
0100
0000
0000
0010
0001
1000
,
0100
0000
1000
0010
0000
0100
0001
0000
0010
0100
0000
0010
,
0001
1010
0200
0310
,
1000
0000
0100
0000
0010
0000
0001
0000
0010
0000
0100
0000
,
0012
0100
2003
3100
,
0201
0000
1000
0010
,
0301
0000
0001
0000
0001
0000
1100
0000
0100
0000
0010
0000
,
0110
0000
0000
0000
0000
0000
0000
0000
0000
0000
0000
0000
0001
0000
0000
0000
0000
0000
0000
0000
0000
0000
0000
0000
1000
0000
0000
0001
0000
0000
1000
0000
0000
0001
0000
0000
1000
0000
0000
0000
0001
0000
0000
0000
1000
0000
0000
0000
,
0010
0000
0010
0000
0100
0000
0002
0000
0000
0013
0000
0000
,
0011
0000
1000
0000
0100
0000
2000
0000
0000
3010
0000
0000
,
0101
0000
0001
0010
0000
0100
1000
0000
0010
1000
0000
0001
,
0100
1100
2002
3003
,
1000
0000
0010
0100
0000
0001
0010
0000
0000
0110
0000
0000
,
0001
0000
0010
0100
0000
1000
0010
0000
0000
0101
0000
0000
,
1100
0000
1000
0000
0001
0000
0101
0000
0000
1000
0010
0000
,
0001
0000
0000
0000
0000
0000
0020
0000
0000
1030
1100
0000
,
0001
0000
0010
0000
0110
0000
1001
0000
0000
1000
0100
0000
,
1000
0000
0010
0000
0110
0000
0101
0000
0000
1100
0000
0000
,
0010
0100
0001
0000
0001
0000
0010
0100
1000
0000
1000
0000
,
0010
1000
0000
0010
0001
0000
0020
0000
0000
0130
0000
0000
,
0002
0000
0010
0000
0013
0000
2000
0000
0100
0000
3100
0000
,
1000
0010
0000
0010
0000
0000
0001
0100
0000
0100
0000
0000
,
0101
0000
0000
0001
0000
1000
0100
0000
0000
0100
0000
0000
,
0220
0000
0000
0330
,
0001
0010
0001
1000
0100
1000
0010
0000
0000
0010
0000
0000
,
1000
0000
0000
1000
0000
0000
1100
0000
0000
0000
0000
0000
0001
0000
0020
0000
0000
0000
0000
0000
0030
0000
0000
0000
,
0001
0000
0010
0000
0100
0000
0010
0001
1000
0100
0000
0000
,
1000
0000
0010
0000
0100
0000
0010
1000
0001
0100
0000
0000
,
0101
0010
1100
0010
,
0002
0100
0023
0000
,
0130
0000
1000
0100
0010
0000
0001
0000
0000
0101
0000
0000
,
0100
0000
0001
0100
0010
0000
1000
0000
0000
1100
0000
0000
,
0001
0000
0011
0000
0110
0000
1100
0000
0000
1000
0000
0000
,
0020
0000
0000
0030
;

//--------------- dance-single - 8Chasey - 2025 chart ----------------
#NOTES:
     dance-single:
     8Chasey - 2025 chart:
     Challenge:
     9:
     0,0,0,0,0:
0000
0000
0000
0000
,
0010
0000
1000
0100
1000
0000
0002
0000
0000
0013
0001
1000
,
0010
0000
0100
0010
0100
0000
0020
0000
0000
1030
0100
1000
,
1001
0000
0001
0100
0010
0000
0110
0000
0010
1000
0010
0000
,
0101
0000
0000
1100
0000
0000
0110
0010
1000
0010
0100
0001
,
0100
0000
0001
0010
0001
0000
2100
0000
0000
3010
0000
1000
,
0100
0000
1000
0010
1000
0000
0102
0000
0000
0013
0001
1000
,
1100
0000
0101
0000
0100
0001
0010
0000
0000
0110
0000
0000
,
2002
0000
0000
3003
0000
0000
1000
0010
0100
0001
0001
0101
,
0000
1100
0000
1002
0000
0000
0013
0001
0100
0010
1000
0100
,
1000
0000
0010
1000
0100
0000
1100
0000
0000
1000
0010
0100
,
0001
0000
0010
0001
0100
0000
0101
0000
0000
0001
0010
0001
,
0100
0000
0100
0010
1000
0000
0100
1000
0100
1000
0000
0010
,
0100
0001
0000
0101
0000
0000
1010
0000
1000
0010
0100
0100
,
0001
0000
1000
0001
1000
0010
0200
0000
0000
0301
0010
0001
,
0100
0000
0010
1000
0001
0100
0001
0000
0000
1001
0000
1000
,
0010
0000
1000
0010
0100
0000
0101
0000
0000
1100
0000
0000
,
0220
0000
0000
0000
0000
0000
0330
0000
0000
0000
0000
0000
0001
0010
0001
0000
0010
0000
0100
0000
1000
0000
0001
0000
,
1000
0000
0010
0100
0001
0000
0021
0000
0000
0130
0000
1000
,
0001
0000
0010
0100
1000
0000
1020
0000
0000
0130
0001
0001
,
1000
0000
0000
0100
1000
0000
0021
0000
0000
0100
0000
0100
,
0130
0000
1000
0100
1000
0001
0100
0001
0100
0010
0000
0000
,
1010
0000
0100
0001
0010
0000
0011
0000
0010
0100
0000
0000
,
0010
0000
0001
0010
0000
0010
0001
1000
0100
2000
0000
0000
,
3010
0000
1000
0100
1000
0000
0100
0001
0100
0001
1000
0000
,
1001
0000
0001
0010
0000
0001
1000
0010
0100
0010
1000
0000
,
0202
0000
0000
0303
0000
0000
1010
0000
0010
0100
0001
0000
,
0011
0000
0000
0000
0000
0000
0100
0010
0000
0000
0000
0000
0100
0000
1000
0000
0010
0000
0100
0000
0010
0000
1000
0000
,
0001
0010
0001
0010
0000
0100
1000
0000
0001
0100
0000
0000
,
1000
0010
1000
0010
0000
0100
0001
0000
1000
0100
0000
0000
,
0001
0000
0010
0001
0000
0000
1000
0000
0010
1000
0000
0000
,
0010
0000
0000
0101
0000
0000
0010
0000
1000
0100
1000
1000
,
0010
0000
0101
0000
1010
0000
0110
0010
0100
0001
1000
0001
,
0010
0000
1100
0000
0011
0000
1001
0001
1000
0100
1000
0010
,
0100
0000
0001
1000
0001
1000
0200
0000
0000
0310
0000
0000
,
2002
0000
0000
3003
0000
0000
0110
0010
0001
1000
0010
0100
,
0010
0000
1000
0010
0100
0000
0102
0000
0000
0013
0001
0010
,
0100
1000
0001
0000
0100
0000
2100
0000
0000
3010
0100
0010
,
1000
0000
1001
0000
0001
0000
0110
0000
0010
0100
0010
0000
,
0200
0000
0301
2000
0010
0000
3001
0020
0000
0130
0000
0000
,
1001
0000
0001
0100
1000
0000
0100
0000
0001
0010
1000
0000
,
0010
0000
0100
1000
0001
0000
0200
0000
0000
0301
1000
0000
,
1020
0000
0000
0000
0000
0000
0130
0000
0100
0000
0001
0000
0100
0000
0010
1000
0000
0000
0010
0000
0100
0000
0000
0000
,
0101
0000
0001
0000
1000
0000
1100
0000
0011
0000
0020
0000
,
0130
0000
0000
0000
0000
0000
0000
0000
0000
0000
0000
0000
1001
0000
0000
0000
0000
0000
0000
0000
0000
0000
0000
0000
0100
0000
0000
1000
0000
0000
0100
0000
0000
0010
0000
0000
0001
0000
0000
0000
0100
0000
0000
0000
0001
0000
0000
0000
,
0010
0000
0001
0100
0010
0000
2000
0000
0000
3100
1000
0100
,
1000
0000
1000
0010
0100
0000
0001
0100
0100
0001
1000
0010
,
1010
0000
0010
0100
0001
0000
0011
0000
0010
0001
1000
0010
,
0100
0001
0000
0101
0000
0000
2100
0000
3100
1000
0010
1000
,
0001
0000
0010
0001
0100
0000
0010
1000
0002
0000
0100
0000
,
0203
0000
0320
0000
1030
0000
1100
0000
1000
0001
0010
0000
,
0001
0000
0010
0001
1000
0000
1100
0000
0000
0001
1000
0000
,
0001
0000
0000
0000
0000
0000
0000
0000
0000
0000
0000
0000
0001
0010
0100
0010
0100
1000
0010
0000
1010
0000
0000
0000
,
1000
0100
0010
0000
0011
0000
0110
0000
0100
1000
0010
0100
,
0001
0010
0100
0000
1100
0000
1001
0000
0100
0001
1000
1000
,
0010
0100
0001
0000
0010
0000
0001
1000
0100
0000
0100
0000
,
1000
0010
0000
0001
0010
0000
2001
0000
0000
3100
1000
0000
,
0002
0000
0010
0000
0103
0000
2000
0000
0010
0000
3100
0000
,
0010
0001
0000
0010
0001
0001
1000
0000
0100
1000
0010
0000
,
0100
0000
0010
1000
0001
0100
0010
0000
1000
0001
0010
0000
,
0200
0020
0000
0330
,
0001
0010
0001
1000
0100
1000
0010
0100
0010
1000
0000
0000
,
1001
0000
0000
0000
0000
0000
0000
0000
0000
0001
0000
0000
0100
0000
0000
0010
0000
0000
0000
0000
1000
0000
0000
0000
0010
0000
0000
0000
0220
0000
0000
0000
0000
0000
0000
0000
0000
0000
0000
0000
0330
0000
0000
0000
0000
0000
0000
0000
,
0100
0000
0001
0010
0100
0000
1000
0001
0100
0010
0100
0100
,
0001
0000
1000
0010
1000
0000
0010
0100
0001
0100
0010
0010
,
1000
0000
1010
0000
1000
0000
0001
0000
0011
0000
0001
0000
,
0100
0010
1000
0200
0000
0000
0310
0001
0010
0001
0100
0001
,
1000
0000
0010
0100
0001
0000
0100
0001
1000
0010
0010
1000
,
0100
0000
0010
0001
1000
0000
1001
1000
0001
0100
0001
0100
,
0010
0000
1010
0000
0101
0000
1001
0000
0000
2000
0000
0000
,
0200
0000
0000
3300
;

//--------------- dance-solo - 8Chasey - 2025 chart ----------------
#NOTES:
     dance-solo:
     8Chasey - 2025 chart:
     Beginner:
     1:
     0,0,0,0,0:
000000
000000
000000
000000
,
000010
000000
010000
000000
,
100000
000000
000010
000000
,
010000
000000
000001
000000
,
010000
000000
010000
000000
,
000100
000000
000100
000000
,
001000
000000
000001
000000
,
100000
000000
001000
001000
,
001000
000000
000000
000000
,
000000
010010
000000
000000
,
100000
000000
000010
000000
,
010000
000000
010000
000000
,
000001
000000
010000
000000
,
000010
000000
000010
000000
,
001000
000000
001000
000000
,
000001
000000
100000
000000
,
001000
000000
000100
000100
,
000100
000000
000000
000000
,
100000
000000
010000
000000
,
000100
000000
000001
000000
,
000010
000000
001000
000000
,
000000
000000
000000
000000
,
100000
000000
000010
000010
,
000010
000000
000000
000000
,
000001
000000
010000
010000
,
010000
000000
000000
000000
,
001000
000000
000000
000000
,
001100
000000
000000
000000
,
000010
000000
000010
000000
,
010000
000000
010000
000000
,
000010
000000
010000
000000
,
001000
000000
000000
000000
,
100000
000000
100000
000000
,
000001
000000
000001
000000
,
010000
000000
000010
000000
,
010010
000000
000000
000000
,
001000
000000
000001
000000
,
100000
000000
000001
000000
,
010000
000000
000010
000000
,
010000
000000
000010
000000
,
000100
000000
000000
000000
,
001000
000000
000000
000000
,
001100
000000
000000
000000
,
000100
000000
100000
000000
,
000001
000001
000000
000000
,
100000
000000
000100
000000
,
100000
000000
100000
000000
,
000001
000000
001000
000000
,
000001
000000
000001
000000
,
010000
000000
010000
000000
,
000010
000000
000010
000000
,
001000
000000
000100
000100
,
000100
000000
000000
000000
,
100001
000000
010000
000000
,
100000
000000
000010
000000
,
000001
000000
001000
000000
,
000100
000000
001000
000000
,
000010
000010
000010
000000
,
010000
010000
010000
000000
,
000001
000000
100000
000000
,
001000
000000
000000
000000
,
000000
000000
000000
000000
,
000100
000100
000100
000000
,
000010
000000
100000
000000
,
000010
000000
010000
000000
,
000001
000000
010000
000000
,
000100
000100
000100
000000
,
001000
000000
001000
000000
,
000100
000100
000100
000000
,
001000
000000
000100
000000
,
100001
000000
000000
000000
;
