#TITLE:long long long journey;
#SUBTITLE:(Funny Mix Chart);
#ARTIST:Bill Wurtz;
#TITLETRANSLIT:;
#SUBTITLETRANSLIT:;
#ARTISTTRANSLIT:;
#GENRE:;
#CREDIT:;
#MUSIC:long long long journey.ogg;
#BANNER:;
#BACKGROUND:;
#CDTITLE:;
#SAMPLESTART:77.56;
#SAMPLELENGTH:12;
#SELECTABLE:YES;
#OFFSET:-0.953;
#BPMS:0.000=130.000;
#STOPS:;
#BGCHANGES:0.000=long long long journey.avi=1.000=0=0=0=StretchNoLoop====,
99999.000=-nosongbg-=1.000=0=0=0=StretchNoLoop====
;
#FGCHANGES:;

//--------------- dance-single - ----------------
#NOTES:
     dance-single:
     :
     Beginner:
     2:
     0,0,0,0,0:
0000
0000
0000
0000
,
0000
0000
0000
0000
,
1001
0000
0001
0000
,
0001
0000
1000
0000
,
0001
0000
1000
0000
,
0000
0000
0100
0000
,
0000
0000
1000
0000
,
1000
0000
0001
0000
,
1000
0000
0001
0000
,
0000
0000
0010
0000
,
0000
0000
0001
0000
,
0001
0000
0100
0000
,
0001
0000
0010
0000
,
0000
0000
0100
0000
,
0000
0000
1000
0000
,
1000
0000
0100
0000
,
1000
0000
0010
0000
,
0000
0000
0100
0000
,
1001
0000
0001
0000
,
1000
1000
1000
0000
,
1001
0000
1000
0000
,
0001
0001
0001
0000
,
0010
0000
0010
0000
,
0100
0000
0100
0000
,
0010
0010
0010
0000
,
0100
0000
0000
0000
,
1001
0000
1000
0000
,
1000
0000
0001
0000
,
1000
0000
0001
0000
,
0000
0000
0100
0000
,
0000
0000
0001
0000
,
0001
0000
1000
0000
,
0010
0000
1000
0000
,
0100
0000
0010
0000
,
0001
0001
0001
0000
,
1000
0000
0100
0000
,
1000
0000
0001
0000
,
0000
0100
0100
0000
,
0010
0000
0001
0000
,
0001
0000
1000
0000
,
0100
0000
0010
0000
,
0010
0000
0100
0000
,
1001
0000
0001
0000
,
1000
1000
1000
0000
,
1001
0000
1000
0000
,
0001
0001
0001
0000
,
0010
0000
0010
0000
,
0100
0000
0100
0000
,
0010
0010
0010
0000
,
0100
0000
1001
0000
,
0001
0000
0001
0000
,
1000
0000
0001
0000
,
1000
0000
0100
0000
,
0100
0000
0001
0000
,
0010
0000
0010
0000
,
0100
0000
0100
0000
,
1000
0000
0001
0000
,
1000
0000
0001
0000
,
1001
0000
0000
0000
,
0001
0000
0000
0000
,
1000
0000
1000
0000
,
0001
0000
0001
0000
,
1000
0000
0000
0000
,
0010
0000
0110
0000
,
0100
0000
0000
0000
,
0000
1001
0000
0000
,
1001
0000
0001
0000
,
0001
0000
1000
0000
,
0001
0000
1000
0000
,
0010
0000
0100
0100
,
0100
0000
1000
0000
,
1000
0000
0001
0000
,
1000
0000
0001
0000
,
0010
0000
0100
0000
,
1001
0000
1000
0000
,
0010
0000
1000
1000
,
1000
0000
0100
0000
,
0001
0000
0100
0000
,
0010
0000
0001
0000
,
0010
0000
0001
0001
,
0001
0000
0100
0000
,
1001
0000
0110
0000
,
0000
0000
1000
0000
,
0010
0000
1000
0000
,
0000
0000
0001
0000
,
0100
0000
0001
0000
,
0100
0000
0000
0000
,
0010
0000
0000
0000
,
1000
0000
0001
0000
,
1001
1001
1001
0000
,
0001
0000
1000
1000
,
1000
0000
1001
0000
,
1000
0000
0001
0001
,
0001
0000
0010
0000
,
0010
0000
0100
0000
,
0100
0000
0001
0000
,
0000
0000
1000
0000
,
0000
0000
0010
0000
,
0010
0000
0100
0000
,
0100
0000
1001
0000
,
1001
0000
0000
0000
,
0000
0000
0000
0010
0000
0000
0000
0000
;

//--------------- dance-single - ----------------
#NOTES:
     dance-single:
     :
     Easy:
     4:
     0,0,0,0,0:
0000
0000
0000
0000
,
0000
0000
0000
0000
0000
0000
0000
2002
,
0000
3003
1000
0100
,
0010
0000
1000
0010
,
0001
0000
0100
0000
0010
1000
0010
0000
,
0001
0010
0001
1000
,
0200
0300
0100
1000
,
0001
0000
0010
0010
,
0020
0030
0001
0010
,
0001
1000
0100
0010
,
2000
3000
0010
0001
,
0100
1000
0110
0000
,
0001
0000
1000
0001
,
1000
0010
0010
0100
,
0020
0030
1000
0010
,
1000
0000
0100
0001
,
0020
0030
0001
1000
,
0001
1000
0001
0000
2002
0000
3003
0000
,
1000
1000
0200
0300
,
1000
0010
0002
0003
,
0001
0001
0200
0300
,
0001
0010
2000
3000
,
0100
1000
0020
0030
,
0100
0001
0020
0030
,
0002
0000
0000
0000
2003
0000
0000
3100
,
0000
0000
0000
0000
0200
0000
0000
0310
,
0000
0000
1000
0010
,
1000
0000
0001
0100
,
0002
0003
1000
0010
,
0001
0000
0010
0000
0100
0000
0000
0200
,
0000
0300
0000
0000
0001
0000
0010
0000
,
0001
1000
0100
0010
,
0200
0300
1000
0010
,
0010
0001
0100
0001
,
2000
3000
0100
1000
,
0010
0000
0100
0001
,
0020
0000
0230
0300
,
0010
0000
0010
0000
0110
0000
0000
0200
,
0000
0300
0000
0000
0001
0000
0010
0000
,
0001
0010
0100
1000
,
0002
0003
1000
0010
,
1000
1000
0002
0003
,
1000
1000
0200
0300
,
1000
0010
0002
0003
,
0001
0001
0200
0300
,
0001
0010
2000
3000
,
0100
1000
0020
0030
,
0100
0001
0020
0030
,
0002
0000
0000
0000
2003
0000
0000
3100
,
0000
0000
2002
3003
,
1000
1000
0001
0001
,
1000
0001
1000
0000
,
0001
0001
1000
1000
,
0001
1000
0001
0000
,
1000
0100
0010
0001
,
0100
0000
0000
0100
0000
0000
0001
0000
0000
0000
0000
0000
0000
0000
0000
0000
,
0010
0010
0100
0100
,
1000
0000
0000
0001
0000
0000
1000
0000
0001
0000
0100
0000
,
0020
0000
1030
0000
,
0010
0001
0010
0000
,
0010
0001
1000
0010
,
0100
0100
0101
0000
,
1100
0000
1000
0010
,
0010
0000
0001
0100
,
2000
0000
3010
1000
,
0000
0000
2002
0000
0000
3003
0000
1001
,
0000
0000
1000
1000
,
0100
0100
0010
0010
,
0001
0001
1000
0001
,
0100
0100
0010
0020
,
0030
0010
1000
0010
,
0001
0100
0001
1000
,
0200
0300
1000
0010
,
0001
0000
0010
0000
0002
0000
0000
1003
,
0000
1000
0100
0010
,
0100
1000
0100
1000
,
0010
0001
0100
0001
,
0001
1000
0001
0020
,
0030
0100
0100
1000
,
0100
0010
0001
0001
,
1000
0001
0200
0300
,
1010
0000
0011
0000
,
1000
1000
0100
0000
,
0002
0000
0013
0000
,
0001
0001
0010
0000
,
2000
0000
3001
0000
,
1000
0010
0001
0000
,
0001
0010
1000
0000
,
0100
0000
0000
0000
0100
0000
0000
1001
,
0000
0100
1000
1000
,
0200
0300
1000
0010
,
0002
0003
0001
0001
,
0200
0300
0001
0010
,
2000
3000
0100
1000
,
0020
0030
0100
0001
,
0020
0030
0002
0000
,
2003
0000
0000
3010
0000
0000
0000
0020
,
0000
0030
1000
0100
,
2000
3000
0001
0010
,
0002
0003
1000
0001
,
2002
0000
0000
0000
,
3003
0000
0000
0010
0000
0000
0000
0000
;

//--------------- dance-single - ----------------
#NOTES:
     dance-single:
     :
     Medium:
     6:
     0,0,0,0,0:
0000
0000
0000
0000
,
0000
0000
0000
0000
0000
0000
0000
2002
,
0000
3003
0001
0000
1000
0000
0100
0000
,
1000
0001
1000
0000
0001
0000
0010
0000
,
0001
0000
0000
0000
0100
0000
0000
0000
0010
0000
0000
1000
0000
0000
0010
0000
,
2000
0000
3001
0000
0100
0000
0010
0200
,
0000
0301
1000
0100
,
1000
0001
0010
0000
0001
0000
1000
0000
,
0200
1300
1001
0001
,
1000
0010
1000
0000
0001
0000
0010
0002
,
0000
0000
0103
0000
0001
1000
0100
0000
,
1000
0000
0010
0000
1000
0001
0010
0000
,
0001
0000
0000
0000
0100
0000
0000
0000
0010
0000
0000
1000
0000
0000
0010
0000
,
1000
0000
0100
0000
1000
0000
0001
2000
,
0000
0000
3100
0000
1000
0010
1000
0000
,
0001
0000
0100
0000
0001
0010
0100
0000
,
0020
0130
1000
0001
,
1000
0010
1000
0001
0202
0000
0003
0000
,
0301
0000
0000
0001
0000
0000
0010
0000
0001
0000
0000
0000
1000
0000
0000
0000
,
0100
1000
0001
0100
0000
0001
1000
0000
,
0010
0000
0000
1000
0000
0000
1000
0000
0100
0000
0000
0000
1000
0000
0000
0000
,
0001
0000
0100
0001
0000
1000
0100
0000
,
1000
0000
0000
0010
0000
0000
1000
0000
0000
0000
0001
0000
1000
0000
0000
0000
,
0001
0000
0000
0010
0000
0000
0001
0000
0000
0000
1000
0000
0001
0000
0000
0000
,
1000
0000
0000
0000
0100
0000
0000
0000
0010
0000
0000
0001
0000
0000
0200
0000
,
0000
0000
0300
0000
0001
1000
0001
1001
,
0000
0000
1000
0000
0001
0010
0001
0000
,
0100
0010
1000
0100
,
2000
0000
0000
0000
3001
0000
0000
0000
0010
0000
0000
0001
0000
0001
0000
0000
,
1000
0000
0001
0000
1000
0000
0001
0200
,
0000
0000
0310
0000
1000
0010
1000
0000
,
0001
0000
0010
0000
0001
0100
0001
0000
,
2000
0000
0000
0000
3100
0000
0000
0000
0001
0000
0000
0010
0000
0000
0001
0000
,
2000
3100
0200
0001
,
0310
0110
0001
0100
,
0001
1000
0001
0000
1000
0000
0100
0000
,
1000
0010
1000
0000
0020
0000
0100
0000
,
0130
0000
0001
0100
0001
0000
1000
0200
,
0000
1300
0010
1001
,
0100
0000
0001
0000
1000
0000
0001
1000
,
0002
0000
0000
0000
1003
0000
0000
0000
0100
0000
0000
1000
0000
0000
0001
0000
,
1000
0001
0100
0000
0220
0000
0300
0000
,
1030
0000
0000
0100
0000
0000
0100
0000
2000
0000
0000
0000
3010
0000
0000
0000
,
0100
0000
0001
0000
1000
0001
1000
0000
,
0001
0000
0000
0100
0000
0000
0100
0000
0002
0000
0000
0000
0013
0000
0000
0000
,
0100
0000
0000
1000
0000
0000
0001
0000
0000
0000
0000
0000
0100
0000
0000
0000
,
0001
0000
0010
0001
0000
1000
0001
0000
,
1000
0000
0010
1000
0000
0001
1000
0000
,
0002
0000
0000
0000
0103
0000
0000
0000
0001
0000
0000
1000
0000
0000
0200
0000
,
0000
0300
2002
3003
,
0001
1000
0001
0000
1001
0000
1100
0000
,
1000
0001
1000
0000
1001
0000
0101
0000
,
0021
0031
1002
1003
,
1020
1030
2001
3001
,
0100
0001
1000
0010
,
0100
0000
0000
0100
0000
0000
0002
0000
0010
0000
0000
0000
0013
0000
0000
0000
,
0100
0000
0100
1000
0000
0001
1000
0002
,
0000
0000
0000
0003
0000
0000
0100
0000
0001
0000
1000
0000
,
0200
0300
1001
1000
,
0001
0100
0001
0000
0010
0001
0010
0000
,
0002
0103
0002
0013
,
0001
1000
0200
0000
1300
0000
0010
0000
,
2020
0000
3030
0000
0100
0001
1000
0000
,
0100
1000
0001
0010
,
0022
0000
0033
0000
0001
0000
1000
0001
,
0000
0000
2200
0000
0000
3300
0000
0202
,
0000
0303
0001
0010
,
0001
1000
0001
0000
1000
0100
1000
0000
,
0010
1000
0010
0000
0100
0000
0001
0000
,
1010
0000
0000
0000
0011
0000
0000
0000
0200
0000
0000
0010
0000
0000
0020
0000
,
0000
0330
0100
0000
0001
0000
0010
0001
,
1000
0000
0100
1000
0001
0000
1010
0000
,
0011
0000
1001
0000
1000
0100
1000
0001
,
2000
0000
3002
0000
0023
0030
0000
1001
,
0000
0000
0100
0000
0001
0010
0001
0000
,
1000
0100
1000
0001
0100
0000
0001
0000
,
0010
0000
0000
0000
0001
0000
0000
0000
1000
0000
0000
1000
0000
0000
0001
0000
,
1000
0001
1000
0000
0100
0000
1000
0010
,
0000
0100
0001
0000
0011
0000
1000
0000
,
0001
1000
0010
0000
1010
0000
1001
0000
,
0220
0000
0000
0000
0330
0000
0000
0000
0100
0000
0000
0001
0000
0000
1000
0000
,
0010
0000
0010
0000
0010
0000
0220
0000
0000
0330
0000
0000
,
1000
0001
2000
3100
,
1000
0000
0000
0010
0000
0000
1000
0000
0000
0000
0001
0000
1000
0000
0000
0000
,
0001
1000
0002
0103
,
0001
0000
0000
0010
0000
0000
0001
0000
0000
0000
1000
0000
0001
0000
0000
0000
,
0100
0000
0000
0001
0000
0000
0010
0000
0001
0000
0000
0000
1000
0000
0000
0000
,
0100
0000
0000
1000
0000
0000
0010
0000
1000
0000
0000
0000
0001
0000
0000
0000
,
0200
0000
0000
0000
0302
0000
0000
0000
1003
0000
0000
0010
0000
0000
0010
0000
,
0000
0000
1000
0000
0001
0000
1000
0000
0001
0000
0000
0001
0000
0000
0010
0000
,
0001
0000
1000
0000
0100
1000
0001
0100
,
0000
0000
0001
0000
1000
0000
0000
0000
0010
0000
0000
1000
0000
0000
1000
0000
,
0100
0000
1000
0000
0001
0000
0100
0001
,
0000
0000
1000
0000
0100
0000
0000
0000
1000
0000
0000
0010
0000
0000
1000
0000
,
0000
0000
0001
0000
1000
0000
0000
0000
0001
0000
0000
0010
0000
0000
0001
0000
,
0000
1000
0001
0000
0101
0000
1000
0000
,
1100
0000
0000
0000
0010
0000
0200
0000
0010
0000
0000
0010
0000
0000
0320
0000
,
0000
0000
0030
0000
0001
0100
0001
0000
,
0200
0000
0310
0000
1000
0100
1000
0000
,
0200
0000
0000
0000
0310
0000
0000
0000
0001
0000
0000
1000
0000
0000
0100
0000
,
0010
0000
0000
2002
0000
0000
0000
0000
3003
0000
0000
0000
0001
0000
0000
0000
,
1000
0000
0000
0100
0000
0000
0010
0000
0000
0000
0000
0000
0000
0000
0000
0000
;

//--------------- dance-single - ----------------
#NOTES:
     dance-single:
     :
     Hard:
     8:
     0,0,0,0,0:
0000
0000
0000
0000
,
0000
0000
0000
0000
0000
0000
0000
2002
,
0000
0000
3003
0000
1000
0000
0001
0000
0100
0000
0000
0001
0000
0000
1000
0000
,
0100
0000
0000
0100
0000
0000
1000
0000
0001
0000
0100
0000
0001
0000
0010
0000
,
0001
0000
0000
1000
0000
0000
0001
0000
0100
0000
0000
0001
0000
0000
0001
0000
,
1000
0000
0100
0000
1000
0000
0000
0000
0001
1000
0000
0001
1000
0000
0200
0000
,
0000
0000
1300
0000
0010
0000
1000
0000
0100
0000
0000
1000
0000
0000
0010
0000
,
1000
0000
0001
0000
1000
0000
0001
0000
0100
0000
0000
0001
0000
0000
0010
0000
,
0200
0000
0000
0000
0310
0000
0000
0000
1000
0000
0000
0001
0000
0000
0010
0000
,
0001
0000
1000
0000
0100
0000
0000
0000
1000
0010
0000
1000
0001
0000
0020
0000
,
0000
0000
0000
0000
0130
0000
0000
0000
1000
0000
0000
0010
0000
0000
1000
0000
,
0001
0000
0000
0100
0000
0000
0001
0000
0010
0000
0100
0000
1000
0000
0000
0000
,
0001
0000
0000
1000
0000
0000
0001
0000
1000
0000
0000
0001
0000
0000
1000
0000
,
0100
1000
0010
0000
0100
0001
0010
0200
,
0000
0000
0300
0000
0010
0000
0000
0000
0001
0000
0000
0100
0000
0000
0001
0000
,
1000
0000
0000
0010
0000
0000
1000
0000
0100
0000
0000
1000
0000
0000
0001
0000
,
0200
0000
0310
0000
0100
0001
1000
0000
,
0001
1000
0001
0000
1000
0001
1000
0000
0200
0000
0000
0000
0310
0000
0000
0000
,
0100
0000
0000
1000
0000
0000
0001
0000
1000
0000
0000
0000
1001
0000
0000
0000
,
0010
0000
0000
1000
0000
0000
2010
0000
0000
0000
0000
0000
3001
0000
0000
0000
,
0100
0000
0000
0001
0000
0000
1000
0000
0001
0000
0000
0000
1001
0000
0000
0000
,
0010
0000
0000
0001
0000
0000
0012
0000
0000
0000
0000
0000
1003
0000
0000
0000
,
0100
0000
0000
1000
0000
0000
1001
0000
0000
0000
0010
0000
0001
0000
0000
0000
,
0100
0000
0000
0001
0000
0000
1001
0000
0000
0000
1000
0000
0001
0000
1000
0000
,
0010
0000
0000
1000
0000
0000
0001
0000
0010
0000
0000
0010
0000
0000
0210
0000
,
0000
0000
0300
0000
0100
0000
0000
0000
1000
0001
0000
0001
1000
0000
2002
0000
,
0000
0000
3003
0000
1000
0000
0001
0000
0100
0000
0000
0001
0000
0000
1000
0000
,
0100
0000
0000
1000
0000
0000
0010
0000
0100
0000
0000
0010
0000
0000
1000
0000
,
0001
0000
0000
0010
0000
0000
0001
0000
1000
0000
0001
0000
1000
0000
0001
0000
,
0010
0000
1001
0000
0100
0001
1000
0200
,
0000
0000
1300
0000
0001
0000
0000
0000
0100
0000
0000
0001
0000
0000
0010
0000
,
0001
0000
0000
1000
0000
0000
0010
0000
1000
0000
0100
0000
1000
0000
0001
0000
,
0200
0000
0000
0310
0000
0000
1000
0000
0001
0000
0010
0000
,
0100
0000
0000
0000
1001
0000
0000
0000
0000
0000
0000
0000
1000
0000
0000
0001
0000
0000
0010
0000
0000
0100
0000
0000
,
0010
0000
0000
0000
1010
0000
0000
0000
0011
0000
0000
0001
0000
0000
1000
0000
,
0100
0000
0000
1000
0000
0000
0001
0000
0100
0000
0000
0010
0000
0000
1000
0000
,
0010
1000
0001
0000
0200
0000
0301
0000
,
1000
0000
0000
0000
0000
0000
0010
0000
0100
0000
0010
0000
0100
0000
0000
0000
0000
0000
0002
0000
0000
0200
0000
0000
,
0000
0000
0303
0000
1001
0000
0000
0000
1000
0000
0000
0010
0000
0000
0010
0000
,
1000
0000
0000
0001
0000
0000
0100
0000
0001
0000
0000
0010
0000
0000
0010
0000
,
0001
0000
0000
1000
0000
0000
0010
0000
1000
0000
0001
0100
0000
0001
0000
1000
,
0000
0100
0010
0000
0100
0000
0000
0000
2002
0000
0000
0000
3003
0000
0000
0000
,
0100
0000
0000
1000
0000
0000
0001
0000
1000
0000
0000
0000
1001
0000
0000
0000
,
0010
0000
0000
1000
0000
0000
2010
0000
0000
0000
0000
0000
3001
0000
0000
0000
,
0100
0000
0000
0001
0000
0000
1000
0000
0001
0000
0000
0000
1001
0000
0000
0000
,
0010
0000
0000
0001
0000
0000
0012
0000
0000
0000
0000
0000
1003
0000
0000
0000
,
0100
0000
0000
1000
0000
0000
1001
0000
0000
0000
0010
0000
0001
0000
0000
0000
,
0100
0000
0000
0001
0000
0000
1001
0000
0000
0000
1000
0000
0001
0000
1000
0000
,
0010
0000
0000
1000
0000
0000
0001
0000
0010
0000
0000
0010
0000
0000
0210
0000
,
0000
0300
2002
3003
,
1000
0100
1000
0001
0100
0001
0011
0000
,
1010
0000
0000
1000
0000
0000
0001
0000
0000
0000
0100
0000
0101
0000
0000
0000
,
0001
0100
0001
1000
0100
1000
1010
0000
,
0011
0000
0000
0001
0000
0000
1000
0000
0000
0000
0100
0000
1100
0000
0000
0000
,
1000
0000
0000
0010
0000
0000
1000
0000
0001
0000
0000
0010
0000
0000
0001
0000
,
0100
0000
0000
0100
0000
0000
0001
0000
0000
0000
1000
0001
1000
0000
0001
0000
,
0010
0010
0100
0100
1000
0001
1000
0001
,
0000
0000
0000
0000
0000
0000
1000
0000
0100
0000
0010
0000
,
0001
0000
1001
0000
1000
0010
1000
0000
,
0001
0000
0000
0100
0000
0000
0100
0000
0001
0000
0010
0000
0001
0000
0000
0000
,
1000
0000
0000
0100
0000
0000
0001
0000
0000
0000
0100
0000
0010
0000
0100
0000
,
0010
0000
0001
0000
1000
0000
0000
0000
0010
0000
0000
1000
0000
0000
0001
0000
,
0200
0310
1010
0011
,
1000
0001
0000
0000
1000
0000
0100
0000
1000
0000
0000
0001
0000
0000
0100
0000
,
0002
0000
0000
0000
0013
0000
0001
0000
1000
0000
0100
1000
0000
0000
0010
0000
,
0000
0000
2000
0000
0000
0000
3000
0102
,
0000
0013
1001
1100
,
1001
1000
0001
0000
1001
0000
0101
0000
,
1001
0001
1000
0000
0110
0000
1001
0000
,
1000
0000
0000
0000
0100
0000
0000
0000
0010
0000
0000
0000
0001
0000
0000
0000
0010
0000
0000
0000
0100
0000
0000
0000
1000
0000
0000
0000
0000
0000
0001
0000
0000
1000
0000
0000
0000
0000
0000
0001
0000
0000
1000
0000
0000
0000
0000
0000
,
0000
0000
0001
0000
0010
0001
0011
0000
,
0100
0000
0101
0000
0010
1000
1010
0000
,
0100
0000
0000
1100
0000
0000
1000
0010
1000
0000
0001
0100
,
0001
0000
1001
0000
1000
0001
0020
0200
,
0000
0000
0030
0000
0310
0000
0000
0000
0001
0000
0000
0100
0001
0000
1000
0000
,
0100
0000
0000
1000
0000
0000
0010
0000
1000
0000
0000
0001
0000
0000
0100
0000
,
0001
0000
0000
1000
0000
0000
1000
0000
0010
0000
0000
1000
0010
0000
1000
0000
,
0001
0000
0100
0000
0001
0000
0010
0000
0001
1000
0000
0001
1000
0000
0200
0000
,
0000
0000
0300
0000
1001
0000
0000
0000
1000
0000
0010
1000
0000
0000
0001
0000
,
1000
0000
0001
0000
0100
0000
0000
0000
0001
0000
0000
0010
0000
0000
0001
0000
,
1000
0000
0000
0010
0000
0000
1000
0000
0100
0000
0000
0010
0000
0000
0100
0000
,
1001
0000
0000
0000
0001
0000
0000
0000
1000
0000
0000
0000
0100
0000
0000
0010
0000
0000
0100
0000
0000
0010
0000
0000
,
0002
0013
0011
1001
,
1000
0000
0000
0100
0000
0000
1100
0000
0000
0000
0000
0000
0110
0000
0000
0000
,
2000
3010
1010
1001
,
0001
0000
0000
0100
0000
0000
0101
0000
0000
0000
0000
0000
0110
0000
0000
0000
,
0001
0000
0000
0100
0000
0000
0001
0000
1000
0000
0000
0100
0000
0000
1000
0000
,
0010
0000
0000
0010
0000
0000
0200
0000
0000
0000
0301
0000
1000
0000
0001
0000
,
1000
0000
0000
0000
1100
0000
0000
0000
0101
0000
0000
0100
0000
0000
0200
0000
,
0000
0000
0310
0000
2000
0000
0000
0000
3100
0000
0000
1000
0000
0000
0001
0000
,
1000
0000
0000
0000
1001
0000
0000
0000
0010
0000
0000
1000
0000
0000
2010
0000
,
0000
0000
0000
0000
3001
0000
0000
0000
0100
0000
0000
0001
0000
0000
1000
0000
,
0001
0000
0000
0000
1001
0000
0000
0000
0010
0000
0000
0001
0000
0000
0012
0000
,
0000
0000
0000
0000
1003
0000
0000
0000
0100
0000
0000
1000
0000
0000
1001
0000
,
0000
0000
0010
0000
0001
0000
0000
0000
0100
0000
0000
0001
0000
0000
1001
0000
,
0000
0000
0100
0000
0001
1000
0100
1000
,
0001
0000
0010
0000
0000
0000
1001
0000
0001
0000
0000
1000
0000
0000
0200
0000
,
0000
0000
0000
0000
0310
0000
0000
0000
0001
0000
0000
0100
0000
0000
0001
0000
,
1000
0000
0000
0100
0000
0000
0010
0000
0100
0000
0000
0100
0000
0000
1002
0000
,
0000
0000
0203
0000
0000
0000
0310
0000
1000
0000
0000
1100
0000
0000
0001
0000
,
0101
0000
0000
2002
0000
0000
3003
0000
0100
0000
0001
1000
0000
0000
0100
0000
,
1000
0000
0000
0001
0000
0000
0010
0000
0000
0000
0000
0000
0000
0000
0000
0000
;

//--------------- dance-single - ----------------
#NOTES:
     dance-single:
     :
     Challenge:
     9:
     0,0,0,0,0:
0000
0000
0000
0000
,
0000
0000
0000
0000
,
0000
0000
0000
0000
1100
0000
0000
0000
0001
0000
0000
1000
0000
0000
1000
0000
,
0010
0000
0000
0100
0000
0000
0001
0000
1000
0000
0000
0010
0000
0000
0010
0000
,
0001
0000
0000
0100
0000
0000
0100
0000
0020
0000
0000
2030
0000
0000
3001
0000
,
0100
0000
1001
0000
0100
0010
1000
1010
,
0000
0000
1000
0001
1000
0000
0001
0000
0010
0000
0000
0001
0000
0000
0010
0000
,
0100
0000
0000
1000
0000
0000
0001
0000
1000
0000
0000
0001
0000
0000
0100
0000
,
0002
0000
1000
0000
1003
0000
0010
0000
1000
0100
1000
0000
0100
0000
0010
0000
,
0001
0010
0001
0000
0010
0000
0001
0000
0100
0000
0000
0001
0000
0000
0011
0000
,
0000
0000
0010
0000
0120
0000
0000
0000
0031
0000
0000
0010
0000
0000
0001
0000
,
0100
0000
0000
0010
0000
0000
1000
0000
0100
0000
0000
1000
0000
0000
0010
0000
,
0100
0000
0001
0000
0010
0000
0001
0000
0100
0000
0100
0001
0000
0010
0001
0000
,
1000
0010
1000
0000
0010
0000
1000
0000
0100
0000
1000
0000
0001
0000
0101
0000
,
0000
0000
0010
0001
0010
0000
0100
0000
1000
0000
0000
0010
0000
0000
1000
0000
,
0100
0000
0000
0010
0000
0000
0001
0000
0010
0000
0000
0001
0000
0000
0100
0000
,
0010
1000
0010
0000
1000
0000
0100
0000
1000
0001
1000
0000
0010
0000
0100
0000
,
0001
0010
0001
0010
0100
0010
0100
0010
0100
1000
0100
1000
0010
0000
0100
0000
,
0110
0000
0000
0001
0100
0000
0001
0000
0010
0001
1000
0000
0001
0000
1000
0000
,
1100
0000
0000
0110
0000
0000
0011
0000
0010
0000
0001
1000
0001
0000
0100
0000
,
1010
0000
0000
0100
0001
0000
0010
0000
0001
1000
0001
0000
1000
0001
0100
0000
,
0101
0000
0000
0110
0000
0000
1010
0000
1000
0000
0100
1000
0010
0000
0100
0000
,
0101
0000
0000
0011
0000
0000
1010
0000
1000
0000
0001
0100
0000
0001
1000
0000
,
1010
0000
0000
1100
0000
0000
0101
0000
0010
0000
0001
0100
0001
0000
0010
0000
,
0001
1000
0000
2100
0000
0000
3010
0000
1000
0001
0000
0101
0000
0000
2002
0000
,
0000
0000
3003
0000
0100
0000
0000
0000
0001
0010
0001
1000
0010
0000
0202
0000
,
0000
0000
0303
0000
0010
0000
0001
0000
1000
0100
0000
1000
0000
0000
0001
0000
,
1000
0000
0000
0010
0000
0000
0100
0000
0001
0010
0000
0010
0000
0000
0100
0000
,
1000
0000
0000
0001
0000
0000
0010
0000
0001
0100
0001
0100
0000
1000
0000
0000
,
0100
0001
0000
0000
0011
0000
0000
0000
0010
0001
1000
0100
1000
0000
0022
0000
,
0033
0000
0010
0000
0001
0000
0100
0000
1000
0100
0000
0001
0000
0000
0100
0000
,
1000
0000
0000
0100
0000
0000
0010
0000
0001
0000
0000
0001
0100
0000
0010
0000
,
1000
0000
0000
0000
0000
0000
0000
0000
0000
0010
0000
0000
0000
0000
0000
0000
0000
0000
0100
0000
0000
0000
0000
0000
0001
0000
0010
0000
0000
0000
0000
0000
0001
0000
0010
0000
0000
0000
0000
0000
0110
0000
0000
0000
0000
0000
0000
0000
,
0100
0000
2000
0000
0000
0000
0000
0000
0002
0000
0000
0000
0000
0000
0000
0000
0000
0000
3003
0000
0000
0000
0000
0000
0001
0000
0000
0010
0000
0000
0001
0000
0000
1000
0000
0000
0100
0000
0000
1000
0000
0000
0020
0000
0000
0000
0000
0000
,
0200
0000
0330
0000
0202
0000
0303
0000
1010
0000
0000
0100
0000
0000
0010
0000
,
0001
1000
0000
0100
0000
0000
1000
0000
0010
0000
0000
0100
0001
0000
0010
0000
,
0001
1000
0000
0100
0000
0000
1000
0000
0010
1000
0001
0000
0100
0000
0001
0000
,
0010
0000
0000
0100
0000
0000
1000
0000
0001
0000
1000
0000
0010
0000
0000
0100
0000
0000
0001
0000
0000
0102
0000
0000
,
0000
0003
0000
1000
0100
0000
1000
0000
0010
1000
0000
0001
0000
0000
0010
0000
,
0001
0000
0000
0100
0000
0000
0010
0000
1000
0100
0000
1000
0001
0000
0010
0000
,
0011
0000
0000
0001
0010
0000
0001
0000
1000
0100
0010
0100
0000
0010
0000
0001
,
0000
1000
0100
0000
0010
0001
0010
0000
1001
0000
1000
0001
0000
0100
0001
0000
,
0110
0000
0000
0001
0100
0000
0001
0000
0010
0001
1000
0000
0001
0000
1000
0000
,
1100
0000
0000
0110
0000
0000
0011
0000
0010
0000
0001
1000
0001
0000
0100
0000
,
1010
0000
0000
0100
0001
0000
0010
0000
0001
1000
0001
0000
1000
0001
0100
0000
,
0101
0000
0000
0110
0000
0000
1010
0000
1000
0000
0100
1000
0010
0000
0100
0000
,
0101
0000
0000
0011
0000
0000
1010
0000
1000
0000
0001
0100
0000
0001
1000
0000
,
1010
0000
0000
1100
0000
0000
0101
0000
0010
0000
0001
0100
0001
0000
0010
0000
,
0001
1000
0000
2100
0000
0000
3010
0000
1000
0001
0000
0101
0000
0000
2002
0000
,
0000
0000
3003
0000
0100
0000
0000
0000
0110
0000
0000
0100
0000
0000
0001
0000
,
1000
0100
0000
0000
1000
0001
0000
0000
0100
0010
0000
0000
0001
0010
0000
0000
,
0001
1000
0000
0000
0010
0100
0000
0000
1000
0100
0000
0000
0001
0010
0000
0000
,
0001
1000
0000
0000
0100
1000
0000
0000
0001
1000
0000
0000
0100
0010
0000
0000
,
1000
0010
0000
0000
0001
0010
0000
0000
0100
1000
0000
0000
0001
0100
0000
0000
,
0010
1000
0000
0001
0010
0000
0001
1000
0100
0000
1000
0001
0100
0001
0010
0000
,
0100
0000
0000
0100
0000
0000
0002
0000
0000
0000
1003
0001
1000
0000
0100
0000
,
0010
0000
0000
0010
0100
0000
0100
0000
1000
0000
0001
0000
1000
0000
0001
0000
,
0000
0000
0000
0000
0010
0100
1000
0000
0001
0000
0100
0000
,
0110
0000
0000
1000
0010
0000
0000
0010
0100
0000
0000
0001
1000
0000
0000
0001
,
0010
0000
0000
0100
0010
0000
0000
0001
1000
0000
0000
0100
1000
0010
1000
0000
,
0001
0000
0000
0101
0000
0000
1100
0000
1000
0000
0010
0000
1000
0100
1000
0000
,
1001
0000
0100
0001
0000
0010
0001
0000
0101
0000
0000
0010
0000
0000
1000
0000
,
1100
0000
0000
1000
0001
0000
0000
0010
0001
0000
0000
0100
0010
0000
0000
1000
,
0100
0000
0010
0001
0010
0000
0001
1000
0001
0000
0000
1100
0000
0000
0010
0000
,
0001
1000
0000
0000
1000
0100
0000
0000
1000
0001
0000
1000
0010
0000
0200
0000
,
0301
0000
0012
0000
0000
0000
0003
2100
,
0000
0000
0000
0000
3001
0100
0000
0000
0101
0000
0000
1000
0100
0000
0000
0000
,
1100
0000
0000
0001
0100
0000
0000
0000
0011
0000
0000
0001
1000
0000
0000
0000
,
1010
0000
0000
1000
0001
0000
0000
0000
1001
0000
0000
0000
0110
0000
0000
0000
,
0100
0000
0000
0000
0001
0000
0000
0000
0010
0000
0000
0000
0100
0000
0000
0000
1000
0000
0000
0000
0001
0000
0000
0000
0100
0000
0000
0000
0000
0000
0001
0000
0000
1000
0000
0000
0000
0000
0000
1000
0000
0000
0010
0000
0000
0000
0000
0000
,
0000
0000
1000
0000
1001
0000
0000
0000
1000
0010
0000
0000
1100
0000
0000
0000
,
0001
0010
0000
0000
0101
0000
0000
0000
1001
0000
0000
1010
0000
0000
0001
0000
,
0011
0000
0000
0000
0000
0000
0000
0000
0000
1000
0000
0000
0001
0000
0000
0000
0000
0000
0000
0000
0000
0000
0000
0000
1000
0000
0000
0000
0010
0000
0000
0000
1000
0000
0000
0000
0000
0000
0000
0000
0001
0000
0000
0000
0010
0000
0000
0000
,
0011
0000
0000
0000
1100
0000
0000
0000
0010
1000
0000
0001
0100
0000
0220
0000
,
0000
0000
0330
0000
1000
0000
0010
0000
1000
0100
0000
1000
0001
0000
0010
0000
,
0001
0000
0000
0100
0000
0000
0001
0000
1000
0010
0000
1000
0100
0000
1000
0000
,
0001
0000
0000
0100
0000
0000
0010
0000
0110
0000
0000
0100
0000
0000
0001
0000
,
0010
0001
0000
0000
1000
0100
0000
0000
1000
0010
0000
0100
0000
0001
1000
0000
,
0000
0000
0100
0000
1100
0000
1000
0000
1001
0000
0010
0001
0000
0000
0100
0000
,
0001
1000
0000
0100
0000
0000
1000
0000
1010
0000
0000
1000
0000
0000
0001
0000
,
0011
0000
0000
1000
0000
0000
0010
0000
1010
0000
0000
0001
0000
0000
0010
0000
,
1001
0000
0000
0100
0000
0000
0100
0000
0001
1000
0000
0001
1000
0000
0100
0000
,
0001
0010
0000
0001
1000
0000
0100
0000
2100
0000
0000
0000
3001
0000
0000
0000
,
1010
0000
0000
1001
0000
0000
0202
0000
0000
0000
0303
0000
0101
0000
0000
0000
,
1000
0010
0000
1000
0001
0000
0100
0000
0102
0000
0000
0000
1003
0000
0000
0000
,
0011
0000
0000
1001
0000
0000
2200
0000
0000
0000
3300
0000
1100
0000
0000
0000
,
1000
0001
0000
0100
0001
0000
0100
0000
0001
0010
0001
0000
1000
0000
0100
0000
,
1000
0000
0000
0000
0000
0000
0000
0000
0000
0010
0000
0000
1000
0000
0000
0000
0000
0000
0100
0000
0000
0000
0000
0000
0000
0000
0000
0000
1000
0000
0000
0000
0001
0000
0000
0000
0100
0000
0000
0000
0001
0000
0000
0000
0000
0000
0000
0000
,
0110
0000
0000
0000
0011
0000
0000
0000
1000
0000
0000
0001
0000
0000
1001
0000
,
0000
1000
0010
0000
1000
0001
1000
0000
0110
0000
0000
0011
0000
0000
1000
0000
,
0100
1000
0000
0000
0001
0010
0000
0000
0001
0000
0000
0011
0000
0000
0110
0000
,
0000
0000
1000
0010
1000
0000
0001
0000
1100
0000
0000
0110
0000
0000
0001
0000
,
0100
0010
0000
0000
1000
0001
0010
0000
0100
0000
0000
1010
0000
0000
0101
0000
,
0000
0000
1000
0001
0100
0000
0100
0000
0011
0000
0000
1001
0000
0000
1100
0000
,
0000
0000
1000
0010
0000
0100
0001
0000
1010
0000
0000
1001
0000
0000
0101
0000
,
0000
0000
0001
0000
1000
0001
1000
0000
0100
1000
0000
0010
1000
0000
0001
0000
,
0010
0001
0000
0100
0001
0000
1001
0000
0000
0000
1000
0010
1000
0000
2100
0000
,
0000
0000
0000
0000
3010
0000
1000
0000
0001
0000
0000
1010
0000
0000
1000
0000
,
0001
1000
0000
0100
1000
0000
0010
0000
1000
0000
0000
0011
0000
0000
1001
0000
,
0000
0000
1100
0000
0000
1000
0100
0000
1000
0010
0000
0100
0001
0000
1000
0000
,
0010
0000
0000
1000
0000
0000
0000
0000
0000
1001
0000
0000
0000
0000
0000
0000
0000
0000
1000
0000
0000
0000
0000
0000
0010
0000
0000
1000
0000
0000
0001
0000
0000
1000
0000
0000
0000
0000
0000
0000
0001
0000
0000
0000
0100
0000
0000
0000
,
0010
1000
0001
0200
0000
0000
0310
0000
0000
0000
0000
0000
0000
0000
0000
0000
;

//--------------- dance-solo - ----------------
#NOTES:
     dance-solo:
     :
     Easy:
     3:
     0,0,0,0,0:
000000
000000
000000
000000
,
000000
000000
000000
000000
000000
000000
000000
010010
,
000000
000000
000001
100000
,
000010
000000
100000
000001
,
100000
000000
001000
001000
,
100000
100000
000100
010000
,
000100
000000
010000
000000
,
000010
000000
010000
000000
,
000001
000000
100000
000001
,
100000
000001
001000
001000
,
001000
000000
000010
000000
,
000010
000000
010000
000000
,
010000
000000
000100
100000
,
000001
000000
001000
001000
,
001000
000000
000001
000000
,
010000
000000
000010
000000
,
100000
000000
001000
100000
,
000001
000100
100001
010010
,
001000
000000
001000
000000
,
000010
000100
000010
000000
,
001000
000000
001000
000000
,
010000
000100
010000
000000
,
100000
001000
100000
000000
,
000001
001000
000001
000000
,
010000
000010
000100
001000
,
010010
000000
000000
000000
000000
000000
000000
001100
,
000000
000000
100000
000000
,
000001
000000
000100
000010
,
010000
000000
001000
001000
,
100000
000001
001000
001000
,
001000
000000
000100
000000
,
010000
000000
000010
000100
,
001000
000000
100000
100000
,
000100
000100
000001
000001
,
001000
100001
100000
000000
,
000100
000000
100000
000001
,
000100
000000
000010
010000
,
001000
001000
001000
000100
,
001000
000000
100000
000100
,
100000
000000
000001
010000
,
000001
000000
010000
000010
,
100000
000100
100001
010010
,
001000
000000
001000
000000
,
000010
000100
000010
000000
,
001000
000000
001000
000000
,
010000
000100
010000
000000
,
100000
001000
100000
000000
,
000001
001000
000001
000000
,
010000
000010
000100
001000
,
010010
000000
001000
000000
,
000001
000100
000001
000100
,
000010
010000
000010
000000
,
100000
000100
100000
000100
,
010000
000010
010000
000000
,
000100
000000
000100
000000
,
001000
000000
000000
001000
000000
000000
000001
000000
000000
000000
000000
000000
000000
000000
000000
000000
,
000100
000100
001000
001000
,
100000
000001
100000
000001
,
100001
000000
100000
000000
,
000010
000000
010000
000000
,
000001
000000
001000
000000
,
000100
000000
001000
001000
,
001000
000000
000000
000000
,
000001
100000
001000
001000
,
001000
000000
000100
001000
,
000000
000000
010010
000000
000000
000000
000000
001100
,
000000
000000
000001
001000
,
000001
000000
100000
001000
,
100000
000000
000100
000000
,
010000
000010
010000
000010
,
000000
000000
100000
000100
,
100000
000000
000001
000100
,
000001
000000
001000
000000
,
000010
010000
000010
010000
,
010010
000000
100000
000000
,
000100
000000
100000
000001
,
100000
000000
000001
000000
,
000100
000000
000001
100000
,
000001
000000
001000
000010
,
010000
000000
001000
010000
,
000010
000000
000100
000000
,
100010
000000
010001
000000
,
001000
000000
000001
000000
,
010000
000001
010000
000000
,
001000
000000
100000
000000
,
000010
100000
000010
000000
,
100100
000000
100000
000000
,
000101
000000
000001
000000
,
001000
000000
000100
001000
,
000100
000000
001000
000000
,
001000
000000
000010
000100
,
000010
000000
001000
000000
,
001000
000000
010000
000100
,
010000
000000
100000
001000
,
100000
000000
000001
001000
,
000001
000000
100000
000000
,
000100
000000
000001
000000
,
001000
000000
000001
100000
,
000010
000000
100000
000001
,
010000
000000
000001
100000
,
010010
000000
000000
000000
,
000000
000000
000000
000100
000000
000000
000000
000000
;
