#TITLE:lasting;
#SUBTITLE:;
#ARTIST:Shaker Boo;
#TITLETRANSLIT:;
#SUBTITLETRANSLIT:;
#ARTISTTRANSLIT:;
#GENRE:Spiritual;
#CREDIT:8Chasey 2026;
#MUSIC:lasting.ogg;
#BANNER:lasting-bn.png;
#BACKGROUND:;
#CDTITLE:;
#SAMPLESTART:51.700;
#SAMPLELENGTH:15.000;
#SELECTABLE:YES;
#OFFSET:-1.231;
#BPMS:0.000=85.000;
#STOPS:;
#BGCHANGES:;
#FGCHANGES:;

//--------------- dance-single - 8Chasey ----------------
#NOTES:
     dance-single:
     8Chasey:
     Beginner:
     1:
     0,0,0,0,0:
0000
0000
0000
0000
,
0000
0000
0000
0000
,
0001
0000
0000
0000
,
1000
0000
0000
0000
,
0001
0000
1000
0000
,
0001
0000
0000
0000
,
0100
0000
0000
0000
,
0010
0000
0000
0000
,
0100
0000
0000
0000
,
0010
0000
0010
0000
,
1000
0000
0000
0000
,
0001
0000
0000
0000
,
1000
0000
0001
0000
,
1000
0000
0000
0000
,
0010
0000
0000
0000
,
0100
0000
0000
0000
,
0010
0000
0000
0000
,
0100
0000
0100
0000
,
0001
0000
0001
0000
,
1000
0000
1000
0000
,
0001
0000
1000
0000
,
0001
0000
0000
0000
,
1000
0000
1000
0000
,
0001
0000
0001
0000
,
1000
0000
0001
0000
,
1000
0000
0000
0000
,
0010
0000
0000
0000
,
0100
0000
0000
0000
,
0001
0000
1000
0000
,
0001
0000
0000
0000
,
0010
0000
0010
0000
,
0100
0000
0100
0000
,
1000
0000
0001
0000
,
1000
0000
0000
0000
,
0001
0000
0000
0000
,
1000
0000
0001
0000
,
1000
0000
0000
0000
;

//--------------- dance-single - 8Chasey ----------------
#NOTES:
     dance-single:
     8Chasey:
     Easy:
     2:
     0,0,0,0,0:
0000
0000
0000
0000
,
0000
0000
0000
0000
,
0001
1000
0001
0000
,
1000
1000
0100
0000
,
1000
0000
0001
0000
,
0100
0000
0010
0000
,
1000
0100
1000
0000
,
0001
0010
0001
0000
,
0100
0000
0010
0000
,
1000
0000
0001
0000
,
1000
0001
1000
0000
,
0001
0001
0100
0000
,
0001
0000
1000
0000
,
0100
0000
0010
0000
,
0001
0100
0001
0000
,
1000
0010
1000
0000
,
0100
0000
0010
0000
,
0001
0000
1000
0000
,
0001
0001
1000
0000
,
0001
0010
0001
0000
,
1000
0100
1000
0100
,
1000
0000
0001
0000
,
1000
1000
0001
0000
,
1000
0010
1000
0000
,
0001
0001
1000
1000
,
0001
0000
1000
0000
0001
0000
0000
0100
,
0100
0000
0010
0000
,
0010
0010
0000
0000
0100
0000
0000
0000
,
0001
0100
0001
0100
,
0001
0000
1000
0000
,
0100
1000
0100
0000
,
0010
0010
0100
0000
,
1000
1000
0001
0001
,
1000
0001
1000
0000
,
0010
0000
0000
0000
,
0100
0000
0010
0100
,
0010
0000
0000
0000
;

//--------------- dance-single - 8Chasey ----------------
#NOTES:
     dance-single:
     8Chasey:
     Medium:
     5:
     0,0,0,0,0:
0000
0000
0000
0000
,
0000
0000
0000
0000
,
0001
0000
0100
0001
0100
0000
0010
0000
,
1000
0100
1000
0000
0010
0000
0100
0000
,
0001
0001
0100
0000
0010
0010
1000
0000
,
0100
0000
1000
0000
0001
1000
0001
0000
,
0010
0000
0001
0100
0001
0000
0100
0000
,
0010
0000
1000
0100
1000
0000
0100
0000
,
1000
0000
0010
0100
0000
0010
0100
0000
,
0001
0000
1000
0000
0100
0010
0100
0000
,
1000
0000
0100
1000
0100
0000
0010
0000
,
0001
0100
0001
0000
0010
0000
0100
0000
,
1000
1000
0100
0000
0010
0010
0001
0000
,
0100
0000
0010
0100
0000
0010
0100
0000
,
0001
0000
0010
0001
0010
0000
0100
0000
,
1000
0000
0010
1000
0010
0000
0100
0000
,
0001
0000
0100
0010
0000
0100
0010
0000
,
1000
0000
0001
0000
1000
0001
1000
0001
,
0100
0000
0000
0000
0001
0000
0000
1000
0000
0000
1000
0000
0001
0000
0100
0000
,
0010
0000
0000
0000
1000
0000
0000
0001
0000
0000
0001
0000
1000
0000
0010
0000
,
0100
0000
0000
0000
0001
0000
0000
0001
0000
0000
1000
0000
0000
1000
0000
0000
,
0001
0010
0100
1000
,
0100
0000
0000
0000
1000
0000
0000
0010
0000
0000
0010
0000
1000
0000
0100
0000
,
0010
0000
0000
0000
0001
0000
0000
0100
0000
0000
0100
0000
0001
0000
0000
0000
,
1000
0000
0000
0000
0100
0000
0000
0010
0000
0000
0100
0000
0000
0010
0000
0000
,
0100
0000
1000
0000
0001
1000
0001
0000
,
1000
0001
0000
0000
0000
0000
0000
0100
0000
0100
0000
0000
0100
0000
0000
0000
,
0000
0001
1000
0000
0000
0000
0000
0000
0001
0000
0001
0000
1000
0000
1000
0000
,
0001
0000
0000
0000
0100
0000
0000
0010
0000
0000
0100
0000
0000
0010
0000
0000
,
0100
0000
1000
0100
0001
0000
1000
0000
,
0100
0000
0000
0000
1000
0000
0000
0010
0000
0000
1000
0000
0001
0000
0000
0000
,
0100
0000
0000
0000
0001
0000
0000
0010
0000
0000
0001
0000
1000
0000
0000
0000
,
0100
0000
0000
0000
0010
0000
0000
0010
0000
0000
0100
0000
0000
0100
0000
0000
,
0010
0000
0001
0010
0001
1000
0100
0000
,
2000
3000
0002
0003
,
0100
0000
0010
0000
0100
0010
0100
0000
,
0020
0000
0030
0000
;

//--------------- dance-single - 8Chasey ----------------
#NOTES:
     dance-single:
     8Chasey:
     Hard:
     7:
     0,0,0,0,0:
0000
0000
0000
0000
,
0000
0000
0000
0000
,
0011
0000
0000
0000
0010
0000
0001
1000
0000
0001
1000
0000
0100
0000
0100
0000
,
1000
0000
0000
0000
0010
0000
1000
0001
0000
1000
0001
0000
0100
0000
0100
0000
,
0010
0000
1000
0000
0100
0000
0010
0001
0010
0000
0001
0000
0100
0000
0010
0000
,
0100
0000
0000
0000
0001
0000
1000
0001
0000
1000
0100
0000
0010
0000
0001
0000
,
1000
0000
0100
0000
1000
0000
0010
0100
0000
0000
0010
0000
0100
0000
0001
0000
,
0100
0000
0000
0000
0001
0000
0010
0100
0000
0000
0010
0000
0100
0000
0000
0000
,
1000
0000
0001
0000
0100
0000
0010
0100
0000
0000
0010
0000
0100
0000
0001
0000
,
0010
0000
0000
0000
0100
0000
1000
0001
0000
0000
1000
0000
0100
1000
0100
0000
,
0110
0000
0000
0000
0001
0000
1000
0001
0000
0100
0010
0000
0100
0000
0001
0000
,
1000
0000
0010
0000
1000
0000
0001
1000
0000
0100
0010
0000
0100
0000
0010
0000
,
0001
0000
0100
0000
0010
0000
1000
0100
1000
0000
0001
0000
0010
0000
0100
0000
,
1100
0000
0000
0000
1000
0000
0001
1000
0000
0001
0100
0000
0010
0000
1000
0000
,
0100
0000
1000
0000
0100
0000
0010
0100
0000
0000
0010
0000
0011
0000
0001
0100
,
0001
0000
0000
0000
0100
0000
0010
0100
0000
0000
0010
0000
1010
0000
1000
0000
,
0001
0000
0010
0000
0100
0000
1000
0100
0000
0000
1000
0000
0001
0000
0010
0000
,
0100
0000
0000
0000
0010
0000
0001
1000
0001
0000
0100
0000
0010
0100
0010
0000
,
1000
0000
0100
0000
1000
0000
0000
0001
0000
0001
1000
0000
0100
0000
0010
0000
,
0001
0000
0100
0000
0001
0000
0000
1000
0000
1000
0001
0000
0010
0000
0100
0000
,
1000
0000
0100
0000
0010
0000
0100
0010
0000
0100
0010
0000
0000
0001
0000
0000
,
1000
0000
0010
0000
1000
0000
0001
0100
0000
0010
0100
0000
0010
0000
1000
0000
,
0001
0000
0100
0000
0001
0000
0000
1000
0000
1000
0001
0000
0100
0000
0010
0000
,
1000
0000
0100
0000
1000
0000
0000
0001
0000
0001
1000
0000
0010
0000
0100
0000
,
0101
0000
1000
0000
0100
0000
0000
0010
0000
0100
0010
0000
0001
0010
0001
0000
,
0100
0000
0001
0000
1000
0000
0100
1000
0000
0100
1000
0000
0001
0000
0001
0000
,
0010
0010
0000
0000
0000
0001
0100
0010
0000
1000
0000
0000
0001
0000
1000
0000
,
0000
0100
0100
0000
0000
1000
0100
0010
0100
0010
0000
0010
0100
0000
0010
0000
,
0101
0000
0001
0000
0100
0000
0010
1000
0000
0000
0100
0000
0000
1000
0000
0000
,
0001
0000
0001
0000
1000
0100
1000
0000
1001
0000
0001
0000
0100
0010
0100
0000
,
0010
0000
1000
0000
0100
0000
1000
0100
0000
0001
0100
0000
0010
0000
0100
0000
,
0010
0000
0001
0000
0100
0000
0001
0100
0000
1000
0100
0000
0010
0000
0100
0000
,
0001
0000
1000
0000
0100
0000
1000
0100
0000
1000
0001
0000
0000
0001
0000
0000
,
1001
0000
0000
0000
1000
0000
0010
1000
0000
0010
0100
0000
0001
0000
0010
0000
,
0100
0000
0000
1000
0000
0000
0001
0000
1000
0000
0001
0000
,
0100
0000
0100
0000
0010
0000
0010
0000
1000
0001
1000
0001
1000
0000
0000
0000
,
2002
0000
3003
0000
;

//--------------- pump-double - pop'n music NORMAL chart ----------------
#NOTES:
     pump-double:
     pop'n music NORMAL chart:
     Medium:
     1:
     0,0,0,0,0:
0000000000
0000000000
0000000000
0000000000
0000000000
0000000000
0000000000
0000000000
0000000000
0000000000
0000000000
0000000000
0000000000
0000000000
0000000000
0000000000
0000000000
0000000000
0000000000
0000000000
0000000000
0000000000
0000000000
0000000000
0000000000
0000000000
0000000000
0000000000
0000000000
0000000000
0000000000
0000000010
,
0000000000
0000000000
0000000000
0000001000
0000000000
0000000000
0010000000
0000000000
0000000000
0000000000
1000000000
0000000000
0000000000
0000000000
0000000000
0000000000
,
0000010000
0000000000
0000000000
0000000000
0000010000
0000000000
0000000000
0000010000
0000000000
0000010000
0000000000
0000000000
0000010000
0000000000
0000000000
0000000000
,
0000100000
0000000000
0000100000
0000000000
0000100000
0000000000
0000000000
0000001000
0000000000
0000001000
0000000000
0000000000
0000001000
0000000000
0000000000
0000000000
,
0000000010
0000000010
0000000010
0000000000
0000000100
0000000100
0000000100
0000000000
,
0000001000
0000000000
0000001000
0000000000
0000001000
0000000000
0000000000
0000001000
0000000000
0000000000
0000001000
0000000000
0000001000
0000000000
0000000000
0000000000
,
0100000000
0000000000
0000000000
0000000000
0100000000
0000000000
0000000000
0100000000
0000000000
0000000000
0100000000
0000000000
0100000000
0000000000
0000000000
0000000000
,
1000000000
0000000000
0000000000
0000000000
1000000000
0000000000
0000000000
1000000000
0000000000
0000000000
1000000000
0000000000
1000000000
0000000000
0000000000
0000000000
,
0001000000
0000000000
0001000000
0000000000
0001000000
0000000000
0000000000
0001000000
0000000000
0000000000
0001000000
0000000000
0001000000
0000000000
0000000000
0000000000
,
0000100000
0000000000
0000000000
0000000000
0000100000
0000000000
0000000000
0000000000
0000000000
0000000000
0000000100
0000000000
0000000100
0000000100
0000010000
0000000000
,
1110000000
0000000000
0000000000
0000100000
0000000000
0000000000
0001000000
0000000000
,
0000100000
0000000000
0000000000
0000000000
0010000000
0000000000
0000000000
0000010000
0000000000
0000000000
0000000000
0000000000
0010000000
0000000000
0000000000
0000000000
,
0000010000
0000000000
0000100000
0000010000
0000001000
0000000000
0000010000
0000000000
,
0000000100
0000000000
0000000000
0000000000
0000000000
0000000000
0000000000
0000000000
0000000000
0000000000
0000000000
0000000000
0000000000
0000000000
0000000000
0000000000
0000000000
0000000000
0000000000
0000000000
0000000000
0000000000
0000000000
0000000000
0000000010
0000000000
0000000000
0000000000
0000000000
0000000000
0000000000
0000000000
0000000000
0000000000
0000000000
0000000000
0000000000
0000000000
0000000000
0000000000
0000001000
0000000000
0000000000
0000000000
0000000000
0000000000
0000000000
0000000000
0000000000
0000000000
0000000000
0000000000
0000000000
0000000100
0000000000
0000000000
0000000000
0000000000
0000000000
0000000000
0000000000
0000000000
0000000000
0000000000
,
0000000010
0000000000
0000000000
0001000000
0000000000
0000000000
0000010000
0000000000
,
0000000100
0000000000
0000000000
0000000000
0000000000
0000000000
0000100000
0000010000
0000000000
0000000000
0000000000
0000000000
0010000000
0000000000
0000000000
0000000000
,
0000010000
0000000000
0000000000
0001000000
0000000000
1000000000
0000000000
0000000000
,
0010000000
0000000000
0000000000
0000000000
0000100000
0000000000
0000000000
0100000000
0000000000
0000000000
0000000000
0000000000
0000000100
0000001000
0000010000
0000000000
,
0010000000
0000000000
0000000000
0000000000
0000100000
0000000000
0000000000
0010000000
0000000000
0000000000
0000000000
0000010000
0000000000
0000000000
0000000000
0000000000
,
0001000000
0000000000
0000000000
0000000000
0000000100
0000000000
0000000000
0000001000
0000000000
0000000000
0000000000
0100000000
0000000000
0000000000
0000000000
0000000000
,
0010000000
0000000000
0000000000
0000000000
0000100000
0000000000
0000000000
0010000000
0000000000
0000000000
0000000000
0000010000
0000000000
0000000000
0000000000
0000000000
,
0010000000
0000000000
0000100000
0000000000
0000010000
0000000000
0001000000
0000000000
0100000000
0000000000
0001000000
0000010000
0000000000
0000000000
0000000000
0000000000
,
0010000000
0000000000
0000000000
0000000000
0000100000
0000000000
0000000000
0100000000
0000000000
0000000000
0000000000
0000100000
0000000000
0000000000
0000000000
0000000000
,
0010000000
0000000000
0000000000
0000000000
0000001000
0000000000
0000000000
0000100000
0000000000
0000000000
0000000000
0100000000
0000000000
0000000000
0000000000
0000000000
,
0010000000
0000000000
0000000000
0000000000
0000100000
0000000000
0000000000
0100000000
0000000000
0000000000
0000000000
0000010000
0000000000
0000000000
0000000000
0000000000
,
0001000000
0000000000
0000001000
0000000000
0000000010
0000000000
0000001000
0000000100
0000000000
0000001000
0000000000
0000000000
0000000000
0000000000
0000000000
0000000000
,
0010010000
0010010000
0000000000
0000000000
0000000000
0000100000
0000010000
0000001000
0000000000
0000000000
0000000000
0000000000
0000000000
0000000000
0000000000
0000000000
,
0000000000
0100010000
0100010000
0000000000
0000000000
0000001000
0000000100
0000000010
0000000000
0000000000
0000000000
0000000000
0000000000
0000000000
0000000000
0000000000
,
0010010000
0000000000
0000000000
0000000000
0000100000
0000000000
0000000000
0010001000
0000000000
0000000000
0000000000
0000010000
0000000000
0000000000
0000000000
0000000000
,
0010000100
0000000000
0000000010
0000000000
0000000000
0000000100
0000000000
0000000000
0000001000
0000000000
0000000000
0000010000
0000000000
0000000000
0000000000
0000000000
,
0010010000
0000000000
0000000000
0000000000
0000100000
0000000000
0010000000
0000000100
0000000000
0001000000
0000000000
0000000000
0000000000
0001000000
0000000000
0000000000
,
0010001000
0000000000
0000000000
0000000000
0000010000
0000000000
0000000000
0000100010
0000000000
0000000000
0000000000
0100000000
0000000000
0000000000
0000000000
0000000000
,
0010001000
0000000000
0000000000
0000000000
0000100000
0000000000
0000000000
0100000100
0000000000
0000000000
0000000000
0000010000
0000000000
0000000000
0000000000
0000000000
,
0001000000
0000000000
0000100000
0000000000
0000000100
0000000000
0000010000
0000001000
0000000000
0000010000
0000000000
0000000000
0000000000
0000000000
0000000000
0000000000
,
0000100000
0000000000
0000000000
0000000000
,
0000000000
0000000000
0001010000
0000000000
0001010000
0000000000
0001010000
0000000000
0000001000
0000001000
0000000000
0000001000
0000001000
0000100000
0010000000
0000000000
,
0000000010
0000000000
0000000000
0000000000
;
