#TITLE:just did a bad thing;
#SUBTITLE:;
#ARTIST:Bill Wurtz;
#TITLETRANSLIT:;
#SUBTITLETRANSLIT:;
#ARTISTTRANSLIT:;
#GENRE:;
#CREDIT:;
#MUSIC:just did a bad thing.ogg;
#BANNER:just did a bad thing.png;
#BACKGROUND:;
#CDTITLE:cdtitle.png;
#SAMPLESTART:127.300;
#SAMPLELENGTH:12.000;
#SELECTABLE:YES;
#OFFSET:0.359;
#BPMS:0.000=117.000;
#STOPS:;
#BGCHANGES:1.750=just did a bad thing.mp4=1.000=0=0=0=StretchNoLoop====,
99999.000=-nosongbg-=1.000=0=0=0=StretchNoLoop====
;
#FGCHANGES:;

//--------------- dance-single - ----------------
#NOTES:
     dance-single:
     :
     Easy:
     3:
     0,0,0,0,0:
0000
0000
0000
0000
,
0001
1000
1000
0000
,
0100
0000
0100
0000
,
0110
0010
0001
0000
,
0000
1000
0010
0000
,
1000
0000
0100
0000
,
0010
0000
0001
0000
,
1100
0000
0000
0000
,
0001
0000
0000
0000
,
0010
0000
0001
0000
,
0010
0000
0001
0000
,
1000
0000
0100
0000
,
0110
0000
0000
0001
,
0100
0100
0100
0000
,
1000
0000
0100
0000
,
0110
0000
1000
0000
,
0010
0000
0001
0000
,
0000
1001
1000
0000
,
1000
0000
0001
0001
,
0100
0000
0010
0000
,
0100
0000
1000
0000
,
1000
0000
0001
0010
,
0001
0000
1000
0100
,
1000
0000
0100
0000
,
0110
0000
0010
0000
,
0000
0011
1000
0000
,
0001
1000
0001
0000
,
1000
0000
0100
0000
,
0010
0100
0010
0000
,
0001
0001
0001
0000
,
1000
0000
0000
1000
0000
0000
1000
0000
0000
0000
0000
0000
0000
0000
0000
0000
,
0010
0010
0010
0000
,
0100
0000
0000
0100
0000
0000
0100
0000
0000
0000
0000
0000
0000
0000
0000
0000
,
0000
0010
0000
0000
,
1000
0010
0010
0100
,
0010
0000
0010
0000
,
0100
0001
1000
0000
,
0001
0000
0000
0100
,
0001
0000
0010
0000
,
1000
0000
0010
0000
,
0100
0001
1000
0000
,
1001
0000
0000
0000
,
1000
0010
0001
0010
,
0000
0100
0100
0000
,
0001
0000
0011
0000
,
1000
0000
0100
0000
,
1000
0000
0010
0000
,
0100
0000
0100
0000
,
0001
0010
0001
0000
,
1000
0100
1000
0000
,
1000
0100
0001
0100
,
0000
0010
0010
0000
,
0001
0000
0001
0000
,
0010
0001
1000
0000
,
0100
0000
1000
0000
,
1000
0000
0010
0000
,
1001
0000
0000
0000
0000
0100
0000
0000
,
0000
0000
0000
0010
,
1000
0100
0100
0000
,
0001
0100
0100
0000
,
0010
0000
0010
0000
,
1000
0000
0000
0000
0000
0000
0000
0000
0001
0000
0000
1000
0000
0000
0001
0000
,
0000
1001
1000
0000
,
1000
0000
0001
0001
,
0100
0000
0010
0000
,
0100
0000
1000
0000
,
1000
0000
0001
0010
,
0001
0000
1000
0100
,
1000
0000
0100
0000
,
0110
0000
0010
0000
,
0000
0011
1000
0000
,
0001
1000
0001
0000
,
1000
0000
0100
0000
,
0010
0100
0010
0000
,
0001
0001
0001
0000
,
1000
0000
0000
1000
0000
0000
1000
0000
0000
0000
0000
0000
0000
0000
0000
0000
,
0100
0010
0100
0000
,
0110
0000
0000
0000
,
0000
0000
0000
0000
,
0001
0010
0001
1000
,
0010
1000
0110
0000
;

//--------------- dance-single - ----------------
#NOTES:
     dance-single:
     :
     Medium:
     5:
     0,0,0,0,0:
0000
0000
0000
0000
,
0001
0010
0001
0000
1000
0000
0100
0000
,
1000
1000
0010
0001
,
0101
0000
0001
1000
0010
0000
1000
0000
,
1100
0010
0001
0000
,
0001
0010
0001
0010
0100
0010
0001
0000
,
1000
0010
1000
0010
0100
0010
1000
0000
,
0100
0000
1000
0001
,
0011
0000
0000
1000
0000
0000
0010
0000
0000
0000
0000
0000
0010
0000
0000
0000
,
1000
0010
0001
0000
0010
0000
1000
0000
,
0001
0001
0010
0000
0001
1000
0100
0000
,
0010
0100
0010
0001
,
1001
0000
0000
0000
1000
0100
0010
0000
,
0001
0000
0001
0000
0010
0001
0010
0000
,
0100
0000
1000
0000
1000
0001
1000
0000
,
1010
0000
0000
0000
0000
0000
0000
0000
0001
0000
0000
0010
0000
0000
0001
0000
,
1000
0000
0000
0100
0000
0000
1000
0000
0000
0000
0000
0000
0010
0000
0000
0000
,
0000
0000
0000
0000
0110
0000
0000
0000
1000
0000
0000
0010
0000
0000
0010
0000
,
0001
0000
0010
0000
0100
0001
0010
0000
,
0001
0000
0001
0000
1000
0100
0010
0000
,
0100
1000
0001
0100
,
0010
0000
0101
0001
,
1000
0010
1000
0000
0010
0000
0010
0000
,
1000
0000
0000
0100
0000
0010
0010
0000
,
0100
1000
0001
0100
,
0000
0000
1001
0000
0001
0010
0001
0000
,
1000
0000
0100
1000
,
0001
0000
0100
0000
0010
0010
0010
0000
,
1000
0010
1000
0001
0010
0001
0100
0000
,
0000
0001
1000
0000
1000
0000
0000
0000
,
0010
0000
0000
1000
0000
0000
1000
0000
0000
0000
0000
0000
0100
0000
0000
0000
,
0000
1000
0001
0000
0001
0000
1001
0000
,
0010
0000
0000
0001
0000
0000
0001
0000
0000
0000
0000
0000
0000
0000
0000
0000
,
0000
1001
1000
0001
,
1000
0000
0000
0010
0000
0000
0100
0000
0000
0000
0000
0000
0001
0000
0010
0000
0001
0000
1000
0000
0010
0000
1000
0000
,
0100
0100
1000
0010
,
0001
0001
0010
0000
0001
0000
0100
0000
,
1010
0000
0000
0000
1000
0100
0010
0100
,
1000
0001
0011
0000
,
0001
0100
0010
0000
1010
0000
0000
0000
,
1000
0000
0010
0000
0001
0010
0001
0000
,
1100
0000
0001
0100
,
0001
0000
0000
0010
0000
0000
0001
0000
1000
0000
0000
0100
0000
0000
1000
0000
,
0000
0010
0010
0000
,
1000
0100
0001
0010
,
1000
0010
0001
0100
,
0101
0000
0001
0010
0000
0000
0010
0000
,
0001
1000
0100
0000
0010
0000
0100
0000
,
1100
0000
1000
0001
0000
0000
0000
0000
,
0010
0001
0010
0100
,
1000
0000
0000
0010
0000
0000
1000
0000
0001
0000
0000
0100
0000
0000
0001
0000
,
0000
0100
0100
0000
,
1000
0010
1000
0000
,
0100
0010
0010
0000
0010
0000
0001
0000
,
1000
0001
0010
0110
,
0001
1000
0100
0100
,
1000
0000
0010
0010
0000
0011
0000
0000
,
0000
0000
0000
0000
0000
0000
0000
0000
0000
0000
0000
0000
1000
0001
0000
0000
,
0010
0010
0001
0000
,
0100
0001
0100
0000
0001
0000
0000
0000
,
1000
0010
0001
1000
,
0110
0000
0000
0000
0000
0000
0000
0000
0001
0000
0000
1000
0000
0000
0001
0000
,
0000
0000
0000
0000
0110
0000
0000
0000
1000
0000
0000
0010
0000
0000
0010
0000
,
0001
0000
0010
0000
0100
0001
0010
0000
,
0001
0000
0001
0000
1000
0100
0010
0000
,
0100
1000
0001
0100
,
0010
0000
0101
0001
,
1000
0010
1000
0000
0010
0000
0010
0000
,
1000
0000
0000
0100
0000
0010
0010
0000
,
0100
1000
0001
0100
,
0000
0000
1001
0000
0001
0010
0001
0000
,
1000
0000
0100
1000
,
0001
0000
0100
0000
0010
0010
0010
0000
,
1000
0010
1000
0001
0010
0001
0100
0000
,
0000
0001
1000
0000
1000
0000
0000
0000
,
0010
0000
0000
1000
0000
0000
1000
0000
0000
0000
0000
0000
0100
0000
0000
0000
,
0000
1000
0010
0000
0001
0000
0110
0000
,
0100
0000
0000
0010
0000
0000
0000
0000
,
0000
0000
1000
0101
,
0010
1000
0010
0001
,
0010
0100
0010
0010
0110
0000
0000
0000
;

//--------------- dance-single - ----------------
#NOTES:
     dance-single:
     :
     Hard:
     8:
     0,0,0,0,0:
0000
0000
0000
0000
,
0001
0100
1000
0000
0020
0000
0030
0000
,
1000
1000
0010
0000
0001
0001
0100
0000
,
1000
0000
0010
1000
0000
0001
0010
0000
0002
0000
0000
0000
0103
0000
0000
0000
,
1000
1010
0011
0001
,
1000
0000
0000
0100
0010
0000
0100
0000
2000
0000
0000
0000
3001
0000
0000
0000
,
0010
0000
0000
0001
1000
0000
0001
0000
0100
0000
0010
0000
1000
0000
0100
0000
,
0210
0000
0310
0000
0001
0010
0001
1000
,
0100
0000
0000
0011
0000
0000
2200
0000
0000
0000
3300
0000
0100
0000
0000
0000
,
1000
0010
0001
0000
0100
0000
1000
0000
,
0001
0100
0001
1000
0100
0010
0100
0000
,
1000
0000
0010
0100
0000
0001
1000
0000
0010
0000
1000
0000
0001
0000
0100
0000
,
2010
0000
0000
0000
3001
0000
0000
0010
0001
0000
1000
0000
0100
0000
0010
0100
,
0010
0000
0001
0000
1000
0000
0100
0000
1200
0000
0000
0000
1300
0000
0010
0100
,
0010
1000
0001
0100
0010
1000
0100
0100
,
0110
0000
0000
1001
0000
0000
0000
0000
1001
0000
0000
1000
0000
0000
0010
0000
,
0110
0000
0000
0001
0000
0000
1000
0000
0000
0000
0001
0000
0010
0000
0100
0000
,
0000
0000
0000
0000
1001
0000
0000
0000
1000
0000
0001
0010
0000
0001
0100
0000
,
0010
0000
1000
0000
0010
0000
0100
0000
0001
0000
1000
0100
0000
0010
0100
0000
,
1000
0001
0000
0000
0010
0000
0000
0000
0001
0000
0100
0010
0000
1000
0001
0000
,
0010
0001
0010
0100
0010
0001
1000
0010
,
0200
0000
0000
0000
0301
0000
0010
0000
0001
0000
1000
0010
0000
0010
0100
0000
,
0010
1000
0001
0000
0100
0000
0100
0000
0001
0000
0010
0100
0000
0010
0001
1000
,
0020
0000
0000
0000
1030
0000
0001
0000
0000
0000
0101
0000
0000
0000
1000
0100
,
0020
0000
0230
0000
1300
0010
0001
0100
,
0001
0000
0000
0000
0011
0000
0000
0000
0100
0000
0010
0001
0000
1000
0001
0000
,
0100
0001
0000
0000
1000
0000
1000
0000
0010
0000
0100
0010
0000
0001
0010
0000
,
1000
0001
0100
0010
1000
0100
0010
0010
,
0011
0000
0000
0011
0000
0000
0110
0000
0000
0000
0000
0100
1000
0000
0010
0000
,
0000
0000
1010
0000
0000
0101
0000
0000
0110
0000
0000
0000
1000
0010
1000
0000
,
0010
0100
0000
0001
1000
0000
0100
0010
0001
0000
0010
0000
0001
0000
1000
0000
,
0000
0000
1100
0000
0000
0101
0000
0000
1001
0000
0000
0000
0010
0000
1000
0000
,
0001
0000
0000
0110
0000
0000
2200
0000
0000
0000
0000
0000
0000
0000
0000
0000
,
3300
0000
0000
0000
0000
1001
0000
0100
0001
0000
1000
0000
0010
0100
0010
0100
,
0010
0000
0000
1000
0000
0000
1100
0000
0000
0000
0000
0000
0011
0000
0001
0000
0100
0000
0010
0000
1000
0000
0100
0000
,
1000
0000
1000
0000
0001
0000
0010
0000
0001
0000
0000
0100
0100
0000
0001
0000
,
1010
0000
0000
0100
0000
0001
0000
0000
0010
0000
0000
0001
0010
0000
0000
0100
,
1000
0000
0000
0000
0100
0000
0000
0000
1000
0010
0000
0000
0100
0000
0001
0000
,
0010
0000
0001
1000
0000
1000
0000
1000
0010
0000
0010
0000
0110
0000
0000
0000
,
1000
0000
0001
0010
0000
0010
0000
0010
0100
0000
0000
0000
0011
0000
0000
0000
,
1010
0000
0000
0100
0000
0001
1000
0000
0100
0001
0000
0000
0010
1000
0000
0000
,
0220
0000
0000
0000
0000
0000
0330
0000
1000
0010
0000
0000
0001
0000
1000
0001
,
1000
0000
0000
1100
0000
0000
1100
0000
0001
0000
0000
0101
0000
0000
0101
0000
,
0000
0000
0000
0000
0100
0000
0000
0000
0200
0000
0000
0000
0300
0000
0001
0010
,
0001
0000
0010
0000
0001
0000
1000
0000
0100
0000
0000
0110
0000
0000
0001
0010
,
0100
0000
1000
0100
0001
1000
0010
0001
,
1000
0000
0000
0100
0010
0000
0100
0000
0010
0000
0000
0001
0000
1000
0000
0000
,
0010
0100
0000
0000
0010
0100
0000
0000
0101
0000
0000
0000
0001
0000
1000
0000
,
0100
0000
1000
0010
0000
0000
0200
0000
0000
0000
0000
0000
0000
0000
0000
0000
,
0301
0000
0010
0000
0100
0000
1000
0000
0101
0000
0000
0000
1010
0000
0000
0010
,
1000
0000
0001
0010
0000
0010
0001
0000
1000
0000
0100
0010
0000
1000
0010
0000
,
0001
1000
0010
0100
1000
0100
0002
0000
,
1003
0010
0000
0100
0001
0000
1000
0000
0001
1000
0000
0100
0010
0000
0100
0000
,
1000
0010
0000
0100
0010
0000
0100
0000
0101
0000
0000
0000
0001
0000
0010
0001
,
0010
0000
0001
1000
0000
1000
0100
0000
0010
0000
0100
0000
1000
0000
0001
0000
,
0101
0000
0000
0000
0001
1000
0000
0000
0100
0000
0010
0100
0000
1000
0001
0000
,
0010
0000
0000
0000
0001
0100
0010
0000
0000
0000
2000
0000
0000
0000
0000
0000
,
0000
0000
0000
0000
0000
0000
0000
0000
0000
0000
3000
0000
0010
0001
0000
0000
,
1000
0000
0000
0000
0010
0100
0001
0000
0100
0000
0010
0000
0110
0000
0000
0000
,
0001
0010
0000
1000
0010
0100
0000
0000
0100
0000
1000
0000
1010
0000
0000
0000
,
0101
0000
0000
0001
0000
0010
0001
0000
1000
0100
0000
0000
1000
0010
0000
0000
,
0002
0000
0000
0000
0000
0000
0003
0000
1000
0000
0000
0001
0000
0000
1000
0000
,
0000
0000
0000
0000
1001
0000
0000
0000
1000
0000
0001
0010
0000
0001
0100
0000
,
0010
0000
1000
0000
0010
0000
0100
0000
0001
0000
1000
0100
0000
0010
0100
0000
,
1000
0001
0000
0000
0010
0000
0000
0000
0001
0000
0100
0010
0000
1000
0001
0000
,
0010
0001
0010
0100
0010
0001
1000
0010
,
0200
0000
0000
0000
0301
0000
0010
0000
0001
0000
1000
0010
0000
0010
0100
0000
,
0010
1000
0001
0000
0100
0000
0100
0000
0001
0000
0010
0100
0000
0010
0001
1000
,
0020
0000
0000
0000
1030
0000
0001
0000
0000
0000
0101
0000
0000
0000
1000
0100
,
0020
0000
0230
0000
1300
0010
0001
0100
,
0001
0000
0000
0000
0011
0000
0000
0000
0100
0000
0010
0001
0000
1000
0001
0000
,
0100
0001
0000
0000
1000
0000
1000
0000
0010
0000
0100
0010
0000
0001
0010
0000
,
1000
0001
0100
0010
1000
0100
0010
0010
,
0011
0000
0000
0011
0000
0000
0110
0000
0000
0000
0000
0100
1000
0000
0010
0000
,
0000
0000
1010
0000
0000
0101
0000
0000
0110
0000
0000
0000
1000
0010
1000
0000
,
0010
0100
0000
0001
1000
0000
0100
0010
0001
0000
0010
0000
0001
0000
1000
0000
,
0000
0000
0101
0000
0000
1100
0000
0000
1010
0000
0000
0000
0001
0010
0100
0000
,
0020
0000
0001
0002
0000
0000
0030
0000
,
0000
0000
0000
0000
0003
0000
0000
0000
1000
0100
0000
0000
0110
0000
0000
0010
,
0001
0001
1001
0001
1001
1000
1100
0100
,
0010
0000
0001
0000
0010
0001
1000
0000
0100
0010
0000
0000
0000
0000
0000
0000
;

//--------------- dance-solo - ----------------
#NOTES:
     dance-solo:
     :
     Beginner:
     1:
     0,0,0,0,0:
000000
000000
000000
000000
,
000000
100000
100000
000000
,
001000
000000
010000
000000
,
000001
000001
000001
000000
,
000000
000100
000100
000000
,
000010
000000
000100
000000
,
001000
000000
100000
000000
,
100001
000000
000000
000000
,
010010
000000
000000
001000
,
000000
000010
000010
000000
,
100000
000000
000001
000000
,
000000
010000
010000
000000
,
001100
000000
000000
000000
,
100000
100000
100000
000000
,
000001
000001
000001
000000
,
100001
000000
010000
000000
,
000010
000000
010000
000000
,
000000
100001
000000
001000
,
001000
000000
000100
000000
,
000100
000000
000010
000000
,
010000
000000
001000
001000
,
001000
000000
100000
000000
,
000100
000000
010000
000000
,
000010
000000
001000
001000
,
001000
000000
000001
000001
,
000000
001100
000000
000000
,
100000
000000
000010
000010
,
000010
000000
010000
010000
,
010000
000000
000001
000000
,
000000
001000
001000
000000
,
000100
000000
001000
000000
,
000100
000100
000000
000000
,
010010
000000
000000
000000
,
000000
000000
000000
000000
000000
100001
000000
000000
000000
000000
000000
000000
000000
000000
000000
000000
,
100000
000000
000100
000100
,
000100
000000
100000
000000
,
000001
000000
001000
001000
,
001000
000000
000001
000000
,
010000
000000
000010
000000
,
000010
000000
010000
000000
,
000100
000000
001000
001000
,
001000
000000
010010
000000
,
000001
000001
000001
000001
,
000000
010000
010000
000000
,
001000
000000
000100
000000
,
001000
000000
001100
000000
,
000010
000010
000010
000000
,
010000
000000
000010
000000
,
010000
010000
010000
000000
,
001000
001000
001000
000000
,
000100
000000
001000
000000
,
000010
000000
010000
000000
,
000001
000001
000001
000000
,
100000
100000
100000
000000
,
001000
000000
010000
000000
,
000010
000000
001000
000000
,
010000
000000
000000
000000
000000
000010
000000
000000
,
000000
000000
000000
100001
,
000000
010000
010000
000000
,
000000
000010
000010
000000
,
010000
000000
000010
000000
,
010010
000000
001000
001000
,
000000
001100
000000
001000
,
001000
000000
000100
000000
,
010000
000000
000100
000000
,
000010
000000
100000
100000
,
100000
000000
000001
000001
,
000001
000000
001000
000000
,
100001
000000
010000
000000
,
000010
000000
000100
000100
,
000000
010010
000000
000001
,
000001
000000
100000
000000
,
001000
000000
100000
000000
,
000100
000100
000100
000000
,
010000
000000
000010
000000
,
001000
001000
001000
000000
,
010000
000000
000010
000000
,
100001
000000
000000
000000
,
000000
000000
000000
000000
,
000100
000000
001000
000000
,
000100
000000
001100
000000
;
