#TITLE:jazz over pilotwings;
#SUBTITLE:;
#ARTIST:bill wurtz;
#TITLETRANSLIT:;
#SUBTITLETRANSLIT:;
#ARTISTTRANSLIT:;
#GENRE:;
#CREDIT:8Chasey 2026 / BWE Volume 3 / Beat Popper;
#MUSIC:jazz over pilotwings.mp3;
#BANNER:;
#BACKGROUND:;
#CDTITLE:;
#SAMPLESTART:42.580;
#SAMPLELENGTH:15.000;
#SELECTABLE:YES;
#OFFSET:-0.081;
#BPMS:0.000=139.000;
#STOPS:;
#BGCHANGES:;
#FGCHANGES:;

//--------------- dance-single - BRAND NEW ----------------
#NOTES:
     dance-single:
     BRAND NEW:
     Beginner:
     1:
     0,0,0,0,0:
0000
0000
0000
0000
,
0000
0000
0000
0000
,
0000
0000
0000
0000
,
0000
0000
0000
0000
,
0000
0000
0000
0000
,
0010
0000
0000
0000
,
0000
0000
0000
0000
,
0100
0000
0000
0000
,
0000
0000
0000
0000
,
0001
0000
0000
0000
,
0000
0000
0000
0000
,
1000
0000
0000
0000
,
0000
0000
0000
0000
,
0001
0000
0000
0000
,
0001
0000
0000
0000
,
1000
0000
0000
0000
,
1000
0000
0000
0000
,
0001
0000
0000
0000
,
1000
0000
0000
0000
,
0001
0000
0000
0000
,
1000
0000
0000
0000
,
0010
0000
0000
0000
,
0100
0000
0000
0000
,
0010
0000
0000
0000
,
0100
0000
0000
0000
,
0001
0000
0000
0000
,
0001
0000
0000
0000
,
1000
0000
0000
0000
,
1000
0000
0000
0000
,
0010
0000
0000
0000
,
0100
0000
0000
0000
,
0010
0000
0000
0000
,
0100
0000
0000
0000
,
1000
0000
0000
0000
,
0000
0000
0000
0000
,
0001
0000
0000
0000
,
0000
0000
0000
0000
,
0100
0000
0000
0000
,
0000
0000
0000
0000
,
0010
0000
0000
0000
,
0000
0000
0000
0000
,
1000
0000
0000
0000
,
1000
0000
0000
0000
,
0001
0000
0000
0000
,
0001
0000
0000
0000
,
1000
0000
0000
0000
,
0001
0000
0000
0000
,
1000
0000
0000
0000
,
0001
0000
0000
0000
,
0001
0000
0000
0000
,
0000
0000
0000
0000
,
1000
0000
0000
0000
,
0000
0000
0000
0000
,
0001
0000
0000
0000
,
0000
0000
0000
0000
,
1000
0000
0000
0000
;

//--------------- dance-single - EASY WAY ----------------
#NOTES:
     dance-single:
     EASY WAY:
     Easy:
     1:
     0,0,0,0,0:
0000
0000
0000
0000
,
0000
0000
0000
0000
,
0000
0000
0000
0000
,
0000
0000
0000
0000
,
0000
0000
0000
0000
,
0100
0000
0000
0000
,
0010
0000
0100
0000
,
0001
0000
1000
0000
,
0000
0000
0001
0001
,
0000
0001
0000
0000
,
0000
0000
1000
1000
,
0000
1000
0000
0000
,
0010
0000
0100
0000
,
0010
0000
0000
0000
,
0000
0001
0001
0000
,
0100
0000
0000
0000
,
0000
1000
1000
0000
,
0001
0000
0000
0000
,
1000
0000
1000
0000
,
1000
0000
0000
0000
,
0001
0000
0001
0000
,
0001
0000
0100
0000
,
0000
0000
0010
0000
,
1000
0000
0001
0000
,
1000
0000
0000
0000
,
0001
0000
0001
0000
,
1000
0000
1000
0000
,
0001
0000
1000
0000
,
0001
0000
1000
1000
,
0000
0000
0100
0000
,
0010
0000
0001
0000
,
1000
0000
0000
0000
,
0000
0010
0010
0000
,
0100
0000
0000
0000
,
0001
0001
0000
1000
,
1000
0000
0000
0000
,
0001
0000
0000
0000
,
0100
0000
0010
0000
,
0100
0000
0000
0000
,
0010
0000
0100
0000
,
0010
0000
0000
0000
,
1001
0000
0001
0000
,
1000
0000
0000
0000
,
0001
0000
0001
0000
,
0100
0000
0100
0000
,
0010
0000
0100
0000
,
0001
0000
1000
0000
,
0000
1001
0000
0000
,
0000
0000
0000
0000
,
1000
0000
0000
0000
,
0001
0000
0000
0000
,
0100
0000
0000
0000
,
0010
0000
0000
0000
,
1000
0000
1000
0000
,
0001
0000
0001
0000
,
1000
1000
0000
0000
,
0000
0000
0001
0001
,
0000
0000
0000
0000
,
0100
0000
0100
0000
,
0000
0000
0000
0000
,
0010
0000
0010
0000
,
0000
0000
0000
0000
,
1000
0000
1000
0000
,
0000
0000
0000
0000
,
0001
0000
0001
0000
;

//--------------- dance-single - GET REAL ----------------
#NOTES:
     dance-single:
     GET REAL:
     Medium:
     4:
     0,0,0,0,0:
0000
0000
0000
0000
,
0000
0000
0000
0000
,
0000
0000
0000
0000
,
0000
0000
0000
0000
,
0000
0000
0000
0000
,
0001
0001
0000
1000
,
0100
0100
1000
0010
,
1000
1000
0000
0001
,
0100
0100
0001
0010
,
0100
1001
0000
0001
,
0100
0001
1000
0100
,
1000
0000
0000
0000
0010
0100
0000
0010
,
0000
0100
0001
1000
,
0001
0001
1000
1000
,
0000
0010
0100
0000
0010
0000
0010
0000
,
0100
0000
0001
1000
,
0001
0001
1000
1000
,
0001
0100
0010
1000
,
0100
0100
0010
0010
,
0110
0000
0000
0000
0100
0000
1000
0001
,
0000
1000
0001
0000
0100
0000
0010
0000
,
1000
0001
1001
0000
,
1000
0001
0100
0010
,
0010
0000
0100
0000
0001
0000
1000
0001
,
0000
0000
0000
0000
0000
0001
0000
0001
,
1000
0000
1000
0010
0000
0000
1000
0000
,
0001
0000
0001
0100
0000
0000
0001
0000
,
0100
0000
0100
0010
0000
0000
0100
0000
,
0010
1000
0001
0100
,
0000
0000
0000
0000
0010
0100
0010
0000
,
1000
0000
0001
0100
0001
0000
1000
0000
,
1001
0000
0001
0000
1000
0000
0001
0100
,
0000
0001
0100
0000
0010
1000
0000
0010
,
1000
0000
0000
0000
,
0100
0010
0100
0000
0000
0000
1000
0001
,
1000
0000
0000
0000
0010
0000
0000
1000
,
0000
0001
1000
0000
,
0001
1000
0001
0000
1000
0000
0000
0100
,
0000
0010
0100
0010
,
0010
0000
0001
0000
,
1000
0000
0010
0000
0100
0000
0010
0100
,
0010
0000
0100
0001
,
1000
0000
0010
1000
,
0001
0000
0000
0000
0100
0010
0100
0000
,
0010
0000
0100
0001
,
0010
0010
0100
0100
,
1000
0001
1000
0001
,
0000
1001
0000
1000
,
0010
0100
0001
0000
,
1000
0000
0001
0000
,
0100
0010
0100
0010
,
0010
0000
1000
0000
,
0001
1000
0001
0000
,
0100
0001
0100
0000
,
0010
0000
0100
0010
0000
0000
0100
0000
,
0001
0000
1000
0000
0000
0100
0000
0010
,
0000
0001
0000
1000
,
0001
0000
0100
0000
0000
0001
0000
1000
,
0000
0001
1000
0000
0001
0000
0001
0000
,
1000
0000
0100
0000
0000
1000
0000
0001
,
0000
1000
0001
0000
1000
0000
1000
0000
,
0000
0000
0010
0000
0000
0100
0000
0010
,
0000
0100
0010
0000
0100
0000
0010
0000
,
0000
0000
0100
0000
0000
0010
0000
0100
,
0000
0010
0100
0000
0010
0000
0100
0000
,
0000
0001
0000
0000
,
0000
1000
0000
0000
;

//--------------- dance-single - SO HARD TO DO ----------------
#NOTES:
     dance-single:
     SO HARD TO DO:
     Hard:
     7:
     0,0,0,0,0:
0000
0000
0000
0000
,
0000
0000
0000
0000
,
0000
0000
0000
0000
,
0000
0000
0000
0000
,
0000
0000
0000
0000
,
1000
0000
0001
0000
0100
0010
0000
1000
,
0000
1000
0100
0000
0010
0000
0011
0000
,
0001
0000
1000
0000
0010
0100
0000
0001
,
0000
0010
0100
0000
1000
0000
1010
0000
,
0010
0000
0100
0001
0000
0100
0010
0000
,
1000
0100
1000
0000
0001
0010
0001
0000
,
0100
0000
0010
0000
1000
0010
0000
0100
,
0000
0001
0100
0000
0001
0000
0010
0000
,
0110
0000
0100
1000
0000
1000
0100
0000
,
0000
1000
0010
0100
0001
0000
1000
0000
,
0001
0000
0101
0000
1000
0100
0000
1000
,
0000
1000
0010
0000
0100
0010
0010
0100
,
0010
0000
0100
0001
0010
0000
0100
0000
,
1100
0000
1001
0000
0001
0100
0010
0000
,
0010
0100
0000
0000
0001
0100
0010
1000
,
0000
1000
0100
1000
0001
0010
0100
0000
,
0010
0001
0100
0000
0110
0000
0010
1000
,
0010
0100
0010
0000
0100
0000
0110
0000
,
0010
0000
1000
0100
0001
0000
0100
1000
,
0000
1000
0100
0000
1000
0001
0000
0101
,
0000
0100
1000
0100
0000
0001
0010
0001
,
0000
1000
0100
1000
0000
0010
0100
0010
,
0000
0100
0010
0100
0000
0001
1000
0001
,
0000
0100
0001
0000
1000
0000
1001
0000
,
0001
0000
1000
0100
1000
0001
0010
0001
,
0100
0000
0010
1000
0010
0000
0110
0000
,
1010
0000
1000
0100
1000
0010
0000
0010
,
0000
0000
0100
0010
0100
0000
0010
0000
1000
0001
1000
0000
0100
0000
0010
0100
,
0010
0000
0001
0000
0000
0100
0000
0001
,
1000
0001
1000
0001
1000
0000
0000
0000
0000
0000
0000
0000
0001
1000
0001
1000
,
0001
0000
0010
0100
0010
0100
0000
1000
,
0100
0000
1000
0001
1000
0000
0001
0000
,
0101
0000
0100
0000
0010
1000
0000
1100
,
0000
1000
0001
0000
0100
0001
0100
0000
,
0010
0100
0000
0100
0010
0000
1000
0100
,
1000
0000
0001
0100
0001
0000
1000
0001
,
1000
0000
0010
0000
0100
0001
0000
0100
,
0010
1000
0010
0000
1000
0000
0100
1000
,
0100
0000
0010
0100
0010
0000
0001
0010
,
0001
0000
1000
0000
0100
1000
0010
0000
,
0100
0101
1010
1000
,
0001
1000
0100
0000
1000
0001
1000
0001
,
0000
0100
0110
0000
0010
0110
0000
0100
,
0001
0010
0100
1000
0001
0000
0010
0000
,
0100
0000
1000
0100
0010
0000
0100
1000
,
0000
0001
1000
0000
0001
0010
0100
0000
,
1000
0000
0010
0000
0100
0010
0000
0100
,
0000
0001
0100
0000
0010
1000
0010
0000
,
1000
0000
0001
0000
0101
0000
0100
0010
,
1000
0000
0100
1000
0000
1000
0001
0100
,
0000
0100
0010
0000
1000
0001
0000
1001
,
0000
1000
0100
0000
0010
0100
1000
0000
,
0001
0000
0100
0000
0001
0010
0000
0100
,
0000
0100
1000
0000
0010
1000
0010
0000
,
1000
0000
0100
0000
1000
0010
0000
0100
,
0000
0100
0001
0000
0010
0001
0010
0000
,
0100
0000
1000
0100
1000
0010
0000
0100
,
0000
0100
0001
0000
1000
0000
0010
0000
,
0100
0000
0001
0100
0001
0010
0000
0100
,
0000
0100
1000
0000
0001
0000
0010
0000
,
0100
0000
1000
0000
0001
1000
0000
0100
,
0000
0100
0010
0000
0001
0000
1000
0000
,
0100
0000
0000
0000
;

//--------------- dance-solo - BABY MODE ----------------
#NOTES:
     dance-solo:
     BABY MODE:
     Beginner:
     1:
     0,0,0,0,0:
000000
000000
000000
000000
,
000000
000000
000000
000000
,
000000
000000
000000
000000
,
000000
000000
000000
000000
,
000000
000000
000000
000000
,
001000
000000
000000
000000
,
000100
000000
001000
000000
,
000001
000000
100000
000000
,
000000
000000
000010
000010
,
000000
000001
000000
000000
,
000000
000000
010000
010000
,
000000
100000
000000
000000
,
000100
000000
001000
000000
,
000100
000000
000000
000000
,
000000
000001
000001
000000
,
010000
000000
000010
000000
,
000000
100000
100000
000000
,
001000
000000
000100
000000
,
000010
000000
000010
000000
,
001000
000000
000100
000000
,
010000
000000
010000
000000
,
000100
000000
001000
000000
,
000001
000000
000100
000000
,
001000
000000
100000
000000
,
010010
000000
000000
000000
,
000001
000000
000001
000000
,
100000
000000
100000
000000
,
000010
000000
010000
000000
,
000001
000000
100000
100000
,
000000
000000
001000
000000
,
000100
000000
000010
000000
,
010000
000000
000000
000000
,
000000
000100
000100
000000
,
001000
000000
000000
000000
,
000001
000001
000000
100000
,
100000
000000
000100
000000
,
001000
000000
000001
000000
,
001000
000000
000000
000000
,
000010
000010
000000
010000
,
010000
000000
000000
000000
,
001000
000000
000100
000000
,
100001
000000
000001
000000
,
100000
000000
000000
000000
,
000010
000000
010000
000000
,
000100
000000
001000
000000
,
000001
000000
100000
000000
,
000010
000000
010000
000000
,
000000
100001
000000
000000
,
100000
000000
000001
000000
,
100000
000000
000000
000000
,
000001
000000
000000
000000
,
001000
000000
000000
000000
,
000100
000000
000000
000000
,
010000
000000
010000
000000
,
000010
000000
000010
000000
,
010000
010000
000000
000000
,
000000
000000
000010
000010
,
000000
000000
000000
000000
,
001000
000000
001000
000000
,
000000
000000
000000
000000
,
000100
000000
000100
000000
,
000000
000000
000000
000000
,
100000
000000
100000
000000
,
000000
000000
000000
000000
,
000001
000000
000001
000000
;

//--------------- pump-single - Beat Popper Novice Chart ----------------
#NOTES:
     pump-single:
     Beat Popper Novice Chart:
     Easy:
     2:
     0,0,0,0,0:
00000
00000
00000
00000
,
10000
00000
00000
00000
00000
00000
00000
00001
,
00000
00001
00001
00001
,
00001
00000
10000
00000
,
00000
00100
00000
00000
00000
00000
10000
00000
,
10000
00000
00000
00000
,
00000
00000
00001
00100
,
00100
00000
10000
00000
,
00000
00001
00000
00000
00100
00000
10000
00000
,
00100
10000
00000
00000
,
00000
00000
00001
10000
,
00000
00000
00000
00000
10000
00000
00000
00100
,
00000
00000
00010
00000
,
00001
00000
00000
10000
,
00000
00010
00000
00000
00000
00000
00000
00000
,
01000
00000
00000
00000
00000
10000
00000
00000
,
00100
00100
00001
00001
,
00001
00000
00010
00000
,
00100
01000
10000
00000
,
10000
00000
00000
00000
,
00000
00000
00000
00000
,
00001
00100
10000
00000
,
00000
00000
00000
00000
,
00001
00000
10000
00000
00010
00000
00000
01000
,
00000
00000
00000
00000
00000
00100
00000
00100
,
00000
00100
00000
00100
00000
00000
00000
00100
,
00000
00000
00000
00100
00000
00000
00000
10000
,
00000
00000
00000
00100
00000
00000
00000
00001
,
00000
00000
00000
10000
,
00000
00000
00000
00100
00000
00000
00000
00000
,
00100
10000
00001
00100
,
10000
00100
00100
00000
,
00000
00001
00000
00000
00100
00000
00000
00000
,
10000
00000
00000
00000
00000
00000
00000
00100
,
00000
00000
00000
00001
,
00000
10000
00100
00000
,
10000
00000
00001
00100
,
10000
00000
00100
00000
,
00000
00000
00000
00000
,
00100
00000
10000
00001
,
00100
00000
00000
00001
,
10000
00000
00000
00000
,
00000
00000
00000
00000
00000
10000
00000
00000
,
00100
00000
00001
00000
,
00001
00100
10000
00000
,
00001
00000
00100
00000
,
10000
00000
00000
00000
00100
00000
00000
10000
,
00000
00000
00000
00000
,
00000
00000
00000
00000
,
00000
00100
00001
00100
,
00001
00100
10000
00100
,
10000
00000
00100
00000
,
00001
00000
10000
00000
,
00001
00010
00100
01000
,
00100
00000
00000
10000
00000
00000
00000
01000
,
00000
00100
00000
00000
,
00000
00000
00000
00000
00000
00000
00000
00000
00000
00010
00000
00000
00000
00000
00000
00000
;

//--------------- pump-single - Beat Popper Chart ----------------
#NOTES:
     pump-single:
     Beat Popper Chart:
     Medium:
     6:
     0,0,0,0,0:
00000
00000
00000
00000
,
10000
00000
00000
00000
00000
00000
00000
00001
,
00000
00100
00001
00100
00001
00000
00010
00000
,
00010
00000
00000
00000
00000
00000
00000
00000
00100
00000
00000
00000
00000
00000
00000
00000
00000
10000
00000
00000
00000
00000
00000
00000
00000
00000
00000
00000
00000
00000
00000
00000
,
00000
00100
00000
00100
01000
00000
10000
00000
,
10000
00000
00000
00010
00000
00000
01000
00000
,
00000
00000
00001
00000
00000
00000
00000
00000
00000
10000
00000
00000
00000
00000
00000
00000
00100
00000
00000
00000
00000
00000
00000
00000
01000
00000
00000
00000
00000
00000
00000
00000
,
00100
01000
10000
00000
,
00000
00001
00000
00010
00100
01000
10000
00000
,
00100
00000
00000
00000
00000
00000
01000
00000
00000
00000
00000
00000
00000
00000
00000
00010
00000
00000
00000
00000
00000
00000
00010
00000
,
00000
00100
01000
10000
00100
00000
01000
00000
,
00010
00100
01000
10000
01000
00010
00000
00100
,
00000
00000
00000
00000
00000
00000
00000
00000
00000
00000
00000
00000
00100
00000
00000
00000
00000
00000
00000
00000
00000
00000
00000
00000
00000
00000
00000
00010
00000
00000
00000
00000
00000
00000
00000
00000
00000
00000
00000
00000
00000
00000
00000
00000
00010
00000
00000
00000
,
00000
00000
00000
00000
00001
00000
00000
00000
00000
00000
00000
00000
00000
00000
00000
02000
00000
00000
00000
00000
00000
00000
00000
00000
00000
00000
00000
00000
00000
00000
03000
00000
00000
00000
00000
00000
01000
00000
00000
00000
00000
00000
00000
00000
00000
00000
00000
00000
,
00000
00100
00001
10000
00100
00000
00000
00000
,
00001
00100
00000
00000
00000
10000
00001
00100
,
00010
00000
01000
00000
00001
00001
00001
00001
,
00001
00000
00010
00000
01000
10000
00100
00000
,
01000
00000
10000
00000
00010
00100
01000
00000
,
01000
10000
00000
00000
00010
00000
00100
01000
,
00000
00010
10000
01000
00001
00000
00010
00000
,
00100
10000
11000
00200
,
00310
00000
00000
00000
00000
00000
00001
00000
00000
00000
00000
00000
00000
00000
01000
00000
00000
00000
00000
00000
00000
00000
00000
00000
00000
00000
00000
00100
00000
00000
00000
00000
00000
00000
00000
00000
00001
00000
00000
00000
00000
00000
00000
00000
00000
00000
00000
00000
,
00001
00000
00010
01000
00100
00000
10000
00010
,
00000
00000
00000
00000
00000
00100
00000
00100
,
00000
00000
00100
00000
00000
00000
00200
00000
00000
00000
00000
00300
00001
00000
00200
00000
,
00000
00000
00000
00300
00001
00000
00200
00000
00000
00000
00000
00300
00001
00000
20000
00000
,
00000
00000
00000
00000
00000
00000
00000
00000
00000
30000
00000
00000
00100
00000
00000
00000
00000
00000
00000
00000
02000
00000
00000
00000
00000
00000
00000
00000
00000
00000
00000
00000
00000
03000
00000
00000
00100
00000
00000
00000
00000
00000
00000
00000
00001
00000
00000
00000
,
00000
00000
00000
00000
00000
00000
00100
00000
00000
00001
00000
00000
00000
00100
00000
00000
00000
00000
02000
00000
00000
00000
00000
00000
,
00000
00000
00000
00000
03000
00000
10000
00000
00000
01000
00000
00000
00100
00000
00010
00000
,
00100
00000
01000
00100
00010
01000
00100
00000
,
10000
01000
01000
00000
,
00000
00001
10000
00100
00001
00100
00000
00000
,
10000
00000
00000
00000
00000
00000
00000
10000
,
01000
00100
00010
00000
00000
00000
00100
00001
,
00010
00000
00001
00100
00010
01000
00010
01000
,
01000
00000
10000
00000
00100
00010
00100
00000
,
01000
00000
10000
00000
00001
00000
00000
01000
,
00000
00100
00010
00000
10000
00000
00100
00001
,
00100
00010
00000
00001
00100
01000
00010
10000
,
00100
00000
00001
00000
01000
00000
00010
00010
,
00100
00000
00001
00100
10000
00010
01000
00100
,
10000
00000
00000
00000
00000
01000
00100
00010
,
00000
00000
00000
00000
10000
00000
00000
00000
00000
00000
00000
00000
00000
00000
00000
00000
00000
00000
00000
00000
00000
00000
00000
00000
00000
00000
00000
00100
00000
00000
00000
00000
00000
00000
00000
00000
00000
00000
00000
00000
00000
00000
00000
00000
00000
00000
00000
00000
00000
00000
00000
00000
00000
00000
00001
00000
00000
00000
00000
00000
00000
00000
00000
00000
00100
00000
00000
00000
00000
00000
00000
00000
00001
00000
00000
00000
00000
00000
00000
00000
00000
00000
00000
00000
00100
00000
00000
00000
00000
00000
00000
00000
00000
00000
00000
00000
,
10000
01000
00100
01000
,
10000
00001
00010
00100
,
00100
01000
01000
00000
01000
00100
00010
02000
,
00000
03000
02000
00000
00000
03000
10000
01000
,
00100
00010
01000
00000
10000
00100
00001
00000
,
10000
01000
00001
00100
,
10000
00001
10000
00000
01000
00100
00010
00000
,
00100
00000
00001
00010
01000
00100
10000
00100
,
00001
01000
00010
00100
10000
01000
00100
00001
,
00010
00100
01000
10000
,
01000
00000
00001
00100
00000
01000
10000
01000
,
00000
00000
00100
00000
00000
00010
00000
00002
,
00000
00003
00000
00000
00000
00001
00100
10000
,
00000
00000
00001
00000
00000
00010
00000
00100
,
00000
00100
00100
00000
01000
00000
10000
00000
,
00000
00000
00001
00000
00000
00010
00000
00100
,
00000
00100
00100
00000
01000
00000
10000
00000
,
00000
00000
00010
00000
00000
00100
00000
01000
,
00000
01000
10000
00000
10000
00000
00001
00000
,
00000
00000
00010
00000
00000
00100
00000
01000
,
00000
01000
10000
00000
00100
00000
10001
00000
;

//--------------- pump-single - Beat Popper Hyper Chart ----------------
#NOTES:
     pump-single:
     Beat Popper Hyper Chart:
     Hard:
     9:
     0,0,0,0,0:
00000
00000
00000
00000
,
10000
00000
00000
00000
00001
00000
00000
00000
10000
00000
00000
00000
00000
00000
00000
00001
00000
00000
10000
00000
00000
00000
00000
00000
00000
00000
00000
00000
00000
00000
00000
00000
00000
00000
00000
00000
00000
00000
00000
00000
00000
00000
00000
00000
00000
00000
00000
00000
00000
00000
00000
00000
00000
00000
00000
00000
00000
00000
00000
00000
00000
00000
00000
00000
00000
00000
00000
00000
00000
00000
00000
00000
00000
00000
00000
00000
00000
00000
00000
00000
00000
00000
00000
00000
00001
00000
00000
00000
00000
00000
00000
00000
00000
00000
00000
00000
,
00000
00000
00000
00100
00000
00000
00001
00000
00000
00100
00000
00000
00001
00000
00000
00000
00000
00000
00100
00000
00001
00000
00000
00000
,
00100
00000
00001
00000
00100
00000
00001
00000
00010
00000
00100
00000
01000
00000
00000
00000
00000
20000
00000
00000
00000
00000
00000
00000
00000
00000
00000
00000
30000
00000
00000
00000
,
00000
00000
00000
00000
00100
00010
00000
00000
00001
00000
00000
00000
00100
00010
00000
00000
00100
00000
00000
00000
01000
00000
00000
00000
10000
00000
00000
00000
00000
00000
00000
00000
,
10000
00000
00000
00000
00000
00000
00000
00000
00000
00000
00000
00000
10000
00000
00000
00000
00000
00000
00100
00000
00000
00000
00000
00000
00000
00000
00000
00001
00000
00000
00000
00000
00010
00000
00000
00000
01000
00000
00000
00000
00000
00000
00000
00000
00100
00000
00000
00000
,
00000
00000
00000
00000
00000
00000
00001
00000
00000
00000
00000
00000
00000
00000
00000
00000
00100
00000
00000
00000
00000
00000
00000
00000
00000
00000
00000
10000
00000
00000
00000
00000
00000
00000
00000
00000
00000
00000
00000
00000
00000
00000
00000
00000
00000
00000
00000
00000
00100
00000
00000
00000
00000
00000
00010
00000
00000
00000
00000
00000
00000
00000
00000
00100
00000
00000
00000
00000
00000
00000
00000
00000
00000
00000
00000
01000
00000
00000
00000
00000
00000
00000
00000
00000
00000
00000
00000
00000
00000
00000
00000
00000
00000
00000
00000
00000
,
00100
00000
00000
00000
00000
00000
00000
00000
01000
00000
00000
00000
00000
00000
00000
00000
00100
00000
00000
00000
00000
10000
00000
00000
00000
00000
00000
00000
00000
00000
00000
00000
,
00000
00000
00000
00000
00010
00001
00000
00000
00000
00000
00100
00000
00010
00000
00000
00000
00100
00000
00000
00000
01000
00000
00000
00000
10000
01000
00000
00000
00100
00000
00000
00000
,
00010
00000
00000
00000
00000
00000
00000
00000
00000
00000
00000
00000
10000
00000
00000
00000
00000
00000
00000
00000
02000
00000
00000
00000
00000
00000
00000
00000
00000
00000
03100
00000
00000
00010
00000
00000
00000
00000
00001
00000
00000
00000
00000
00000
00100
00000
00010
00000
,
00000
00000
00000
00000
00000
00000
00000
00000
00001
00000
00000
00000
00000
00000
00000
00010
00000
00000
00000
00000
00000
00100
00000
00000
00000
00000
00000
01000
00000
00000
00000
00000
00000
00100
00000
00000
00000
00000
00000
10000
00000
00000
00000
00000
00000
00000
00000
00000
01000
00000
00000
00000
00010
00000
00000
00000
00000
00000
00000
00000
00001
00000
00000
00000
00000
00000
00000
00000
00000
00000
00000
00000
10000
00000
00000
00000
00100
00000
00000
00000
00000
00000
00000
00000
00000
00000
00000
00000
00000
00000
00000
00000
00000
00000
00000
00000
,
00001
00000
00000
00100
00000
00000
01000
00000
00000
10000
00000
00000
01000
00100
00000
00001
00000
00000
00000
00000
00000
01000
00000
00000
,
00000
00000
00000
00100
00000
00000
00000
00000
00000
00000
00000
00000
01000
00000
00000
00000
00000
00000
00000
00000
00100
00000
00000
00000
00000
00000
00000
00010
00000
00000
00000
00000
00000
00000
00000
00000
00100
00000
00000
00000
00000
00000
00000
00000
00010
00000
00000
00000
,
00000
00000
01001
00000
00000
01000
00000
10000
00100
10000
00100
10000
00100
10000
00100
10000
00100
10000
00100
00000
00000
00000
00000
00000
,
00000
00000
00000
00000
00000
00000
10000
00000
00000
01000
00000
00000
00100
00000
00000
00010
00000
00000
00001
00000
00000
10000
00000
00000
00100
00000
00000
00000
00000
00000
00000
00000
00000
00000
00000
00000
00000
00000
00000
00000
00100
00000
00010
00000
00100
00000
01000
00000
,
00001
00000
00000
00000
00000
00000
00100
00000
00000
00000
00000
00000
00000
00000
00000
00000
00000
00000
00000
00000
00000
00000
00000
00000
00000
00000
00000
00000
00000
00000
10000
00000
00000
00100
00000
00000
00000
00000
00001
00000
00000
00000
00100
00000
00000
00000
00000
00000
,
00000
00010
00000
10000
00000
00000
01000
00000
00000
00100
00000
00000
00100
00001
00000
00001
00000
00000
00001
00000
00000
00001
00000
00000
,
00001
00000
00000
00010
00000
00000
00010
00100
00000
00010
00000
00000
00010
00100
01000
00000
10000
00000
01000
00000
00000
00001
00000
00000
,
00010
00100
00000
00001
00000
00000
00101
01000
00000
00001
00000
00000
00101
00000
00000
01010
00000
00000
10100
00010
00000
00000
00000
00000
,
10100
00000
00000
00000
00010
00000
00000
00000
00000
00000
00000
00000
00000
00000
00000
11000
00000
00000
00000
00000
00000
00000
00000
00000
00000
00000
00000
00000
00000
00000
00000
00000
00000
00000
00000
00000
00000
00000
00000
00000
00000
00000
00000
00000
00000
00000
00000
00000
00010
00000
00000
00000
00000
00000
00000
00000
10000
00000
00000
00000
00000
00000
00000
00000
01000
00000
00000
00000
00000
00000
00000
00000
00100
00000
00000
00000
00000
00000
00000
00000
00000
00000
00000
00000
01000
00000
00000
10000
00000
00000
00000
00000
00000
00000
00000
00000
,
00000
00010
00100
01000
10000
00000
01000
00000
00001
00000
00000
00000
00010
00000
00000
00000
,
00100
10000
11000
00200
,
00310
00000
00000
00000
00000
00000
00001
00000
00000
00000
00000
00000
00000
00000
10000
00000
00000
00000
00000
00000
00100
00000
00000
00000
00000
00000
00000
00010
00000
00000
00000
00000
00000
00000
00000
00000
00001
00000
00000
00000
00000
00000
00000
00000
00000
00000
00000
00000
,
00001
00000
00000
00000
00000
00000
00000
00000
00010
00000
00100
00000
01000
00000
00000
00000
00100
00000
00000
00000
00000
00000
00000
00000
10000
00000
00000
00000
00000
01010
00000
00000
,
00000
00000
00000
00000
00000
00000
00000
00000
00000
00000
00000
00000
00000
00000
00000
00000
00000
00000
00000
00000
00000
00000
00000
00000
00000
00000
00000
00000
00000
00000
00000
00000
00000
00000
00000
00000
00000
00000
00000
00000
01010
00000
00000
00000
00000
00000
00000
00000
10000
00000
00000
00000
00000
00000
00000
00000
01000
00010
00000
00000
00000
00000
00000
00000
,
10000
00000
00000
01010
00000
00000
10000
00000
00000
01010
00000
00000
01000
00010
01000
00010
01000
00010
00001
00000
00000
01000
00010
01000
,
00010
00000
00000
00000
01000
00000
00000
00000
00010
00000
00000
00000
01000
00000
00000
00000
00010
00000
00000
00000
00000
00000
00000
00000
00100
00000
00000
00001
00000
00000
00000
00000
00000
00000
00000
00000
01000
00000
00000
00000
00010
00000
00000
00000
01000
00000
00000
00000
00010
00000
00000
00000
01000
00000
00000
00000
00010
00000
00000
00000
01000
00000
00000
00000
00010
00000
00000
00000
00000
00000
00000
00000
00001
00000
00000
00000
00000
00000
00000
00000
00000
00000
00000
00000
00100
00000
00000
00000
00000
00000
00000
00000
00000
00000
00000
00000
,
10000
00000
00000
00000
00100
00000
00000
00000
10000
00000
00000
00000
00100
00000
00000
00000
10000
00000
00000
00000
00100
00000
00000
00000
00001
00000
00000
00000
00000
00000
00000
00000
00000
00000
00000
00000
00000
00000
00000
00000
00010
00000
00000
00000
00000
00000
00000
00000
01000
00000
00000
00000
00010
00000
00000
00000
01000
00000
00000
00000
00010
00000
00000
00000
01000
00000
00000
00000
00010
00000
00000
00000
00100
00000
00000
00010
00000
00000
00000
00000
00000
00000
00000
00000
00000
00000
00000
00001
00000
00000
00000
00000
00000
00000
00000
00000
,
10000
00000
00000
00000
00000
00000
00000
00000
00010
00000
00000
00000
10000
00000
00000
00000
00000
00000
00000
00000
00000
00000
00000
00000
00010
00000
00000
00000
00000
00000
00000
00000
00000
00000
00000
00000
00001
00000
00000
00000
00000
00000
00000
00000
00000
00000
00000
00000
00000
00000
00000
00000
00110
00000
00000
00000
00000
00000
00000
00000
00000
00000
00000
00000
00000
00000
00000
00000
00000
00000
00000
00000
01010
00000
00000
00100
00000
00000
00000
00000
00000
00000
00000
00000
00000
00000
00000
00000
00000
00000
00000
00000
00000
00000
00000
00000
,
10000
00000
00000
00000
00100
00000
00000
00000
10000
00000
00000
00000
00100
00000
00000
00000
10000
00000
00000
00000
00100
00000
00000
00000
00000
00000
00000
00000
00000
00000
00000
00000
00000
00000
00000
00000
10000
00000
00000
00000
00000
00000
00000
00000
00000
01000
00000
00000
00000
00000
00000
00000
00000
00000
00100
00000
00000
00000
00000
00000
00000
00000
00000
00010
00000
00000
00000
00000
00000
00000
00000
00000
00000
00000
00000
00100
00000
00000
00000
00000
00000
00000
00000
00000
00001
00000
00000
00000
00000
00000
00000
00000
00000
00000
00000
00000
,
00100
00000
01000
00000
00000
00100
00000
00000
00000
10000
00000
00000
01000
00000
00000
00000
00100
00000
00000
00000
10000
00000
00000
00000
01010
00000
00000
00000
00000
00000
00000
00000
,
00000
10100
00000
00000
00000
00000
00000
00000
01000
00000
00000
00000
00000
00000
00000
00000
01000
00000
00000
00000
00000
00000
00000
00000
00000
00000
00000
00000
00000
00000
00000
00000
,
00000
00000
00000
00000
00000
00000
00000
00000
00000
00000
00000
00000
00101
00000
00000
00000
01000
00000
00000
00000
00000
00000
00000
00000
10000
00000
00000
00000
00000
00000
00000
00000
00000
00000
00000
00000
01000
00000
00000
00000
00000
00000
00000
00000
00000
00000
00000
00000
00101
00000
00000
00000
00010
00000
00000
00000
00000
00000
00000
00000
01001
00000
00000
00000
00100
00000
00000
00000
00000
00000
00000
00000
00000
00000
00000
00000
00000
00000
00001
00000
00000
00010
00000
00000
00000
00000
00000
00100
00000
00000
00000
00000
00000
01000
00000
00000
,
00000
10000
00000
00000
00000
00000
00000
00000
00000
00000
00000
00000
00000
00000
00000
00000
00000
00000
00000
00000
00000
00000
00000
00000
00000
00000
00000
00000
00100
00000
00001
00000
,
10000
01000
00100
00010
00001
00000
00000
00000
00000
00000
00000
00000
00100
00010
00001
00100
,
00000
00000
00000
00000
00000
00000
00000
00000
00010
00000
00000
00000
00000
00000
00000
00000
00000
00000
00000
00000
00000
00000
00000
00000
00000
00000
00000
00000
00000
00000
00000
00000
00000
00000
00000
00000
00000
00000
00000
00000
00000
00000
00000
00000
00000
00000
00000
00000
00001
00000
00000
00000
00000
00000
00010
00000
00000
00000
00000
00000
00100
00000
00000
00000
00000
00000
00000
00000
00000
00000
00000
00000
00000
00000
00000
00000
00000
00000
01000
00000
00000
00000
00000
00000
00000
00000
00000
00000
00000
00000
00000
00000
00000
00000
00000
00000
00000
00000
00000
00010
00000
00000
00000
00000
00000
00000
00000
00000
00000
00000
00000
00000
00000
00000
00000
00000
00000
00000
00000
00000
10000
00000
00000
00000
00000
00000
00000
00000
00000
00000
00000
00000
00000
00000
00000
00000
00000
00000
00000
00000
00000
00000
00000
00000
00000
00000
00000
00010
00000
00000
00000
00000
00000
00000
00000
00000
00000
00000
00000
00000
00000
00000
00000
00000
00000
00000
00000
00000
10000
00000
00000
00000
00000
00000
01000
00000
00000
00000
00000
00000
00100
00000
00000
00000
00000
00000
00000
00000
00000
00000
00000
00000
,
00000
00000
00000
00000
00000
00000
01000
00000
00000
00000
00000
00000
10000
00000
00000
00000
00000
00000
00000
00000
00000
00000
00000
00000
00000
00000
00000
00010
00000
00000
00000
00000
00000
00000
00000
00000
00000
00000
00000
00000
00000
00000
00000
00000
00000
00000
00000
00000
01000
00000
00000
00000
00000
00000
00000
00000
00000
00000
00000
00000
00000
00000
00000
00000
00000
00000
00000
00000
00000
00000
00000
00000
00100
00000
00000
00000
00000
00000
00000
00000
00000
00000
00000
00000
00000
00000
00000
00000
00000
00000
00000
00000
00000
00000
00000
00000
00010
00000
00000
00000
00000
00000
00000
00000
00000
00000
00000
00000
00000
00000
00000
00000
00000
00000
00000
00000
00000
00000
00000
00000
00001
00000
00000
00000
00000
00000
00000
00000
00000
00000
00000
00000
00000
00000
00000
00000
00000
00000
00000
00000
00000
00000
00000
00000
00010
00000
00000
00000
00000
00000
00000
00000
00001
00000
00000
00000
00000
00000
00000
00000
00010
00000
00000
00000
00000
00000
00000
00000
00100
00000
00000
00000
00000
00000
00000
00000
00000
00000
00000
00000
00000
00000
00000
00000
00000
00000
00000
00000
00000
00000
00000
00000
,
00000
01000
00000
00000
00000
00000
00000
00000
10000
00000
00000
00000
00000
00000
00000
00000
00100
00000
00000
00000
00000
00000
00000
00000
00000
00000
00000
00000
00000
20000
00000
00000
,
00000
00000
00000
00000
00000
00000
00000
00000
00000
31000
00000
00000
00000
00000
00000
00100
00000
00000
00000
00000
00000
00000
00000
00000
00000
00000
00000
00001
00000
00000
00000
00000
00000
00000
00000
00000
00000
00000
00010
00000
00000
00000
00000
00000
00000
00000
00000
00000
01000
00000
00000
00000
00000
00000
00000
00000
00000
00000
00000
00000
10000
00000
00000
00000
00000
00000
00000
00000
00000
00000
00000
00000
00100
00000
00000
00000
00000
00000
00010
00000
00000
00000
00000
00000
00001
00000
00000
00000
00000
00000
00000
00000
00000
00000
00000
00000
,
00100
00000
00010
00000
00000
00000
00001
00010
00100
00000
01000
00000
00010
01000
10000
00000
,
01000
00000
00000
00000
00000
00000
00000
00000
00000
00000
00000
00000
00011
00000
00000
00000
00100
00000
00000
00000
01000
00000
00000
00000
00100
00000
00000
00000
01000
00000
00000
00000
10000
00000
00000
00000
00010
00000
00000
01000
00000
00000
00010
00000
00000
01000
00000
00000
,
00200
00000
00000
00000
00301
00010
00100
10000
01000
10000
00010
00100
00010
00100
01000
00100
,
01000
10000
00000
00000
00000
00000
00000
00000
00000
00000
10000
01000
00100
01000
00100
00010
,
00000
00000
00000
00000
00100
00000
00000
00000
00000
00000
00000
00000
00000
00000
00000
00000
10000
00000
00000
00000
00000
00000
00000
00000
00000
00000
00000
00100
00000
00000
00000
00000
00000
00000
00000
00000
00000
00000
00000
00000
00010
00000
00000
00000
00000
00000
00000
00000
00000
00000
00000
00000
00000
00000
00001
00000
00000
00000
00000
00000
00000
00000
00000
00000
00100
00000
00000
00000
00010
00000
00000
00000
00001
00000
00000
00000
00000
00000
00000
00000
00000
00000
00000
00000
00010
00000
00000
00000
00000
00000
00000
00000
00000
00000
00000
00000
,
01000
00000
00000
10000
00000
00000
00010
00001
00000
00010
00000
00000
00100
00000
00000
01000
00000
00000
00010
00000
00000
00100
00000
00000
,
00000
00000
00000
10000
00000
00000
01000
00000
00000
00000
00000
00000
00000
00000
00000
00000
00000
00000
00000
00000
00000
00000
00000
00000
00011
00000
00000
00000
00100
00000
00000
00000
00000
00000
00000
00000
00000
00000
00000
00000
00000
00000
00000
00000
00000
00000
00000
00000
01001
00000
00000
00000
00000
00000
00000
00000
00000
00000
00000
00000
00000
00000
00000
00000
00000
00000
00000
00000
00000
00000
00000
00000
01001
00000
00000
00000
00100
00000
00000
00000
00000
00000
00000
00000
00000
00000
00000
00000
00000
00000
00000
00000
00000
00000
00000
00000
,
00011
00000
00000
00000
00100
00000
00000
00000
00000
00000
00000
00000
01000
00000
00000
00000
00000
00000
00000
00000
00000
00000
00000
00000
01000
00000
00000
00000
00000
00000
00000
00000
00000
00000
00000
00000
10000
00000
00000
00000
00000
00000
00000
00000
00000
00000
00000
00000
01000
00000
00000
00000
00000
00000
00000
00000
00000
00000
00000
00000
00100
00000
00000
00000
00000
00000
00000
00000
00000
00000
00000
00000
00010
00000
00000
00000
00000
00000
00000
00000
00000
00000
00000
00000
00000
00000
00000
20200
00000
00000
00000
00000
00000
00000
00000
00000
,
00000
00000
30300
00000
20200
00000
00000
00000
00000
00000
30300
00000
10000
01000
00100
00010
,
00100
00000
00000
00000
00000
00000
00000
00000
00010
00000
00000
00000
00000
00000
00000
00000
00001
00000
00000
00000
00000
00000
00000
00000
01000
00000
00000
00000
00000
00000
00000
00000
00000
00000
00000
00000
00010
00000
00000
00000
00000
00000
00000
00000
00000
00000
00000
00000
10000
00000
00000
00000
00000
00000
00000
00000
00100
00000
00000
00000
00000
00000
00000
00000
00010
00000
00000
00000
00000
00000
00000
00000
00001
00000
00000
00000
00000
00000
00000
00000
00000
00000
00000
00000
00000
00000
00000
01000
00000
00000
00000
00000
00000
00000
00000
00000
,
00000
00000
00000
00000
00000
00000
10000
00000
00000
00000
00000
00000
00000
00000
00000
00000
00000
00000
00000
00000
00000
00000
00000
00000
01000
00000
00000
00000
00000
00000
00100
00000
00000
00000
00000
00000
00000
00000
00000
00000
01000
00000
00000
00000
00000
00000
00000
00000
00000
00000
00000
00000
00010
00000
00001
00000
00000
00000
00000
00000
00000
00000
00000
11000
00000
00000
00000
00000
00000
00000
00000
00000
00100
00000
00000
00000
00000
00000
00000
00000
00000
00000
00000
00000
00010
00000
00000
00000
00000
00000
00000
00000
00000
00000
00000
00000
,
00100
00000
00000
00000
00000
00000
00010
00000
00000
00000
00001
00000
00000
00000
00000
00100
00000
00000
00000
00000
00000
00000
00000
00000
00010
00000
00000
00000
00000
00000
00000
00000
10000
00000
00000
00000
00000
00000
00000
00000
01000
00000
00000
00000
00100
00000
00000
00000
00010
00000
00000
00000
00000
00000
00000
00000
10000
00000
00000
00000
00000
00000
00000
00000
,
01000
00000
00000
00000
00000
00000
00000
00000
00000
00000
00000
00000
00010
00000
00000
00000
00100
00000
00000
00000
01000
00000
00000
00000
10000
00000
00000
00000
00000
00000
00100
00000
00000
01000
00000
00000
10000
00000
00000
00000
00000
00000
00100
00000
00000
00010
00000
00000
,
00001
00000
00000
00100
00000
00000
00010
00000
00000
00100
01000
00000
10000
00000
00000
01000
00000
00000
00100
00000
00000
00010
00000
00000
,
01000
00000
00100
00000
00010
00000
00000
00000
00001
00000
00000
00000
00100
00000
00000
00010
00000
00000
00000
00000
00000
00000
00000
00000
01000
00000
00000
00000
00000
00000
00000
00000
00000
00000
00000
00000
10000
00000
00000
00000
00000
00000
00000
00000
00000
00000
00000
00000
,
01000
00000
00000
00100
00000
00000
00000
00000
00000
00000
00000
00000
00001
00000
00000
00000
00000
00000
00100
00000
00010
00000
00000
00000
00000
00000
00000
00000
00000
00000
00100
00000
00000
01000
00000
00000
10000
00000
00000
00000
00000
00000
01000
00000
00000
00000
00000
00000
,
00000
00000
00000
00000
00000
00000
00000
00000
00000
00000
00000
00000
00000
00000
00000
00000
00000
00000
00000
00000
00000
00000
00000
00000
00000
00000
00000
00000
00000
00000
00000
00000
10000
00000
00000
00000
00000
00000
00000
00000
00000
00000
00000
00000
00000
00000
00000
00000
01000
00000
00000
00000
00000
00000
00000
00000
00000
00000
00000
00000
00000
00000
00000
00000
00100
00000
00000
00000
00000
00000
00000
00000
00000
00000
00000
00000
00000
00000
00000
00000
00010
00000
00000
00000
00000
00000
00000
00000
00000
00000
00000
00000
00000
00000
00000
00000
00000
00000
00000
00000
00000
00000
00000
00000
00000
00000
00000
00000
00000
00000
00000
00000
00000
00000
00000
00000
00000
00000
00000
00000
00000
00000
00000
00000
00000
00000
00100
00000
00000
00001
00000
00000
00000
00000
00000
00000
00000
00000
00000
00000
00000
00000
00000
00000
00000
00000
00000
00000
00000
00000
00000
00000
00000
00000
00000
00000
00000
00000
00000
00000
00000
00000
00000
00000
00000
00000
00000
00000
00000
00000
00000
00011
00000
00000
00000
00000
00000
00000
00000
00000
00000
00000
00000
00000
00000
00000
00000
00000
00000
00000
00000
00000
,
00010
00000
00000
00001
00000
00000
00010
00000
00000
00001
00000
00000
00000
00000
00000
00000
00000
00000
00000
00000
00000
00000
00000
00000
00000
00000
00000
00000
00000
00000
00000
00000
00000
00000
00000
00000
00010
00000
00000
00000
00100
00000
00000
00000
01000
00000
00000
00000
00100
00000
00000
00000
01000
00000
00000
00000
10000
00000
00000
00000
00000
00000
00000
00000
,
01000
00000
00001
01000
00100
00010
00100
10010
,
00000
10010
10010
00000
01100
00000
10100
00000
,
01000
00000
00001
01000
00100
00010
00100
10010
,
00000
10010
10010
00000
01100
00000
10100
00000
,
01000
00000
00010
01000
10000
00100
10000
11000
,
00000
11000
11000
00000
11000
00000
01100
00000
,
01000
00000
00010
01000
10000
00100
10000
11000
,
00000
11000
11000
00000
10100
00000
01001
00000
;
