#TITLE:j-staff;
#SUBTITLE:;
#ARTIST:Koichi Namiki;
#TITLETRANSLIT:;
#SUBTITLETRANSLIT:;
#ARTISTTRANSLIT:;
#GENRE:Rock Ballad;
#CREDIT:8Chasey;
#MUSIC:j-staff.ogg;
#BANNER:j-staff-bn.png;
#BACKGROUND:;
#CDTITLE:;
#SAMPLESTART:49.730;
#SAMPLELENGTH:12.000;
#SELECTABLE:YES;
#OFFSET:-0.618;
#BPMS:0.000=61.000;
#STOPS:;
#BGCHANGES:;
#FGCHANGES:;

//--------------- dance-single - 8Chasey ----------------
#NOTES:
     dance-single:
     8Chasey:
     Beginner:
     1:
     0,0,0,0,0:
0000
0000
0000
0000
,
0001
0000
0001
0000
,
1000
0000
0001
0000
,
1000
0000
1000
0000
,
0001
0000
1000
0000
,
0010
0000
0010
0000
,
0010
0010
0010
0000
,
0100
0000
0100
0000
,
0100
0100
0100
0000
,
1001
0000
0000
0000
,
0110
0000
0000
0000
,
1001
0000
1001
0000
,
0000
0000
0001
0001
,
0001
0000
1000
0000
,
0001
0000
1000
1000
,
1000
0000
0001
0000
,
1000
0000
0010
0010
,
0010
0000
0100
0100
,
0100
0000
0001
0000
,
1000
0000
0001
0000
,
0001
0000
1000
0000
,
1000
0000
1001
0000
;

//--------------- dance-single - 8Chasey ----------------
#NOTES:
     dance-single:
     8Chasey:
     Easy:
     2:
     0,0,0,0,0:
0000
0000
0000
0000
,
1000
0001
0002
0003
,
0001
1000
2000
3000
,
0020
0130
0200
0300
,
0010
0000
0000
0000
1000
0000
0000
0020
0000
0000
0000
0000
0030
0000
0000
0000
,
0001
1000
2000
3000
,
1000
0001
0002
0003
,
0200
0310
0020
0030
,
0100
0000
0000
0000
0001
0000
0000
0200
0000
0000
0000
0000
0300
0000
0000
0000
,
0001
2002
3003
0000
,
1000
1000
2002
3003
,
0010
0100
0220
0000
,
0330
0000
0001
0001
,
0010
0001
1000
0010
,
2000
3000
1000
1000
,
0010
1000
0001
0010
,
0002
0003
0200
0001
,
0301
0100
0020
1000
,
1030
0010
1001
0001
,
1000
0000
1001
1000
,
0001
0000
0200
0000
,
0310
0000
0000
0000
0100
0000
0000
2002
0000
0000
0000
0000
0000
0000
0000
0000
,
0000
0000
3003
0000
;

//--------------- dance-single - 8Chasey ----------------
#NOTES:
     dance-single:
     8Chasey:
     Medium:
     3:
     0,0,0,0,0:
0000
0000
0000
0000
,
0002
0000
0103
0000
0001
1000
0001
0000
,
2000
0000
3010
0000
0100
0010
0100
0000
,
1001
0000
0001
0010
0001
0000
1000
0000
,
0100
0000
1000
0000
0010
0000
0000
0200
0000
0000
0000
0000
0310
0000
0000
0000
,
0120
0000
1030
0000
0001
0000
1000
0001
,
0200
0000
0301
0000
1000
0000
0001
1000
,
0020
1030
0200
0301
,
1000
0000
0001
0000
1000
0000
0000
0002
0000
0000
0000
0000
0013
0000
0000
0000
,
1001
0000
0002
0000
0100
0100
0103
0000
,
1001
0000
1000
0010
2000
0000
3100
0000
,
1001
0000
0100
0200
0020
0000
0000
0330
,
0220
0000
0330
0000
0100
0001
0100
0000
,
0001
0000
0000
1000
0000
0000
0000
0000
0100
0000
1000
0000
0100
0000
0000
0000
,
1000
0000
0000
0001
0000
0000
0000
0000
1000
0000
0010
0000
1000
0000
0000
0000
,
0010
0000
0000
0100
0000
0000
0000
0000
0001
0000
1000
0000
0100
0000
0000
0020
,
0000
0000
0130
0000
1001
0000
0001
1000
,
0001
1000
0002
0000
0103
0000
1000
0001
,
1000
0001
2000
0000
3010
0000
0100
0001
,
0200
0000
0000
0000
0310
0000
0000
0000
1001
0000
0000
0000
0001
0000
0000
2000
,
0000
0000
3100
1000
1001
0000
0110
0000
,
1001
0000
0001
0000
1000
0001
0000
2002
0000
0000
0000
0000
0000
0000
0000
0000
,
0000
0000
3003
0000
;

//--------------- dance-single - 8Chasey ----------------
#NOTES:
     dance-single:
     8Chasey:
     Hard:
     6:
     0,0,0,0,0:
0000
0000
0000
0000
,
0001
0100
0001
1000
0010
1000
0100
0000
,
0210
0000
0010
0000
0310
0000
0001
1000
0000
0001
1000
0000
0001
0000
0100
0000
,
0020
0000
0000
0000
1030
0000
1000
0001
0200
0000
0000
0000
0301
0000
0000
0000
,
1000
0010
1000
0000
0001
0000
0100
0002
0000
0000
0000
0000
1003
0000
0001
0000
,
1001
1000
0010
1000
0100
0010
0100
0000
,
2001
0000
0001
0000
3001
0000
0010
0100
0000
0010
0100
0000
1000
0000
0010
0000
,
0200
0000
0000
0000
0301
0000
1000
0001
0020
0000
0000
0000
0130
0000
0000
0000
,
1100
0000
1000
0001
1000
0001
0200
0002
0000
0000
0303
0000
0010
1000
0010
1000
,
0020
0000
0000
0100
0130
0000
0001
0000
1000
0000
0100
0000
0010
0001
0010
0001
,
0020
0000
0000
0100
0130
0000
1000
0000
2002
0000
3003
0000
0100
0010
0100
0010
,
0002
0000
0000
1000
1003
0000
0020
0000
2000
0030
0000
0000
3100
1000
0001
0000
,
2002
0000
0000
3003
0000
0001
1000
0000
0200
0000
0000
1000
0000
0000
1300
0100
,
0000
1000
0001
0020
0001
0000
0031
0000
0100
0000
0001
0100
0001
0000
1000
0000
,
0010
1000
0010
1000
0100
0000
0010
0000
0011
0000
1000
0001
2000
0000
0001
0000
,
3001
0000
0010
0002
0000
0000
1003
0000
1100
0000
1000
0010
1000
0000
0001
2000
,
0000
0000
0001
0000
0100
0000
3001
0000
0020
0000
0031
0100
0001
0100
0001
0100
,
0001
0000
1000
0000
1010
0000
0100
0010
1000
0100
1000
0100
1000
0100
1000
0000
,
0020
0000
1000
0000
1030
0000
0001
1000
0002
0000
0000
0000
0103
0000
0001
2000
,
0000
0000
0100
0000
3100
0000
0010
0000
0011
0000
0001
1000
0001
1000
0100
2000
,
0000
0010
3010
1000
1010
0100
0220
0000
,
0330
0000
1000
0010
1000
0100
0020
0002
0000
0000
0000
0000
0000
0000
0000
0000
,
0000
0000
0033
0000
;
