#TITLE:i'm scared;
#SUBTITLE:(Za-Chary cover);
#ARTIST:bill wurtz;
#TITLETRANSLIT:;
#SUBTITLETRANSLIT:;
#ARTISTTRANSLIT:;
#GENRE:;
#CREDIT:8Chasey;
#MUSIC:i'm scared (Za-Chary cover).ogg;
#BANNER:;
#BACKGROUND:;
#CDTITLE:;
#SAMPLESTART:153.2;
#SAMPLELENGTH:12;
#SELECTABLE:YES;
#OFFSET:-0.626;
#BPMS:0.000=116.000;
#STOPS:;
#BGCHANGES:-1.125=i'm scared (Za-Chary cover).avi=1.000=0=0=0=StretchNoLoop====,
99999.000=-nosongbg-=1.000=0=0=0=StretchNoLoop====
;
#FGCHANGES:;

//--------------- dance-single - SUPER EASY ----------------
#NOTES:
     dance-single:
     SUPER EASY:
     Beginner:
     1:
     0,0,0,0,0:
0000
0000
0000
0000
,
0000
0000
0000
0000
,
1000
1000
1000
0000
,
0000
0000
0000
0000
,
0001
0001
0001
0000
,
0000
0000
0000
0000
,
0010
0000
0000
0000
,
0100
0000
0000
0000
,
0001
0000
0000
0000
,
1000
0000
0000
0000
,
0001
0000
1000
0000
,
0000
0000
0000
0000
,
0100
0000
0010
0000
,
0100
0000
0000
0000
,
0010
0000
0000
0000
,
0100
0000
0100
0000
,
0100
0100
0100
0100
,
0100
0000
0100
0000
,
0001
0000
1000
0000
,
0001
0000
0000
0000
,
1000
0000
0000
0100
,
0000
0100
0000
0010
,
0000
0010
0000
0100
,
0000
0000
0000
0001
,
0000
0000
0000
1000
,
0000
1000
0000
0001
,
0000
0001
0000
1001
,
0000
0000
0000
0000
,
0000
0000
0000
1000
,
0000
0001
0000
1001
,
0000
0100
0000
0100
,
0000
0010
0000
0010
,
0000
0100
0000
0010
,
0000
0100
0000
0001
,
0000
1000
0000
0010
,
0000
0000
0000
0100
,
0000
0001
0000
1000
,
0000
0100
0100
0100
,
0000
0010
0000
0100
,
0000
1000
0000
0001
,
0000
0100
0100
0000
,
0010
0000
0001
0001
,
0000
0000
1000
1000
,
0000
0000
0001
0000
,
1000
0000
1001
0000
,
0000
0000
1000
0000
,
1000
0000
0010
0010
,
0010
0000
0001
0000
,
0001
0000
0100
0100
,
0100
0000
0010
0010
,
0010
0000
0100
0000
,
0010
0000
0100
0000
,
0000
0000
0001
0000
,
0100
0000
0001
0000
,
0100
0000
0010
0000
,
1000
0000
0010
0000
,
1000
0000
0001
0000
,
0001
0000
1000
0000
,
1000
0000
1001
0000
,
0000
0000
0010
0010
,
0010
0010
0010
0000
,
0100
0000
0010
0000
,
0001
0001
0001
0000
,
0010
0000
1000
1000
,
1000
0000
0001
0001
,
0001
0000
1000
1000
,
1000
0000
0001
0000
,
1000
0000
0010
0000
,
0100
0100
0000
0010
,
0010
0000
1000
0000
,
0001
0000
0000
0000
,
0110
0000
0100
0000
,
0010
0010
0010
0000
,
1000
0000
0001
0000
,
0100
0100
0100
0000
,
0001
0000
1000
0000
,
0100
0100
0100
0000
,
0001
0000
1000
0000
,
0110
0000
1001
0000
,
0000
0000
0110
0000
,
0000
0000
0010
0010
,
0000
0100
0000
1001
,
0000
0000
0000
0000
,
0000
0000
1001
0000
;

//--------------- dance-single - NO HARM ----------------
#NOTES:
     dance-single:
     NO HARM:
     Easy:
     3:
     0,0,0,0,0:
0000
0000
0000
0000
,
0000
0000
0001
0000
,
1000
0001
1000
0000
,
0010
0000
0100
0000
,
0001
1000
0001
0000
,
0100
0100
0010
0000
,
0100
0000
0001
1000
,
0001
0000
1000
0000
,
0010
0000
0100
0000
,
0010
0000
0100
0000
,
0001
0001
0001
0000
,
1000
1000
1000
0000
,
0100
0000
0010
0000
,
0100
0000
0010
0000
,
0100
0000
0010
0000
,
0100
0000
0000
0000
,
0100
0100
0100
0000
,
0010
0000
0001
0000
,
1000
0001
1000
0000
,
0001
0000
0000
0100
,
0001
0000
1000
0000
,
0100
0100
0000
0010
,
0000
0100
0000
0110
,
0000
0000
0000
0001
,
0000
0000
1000
0000
0000
0001
0001
0000
,
0000
0000
0000
1000
,
0000
0001
0000
1001
,
0000
0000
0000
0001
,
1000
0001
0000
1000
,
0000
0100
0000
0010
,
0000
0100
0100
1000
,
0000
0010
0000
0100
,
0000
0001
0000
0100
,
0000
0100
0000
0010
,
0100
0010
0010
0100
,
0000
0000
0000
0100
,
0100
0100
0000
0010
,
0000
1000
0000
0001
,
1000
0001
0000
1000
,
0000
0010
0000
0100
,
0000
0001
0000
1000
,
0001
0000
0100
0000
,
0001
0000
1000
1001
,
0000
0000
0000
0000
,
0000
0000
0001
0000
,
1000
0000
0001
0000
,
1000
0000
0000
0000
0000
0000
0000
0010
0000
0010
0010
0000
0000
0000
0000
0000
,
0100
0000
0001
0000
,
1000
1000
0000
0000
,
0010
0000
0000
0000
,
0100
0000
0001
1000
,
0001
0000
1000
0000
,
0001
0000
0010
0000
,
0100
0000
0100
0000
,
0010
0000
0001
0000
,
1000
0000
0010
0010
,
0100
0100
0110
0000
,
1000
0000
0010
0100
,
0010
0000
0100
0000
,
0001
0000
0000
0000
0000
0000
0000
0000
1000
0001
0000
1000
0000
0001
0000
0000
,
1000
0001
0000
1000
0000
0001
0000
0000
0000
0000
0000
0000
0000
0000
0000
0000
,
0100
0000
0010
0000
,
1000
0001
1000
0000
,
0010
0000
0100
0000
,
0001
0001
1000
0100
,
1000
0000
0100
0000
,
1000
0000
0010
1000
,
0010
0000
0100
0000
,
0100
0000
0001
0100
,
0001
0000
0100
0000
,
0001
0000
0010
0000
,
0100
0000
1000
0000
,
1001
1001
1001
0000
,
0010
0010
0010
0000
,
0100
0100
0100
0000
,
0010
0000
0100
0100
,
0100
0000
0010
0000
,
1000
0000
0001
0000
,
0000
0000
1001
0000
,
0010
0000
0100
0000
,
0001
0000
1000
0001
,
0000
1000
0000
0110
,
0000
0000
0000
0000
,
0000
0000
1001
0000
;

//--------------- dance-single - GET REAL ----------------
#NOTES:
     dance-single:
     GET REAL:
     Medium:
     5:
     0,0,0,0,0:
0000
0000
0000
0000
,
0000
0000
0001
1000
,
0001
1000
0001
0000
1000
0000
0000
0000
,
0100
0010
0100
0000
,
1000
0001
1000
0000
0001
0000
0000
0000
,
0100
0010
0100
0000
,
0110
0000
0010
0100
,
0001
0000
0100
0000
0001
1000
0001
0000
,
1000
0000
0100
0000
,
1000
0001
1000
0000
,
0010
0000
0100
0010
0000
0000
0000
0000
,
1000
0001
1000
0000
,
0100
0000
0010
0000
,
0001
0000
1000
0000
,
0001
1000
0001
0000
,
0100
0000
0010
0000
,
0100
0010
0100
0000
,
0001
0000
1000
0000
,
0001
1000
0001
0000
,
0100
0000
0000
0000
,
0010
0100
0010
0000
0100
0000
0001
0000
,
1000
0100
1000
0000
0000
0000
0001
0000
,
0000
1000
0000
0010
,
0000
0100
0000
0001
,
0100
0000
0001
0000
0000
1000
1000
0000
,
0000
0010
0000
1000
,
0100
1000
0000
1001
,
0000
0001
0000
1000
,
0000
0100
0100
0010
,
0000
0100
0000
0010
,
0001
0000
0000
0000
0010
0000
0000
0010
0000
0000
0000
0000
0001
0000
0000
0000
,
0001
1000
0000
1000
,
1000
0001
0000
0100
,
0001
0100
0010
0100
,
0000
0010
1000
0100
,
0000
0010
0000
0100
,
0010
0100
0000
1000
,
0000
0001
0000
1000
,
0001
1000
0000
0010
,
0000
0010
0000
0100
,
0001
0100
0000
0010
,
1000
0000
0100
1000
,
0100
0000
0010
0100
,
0000
0000
0000
0000
,
0001
1000
0100
0000
,
1000
0000
0010
1000
,
0010
0000
0000
0000
0100
0000
0000
0001
0000
0100
0001
0000
0000
0000
0000
0000
,
0010
0010
0001
1000
,
0100
0000
0000
0100
0000
0000
0000
0000
1000
0000
0000
0000
0001
0000
0000
0000
,
1000
0000
0001
0001
,
1000
0000
0001
0100
,
0001
0000
0010
0100
,
1000
0100
1000
0000
,
0100
0000
0010
0001
,
1000
0010
0100
0000
,
0010
0000
0100
0100
,
0001
0000
0000
0001
0000
0000
0000
0000
1000
0000
0000
0000
0100
0000
0000
0000
,
1000
1000
0001
0000
,
0010
0001
0100
0000
,
0010
0000
0000
0000
0000
0000
0000
0000
1000
0001
0000
1000
0000
0001
0000
0000
,
1000
0001
0000
1000
0000
0001
0000
0000
0010
0000
0000
0000
0100
0000
0000
0000
,
0010
0100
1000
0000
,
0001
0100
0100
0000
,
0010
1000
0001
0000
,
1000
0000
0000
1000
0000
0000
0000
0000
0001
0000
0000
0000
0001
0000
0000
0000
,
1000
1000
0010
0100
,
0001
0010
0100
1000
,
0001
0000
1000
0000
,
0010
0000
1000
1000
,
0001
0001
0100
0000
,
0010
0000
1000
0000
,
0001
1000
0001
0000
,
1001
0000
0000
1001
0000
0000
0000
0000
0010
0000
0000
0000
0000
0000
0000
0000
,
0100
0100
0001
0000
,
0100
0010
0100
0010
0100
0000
0000
0000
,
0010
0000
0100
0010
,
0100
0000
0010
0000
,
0100
0000
0010
0100
,
0010
0000
0000
0000
1000
0100
1000
0000
,
0001
0000
0010
0000
0100
0000
1000
0100
,
1000
0000
0001
0001
,
1000
0100
0000
0010
,
0000
0001
0010
0100
,
1000
0001
1001
0000
;

//--------------- dance-single - FLIPPING HARD ----------------
#NOTES:
     dance-single:
     FLIPPING HARD:
     Hard:
     6:
     0,0,0,0,0:
0000
0000
0000
0000
,
0001
1000
0000
0000
0000
0000
0000
0000
0001
0000
0100
0000
1000
0000
0100
0000
,
0001
0000
0000
1000
0000
0000
0001
0000
0000
0000
0000
0000
0000
0000
0000
0000
,
1000
0000
0000
0000
0010
0000
0000
0010
0000
0000
0000
0000
0000
0000
0000
0000
,
1000
0000
0000
0100
0000
0000
1000
0000
0000
0000
0000
0000
0010
0000
0010
0000
,
0000
0000
0100
0000
0000
0100
0000
0000
0001
0000
0000
0000
1000
0000
0000
0000
,
1001
0000
0000
0000
0000
0000
0000
0000
0010
0000
0000
0100
0000
0000
0100
0000
,
0010
0000
0001
0000
0010
0000
0100
0000
1000
0000
0000
0001
0000
0000
1000
0000
,
0001
0100
0001
1000
,
0010
1000
0010
0000
1000
0100
1000
0000
,
0001
0000
0000
0010
0000
0000
0001
0000
0000
0000
0000
0000
0100
0000
0000
0000
,
0100
0000
0001
0000
1000
0001
1000
0000
,
0100
0000
0110
0000
,
0010
0001
0010
0000
0100
0000
1000
0000
,
0100
1000
0010
0100
0001
0000
0000
0000
,
0100
0000
0000
0010
0100
0000
0001
1000
,
0100
0000
0000
0100
0000
0000
0010
0000
0100
0000
0000
0100
0000
0000
1000
0000
,
0001
0000
0100
0000
0010
1000
0001
0000
,
1000
0000
0000
0000
0001
0000
0000
0000
1000
0001
1000
0001
0000
0000
0000
0000
,
0010
0000
0000
0000
0100
1000
0010
0000
,
0100
0000
0001
0100
0001
0000
1000
0010
,
1000
0100
0010
1001
,
0000
0000
0000
0000
0010
0000
0000
0010
0000
0000
0100
0000
0010
0000
0000
0000
,
0000
0000
0000
0000
1000
0000
0001
0000
1000
0000
0000
0000
0001
0000
0000
0001
,
0000
0000
1000
0001
1000
0010
0010
0000
,
0100
0000
0000
0000
0001
0000
1000
0000
0001
0000
0000
0000
1000
0000
0000
1000
,
0000
0000
0001
0010
0100
0000
1100
0000
,
1000
0100
1000
0001
,
0100
0010
0100
0001
,
0001
1000
1000
0010
,
0000
0000
0000
0000
1001
0000
0000
1001
0000
0000
0000
0000
0010
0000
1000
0000
,
0010
0000
0100
0000
0001
0000
0010
0001
,
1000
0100
0010
0011
,
0000
1010
0000
0100
,
0000
0000
0001
0010
0100
1000
0100
0000
,
0010
0000
0000
0000
0100
0000
1000
0000
0001
0000
0100
0000
0000
0001
0000
0000
,
1000
0000
0000
0000
0100
0000
0000
1000
0000
0000
0001
0000
0010
0000
0000
0000
,
0000
0000
0100
0010
0100
0000
1000
0001
,
1000
0000
0001
0000
0100
0000
1000
0100
,
0001
0000
0010
0000
0100
0000
1000
0010
,
1000
0000
0001
0100
0001
0000
0010
0000
,
0110
0000
0000
0000
0100
0000
1000
0000
0100
0000
0000
0100
0000
0000
0000
0000
,
0010
0000
0000
0010
0000
0000
0000
0000
0001
1000
0000
0000
1001
0000
0000
0000
,
0000
0000
0000
0001
,
1000
0000
0001
0010
0001
0000
1000
0000
,
0100
0000
0000
0110
0000
0000
0001
0000
,
1000
0000
0000
0000
0001
0000
0000
0010
0000
0100
0010
0000
0100
0000
0000
0000
,
1000
0100
1000
0010
0000
0100
0001
0100
,
0101
0000
0000
0100
0000
0000
0000
0000
0001
0000
0000
0000
0010
0000
0000
0000
,
0100
1000
0010
0000
0100
0000
0010
0000
,
0100
0000
0000
0000
0001
0100
0001
0000
,
1000
0000
0010
0000
1000
0100
0000
1000
,
0001
1000
0010
0010
,
0100
0000
0001
0000
,
1000
0100
0010
0000
0100
0000
0000
0000
,
0010
0001
1000
0010
,
0110
0000
0000
0110
0000
0000
0000
0000
0100
0000
0001
0000
0100
0000
0000
0000
,
0010
1000
0100
0000
1000
0000
0001
0000
,
0100
0001
0100
0000
0010
0000
1000
0000
,
0100
0000
0000
0000
1000
0000
0000
0000
0001
1000
0000
0001
0000
0010
0000
0000
,
0001
1000
0000
0001
0000
0010
0000
0000
0100
0000
0000
0000
1000
0000
0000
0000
,
0010
0100
0001
0000
1000
0000
0100
0000
,
0010
0100
1000
0000
0001
0000
0100
0000
,
1000
0100
0001
0101
,
1100
0000
0000
1100
0000
0000
0000
0000
1000
0000
0001
0000
1000
0000
0000
0000
,
0001
1000
0001
0000
0010
0000
0100
0000
,
0010
0001
0010
0100
1000
0000
0010
0000
,
1000
0000
0001
0100
,
0010
1000
0010
0000
1000
0001
1000
0000
,
0001
1000
0001
0000
0010
0000
0010
0000
,
0100
0010
0001
1000
0000
0001
1000
0000
,
0001
0000
1000
0000
0010
0100
0001
0000
,
0101
0000
0000
0101
0000
0000
0000
0000
1001
0000
0000
0000
0000
0000
0000
0000
,
0100
0100
0001
0000
,
0100
0010
0100
0010
0100
0000
1000
0000
,
0100
0000
0000
0000
0001
0000
0000
0000
0100
0000
0000
0100
0000
0000
0010
0000
,
0100
0000
0000
0100
0000
0000
0010
0000
0001
0000
1000
0000
0010
0000
0000
0000
,
0100
0101
1100
1000
,
0001
1000
0001
0000
1010
0000
0001
0100
,
0001
0010
0100
1000
,
1001
0000
0001
0000
0100
0010
0100
0000
,
0010
1000
0001
0010
,
0000
0000
0001
1000
0001
0000
1000
0000
,
0100
0010
0220
0000
,
0000
0000
0000
0000
0000
0000
0000
0330
;
