#TITLE:i'm sad;
#SUBTITLE:;
#ARTIST:Bill Wurtz;
#TITLETRANSLIT:;
#SUBTITLETRANSLIT:;
#ARTISTTRANSLIT:;
#GENRE:;
#CREDIT:;
#MUSIC:i'm sad.ogg;
#BANNER:i'm sad.png;
#BACKGROUND:;
#CDTITLE:cdtitle.png;
#SAMPLESTART:17.78;
#SAMPLELENGTH:12;
#SELECTABLE:YES;
#OFFSET:-0.032;
#BPMS:0.000=59.000;
#STOPS:;
#BGCHANGES:0.875=i'm sad.mp4=1.000=0=0=0=StretchNoLoop==CrossFade_Faster==,
99999=-nosongbg-=1.000=0=0=0 // don't automatically add -songbackground-;
#FGCHANGES:;

//--------------- dance-single - ----------------
#NOTES:
     dance-single:
     :
     Beginner:
     1:
     0,0,0,0,0:
0000
0000
0001
0000
,
0000
0000
1000
0000
,
0000
0000
0001
0000
,
0000
0000
1000
0000
,
0000
0000
0010
0000
,
0000
0000
0100
0000
,
0000
0000
0010
0000
,
0000
0000
0100
0000
,
0000
0000
0100
0000
;

//--------------- dance-single - ----------------
#NOTES:
     dance-single:
     :
     Easy:
     1:
     0,0,0,0,0:
0000
0000
1000
0000
,
0100
0000
1000
1000
,
0100
0000
0001
0000
,
0100
0000
0001
0001
,
0100
0000
0010
1000
,
0100
0000
0010
0001
,
0100
0000
0001
0000
,
1000
0000
0001
1000
,
0001
1000
0100
0000
;

//--------------- dance-single - ----------------
#NOTES:
     dance-single:
     :
     Medium:
     2:
     0,0,0,0,0:
0000
0000
0010
1000
,
0100
0100
0010
0001
,
0100
0100
0001
0010
,
0001
0001
1000
0010
,
1000
1000
0001
0001
,
0001
0001
1000
1000
,
1000
1000
0100
0100
,
0100
0100
0010
0001
,
1000
0010
0110
0000
;

//--------------- dance-single - ----------------
#NOTES:
     dance-single:
     :
     Hard:
     4:
     0,0,0,0,0:
0000
0000
0000
0000
0000
0000
0001
0000
1000
0000
0000
0000
0100
0000
0000
1000
,
0000
0000
0001
0000
0010
0000
0010
0000
0010
0000
0000
0000
1000
0000
0000
0100
,
0000
0000
0001
0000
0100
0000
0100
0000
0100
0000
0000
0000
0010
0000
0000
1000
,
0000
0000
0001
0000
0010
0000
0010
0000
0010
0000
0000
0000
0001
0000
0000
1000
,
0000
0100
1000
0001
1000
0100
0000
0100
,
0000
0100
0010
0001
0100
0010
0000
0010
,
0000
0010
1000
0100
0001
1000
0000
1000
,
0000
1000
0010
0100
0100
0001
0000
0001
,
0000
0001
1000
0000
1001
0000
0000
0000
;

//--------------- dance-solo - ----------------
#NOTES:
     dance-solo:
     :
     Beginner:
     1:
     0,0,0,0,0:
000000
000000
000001
000000
,
000000
000000
100000
000000
,
000000
000000
000010
000000
,
000000
000000
010000
000000
,
000000
000000
000100
000000
,
000000
000000
001000
000000
,
000000
000000
000001
000000
,
100000
000000
000010
000000
,
010000
000000
001100
000000
;
