#TITLE:i'm gonna do the things that i gotta do;
#SUBTITLE:;
#ARTIST:bill wurtz;
#TITLETRANSLIT:;
#SUBTITLETRANSLIT:;
#ARTISTTRANSLIT:;
#GENRE:;
#CREDIT:8Chasey 2026 / BWE Volume 3;
#MUSIC:i'm gonna do the things that i gotta do.ogg;
#BANNER:;
#BACKGROUND:;
#CDTITLE:;
#SAMPLESTART:2.27;
#SAMPLELENGTH:15;
#SELECTABLE:YES;
#OFFSET:-0.027;
#BPMS:0.000=106.000
,48.000=85.000
;
#STOPS:;
#DISPLAYBPM:106.000;
#BGCHANGES:;
#FGCHANGES:;

//--------------- dance-single - BRAND NEW ----------------
#NOTES:
     dance-single:
     BRAND NEW:
     Beginner:
     1:
     0,0,0,0,0:
0000
0000
0000
0000
,
0001
0000
1000
0000
,
0001
0000
1000
0000
,
0010
0010
0010
0000
,
0100
0100
0100
0000
,
0001
0000
1000
0000
,
0001
0000
0000
0000
,
1000
0000
0001
0000
,
1000
0000
0000
0000
,
0010
0000
0010
0000
,
0100
0000
0100
0000
,
0000
0001
0000
0000
,
1000
0000
0000
0000
;

//--------------- dance-single - EASY WAY ----------------
#NOTES:
     dance-single:
     EASY WAY:
     Easy:
     4:
     0,0,0,0,0:
0000
0000
0000
0000
,
1000
1000
0001
1000
,
0001
0001
1000
0001
,
0010
0010
0100
0100
,
1000
0000
0000
0000
0001
0000
0000
0000
1000
0000
0000
0001
0000
0000
0000
0000
,
1001
0000
0000
0001
0000
0100
0000
0001
,
0000
0000
0000
1000
0000
0000
0000
0000
,
1001
0000
0000
1000
0000
0100
0000
1000
,
0000
0000
0000
0001
0000
0000
0000
0000
,
0010
0001
1000
0100
,
0010
0000
0000
0000
0100
0000
0000
0110
,
0000
0000
0001
0000
0000
1000
0000
0000
,
1001
0000
0000
0000
;

//--------------- dance-single - GET REAL ----------------
#NOTES:
     dance-single:
     GET REAL:
     Medium:
     5:
     0,0,0,0,0:
0000
0000
0000
0000
,
0001
1000
0001
0000
1000
1000
0010
0000
,
1000
0001
1000
0000
0001
0001
0100
0000
,
1010
1100
0011
0101
,
0100
0000
0010
0000
0100
0000
0000
0000
0001
0000
0000
1000
0000
0000
0000
0000
,
0100
0000
1000
0010
0000
1000
0000
1001
,
0000
0000
0001
1000
0001
1000
0001
0000
,
0100
0000
0001
0010
0000
0001
0000
1001
,
0000
0000
0000
0110
0000
0000
0000
0010
,
0100
0000
0001
0000
1000
0001
1000
0000
,
0001
0000
0000
0100
0000
0000
0000
0000
0010
0000
0000
0000
0000
0000
1100
0000
,
0000
0000
0000
0000
1000
0000
0000
0001
0000
0000
1000
0000
0000
0100
0000
0000
,
0010
0110
0000
0000
;

//--------------- dance-single - SO HARD TO DO ----------------
#NOTES:
     dance-single:
     SO HARD TO DO:
     Hard:
     9:
     0,0,0,0,0:
0000
0000
0000
0000
0000
0000
0000
0000
0000
0000
0000
0000
0000
1001
0000
0000
,
0001
0000
1000
0100
1000
0000
0010
0100
0000
0010
0100
0000
0101
0000
0001
0000
,
1000
0010
0000
1000
0100
0000
1000
0000
0010
0100
0010
0100
0010
0000
0100
0000
,
0101
0000
0001
0000
1001
0000
1000
0000
1010
0000
0010
0000
0110
0000
0100
0001
,
0100
0010
0100
0000
0010
0000
1000
0000
1100
0000
0000
0011
0000
0000
0000
0000
,
0100
0000
0000
0001
0010
0000
0001
0000
1000
0010
1000
0000
0100
0000
0110
0000
,
0000
0000
0010
0001
0010
0000
0001
0000
0100
0010
0100
0000
0010
0000
1000
0000
,
0100
0000
0000
1000
0010
0000
0100
0000
0001
0100
0001
0000
0010
0000
0100
0000
,
0010
0001
0010
0001
0010
0000
0110
0000
0000
0000
0000
0000
0000
0000
1001
0000
,
1000
0000
0100
1000
0100
0000
1000
0000
0001
0000
0010
0000
0011
0000
0000
0000
,
0001
0100
0000
0001
0000
1000
0010
0000
1000
0000
0000
0001
0000
0000
0101
0000
,
0000
0000
0100
0000
0110
0000
0000
0010
1000
0000
0010
0000
0100
0001
0100
0000
,
0010
0220
0000
0330
;
