#TITLE:i'm confused;
#SUBTITLE:;
#ARTIST:bill wurtz;
#TITLETRANSLIT:;
#SUBTITLETRANSLIT:;
#ARTISTTRANSLIT:;
#GENRE:;
#CREDIT:8Chasey;
#MUSIC:i'm confused.ogg;
#BANNER:;
#BACKGROUND:;
#CDTITLE:;
#SAMPLESTART:23.12;
#SAMPLELENGTH:12;
#SELECTABLE:YES;
#OFFSET:-1.056;
#BPMS:0.000=174.000;
#STOPS:;
#DISPLAYBPM:174.000;
#BGCHANGES:-1.500=im confused.avi=1.000=0=0=0=StretchNoLoop====,
123.000=i'm confused-bg.png=1.000=1=0=1===CrossFade_Fastest==,
99999.000=-nosongbg-=1.000=0=0=0=StretchNoLoop====
;
#FGCHANGES:;

//--------------- dance-single - ----------------
#NOTES:
     dance-single:
     :
     Beginner:
     1:
     0,0,0,0,0:
0000
0000
0000
0000
,
0001
0000
0000
0000
,
1000
0000
0000
0000
,
0100
0000
0000
0000
,
0100
0000
0000
0000
,
1000
0000
0000
0000
,
0001
0000
0000
0000
,
0010
0000
0000
0000
,
0010
0000
0000
0000
,
0100
0000
0000
0000
,
0010
0000
0000
0000
,
1000
0000
0000
0000
,
0001
0000
0000
0000
,
0010
0000
0000
0000
,
0100
0000
0000
0000
,
0001
0000
0000
0000
,
1000
0000
0000
0000
,
0001
0000
0001
0000
,
0001
0000
0000
0000
,
1000
0000
1000
0000
,
1000
0000
0000
0000
,
0010
0000
0010
0000
,
0010
0000
0000
0000
,
0100
0000
0100
0000
,
0010
0000
0000
0000
,
1000
0000
1000
0000
,
1000
0000
0000
0000
,
0001
0000
0001
0000
,
0001
0000
0000
0000
,
0100
0000
0010
0000
,
0100
0000
0000
0000
;

//--------------- dance-single - ----------------
#NOTES:
     dance-single:
     :
     Easy:
     2:
     0,0,0,0,0:
0000
0000
0000
0000
,
0001
0000
1000
0000
,
0001
0000
0000
0000
,
0100
0000
0100
0000
,
0100
0000
0010
0000
,
1000
0000
0001
0000
,
1000
0000
0000
0000
,
0001
0000
0001
0000
,
1000
0000
1000
0000
,
0100
0000
0100
0000
,
0010
0000
0100
0000
,
1000
0000
0001
0000
,
1000
0000
0001
0000
,
0100
0000
0000
0100
,
0001
0000
1000
0000
,
0100
0000
0010
0000
,
0000
0100
0010
0000
,
1000
0000
0000
1000
,
0100
0000
1000
0000
,
0001
0000
0000
0001
,
0100
0000
0001
0000
,
0010
0000
0000
0100
,
0010
0000
0100
0000
,
1000
0000
0100
0000
,
0010
0000
0001
0000
,
0100
0000
0000
0001
,
0100
0000
0100
0000
,
0010
0000
0000
1000
,
0010
0000
0010
0000
,
0100
0000
0010
0000
,
0100
0010
0000
0000
0000
0000
0000
0000
;

//--------------- dance-single - ----------------
#NOTES:
     dance-single:
     :
     Medium:
     5:
     0,0,0,0,0:
0000
0000
0000
0000
,
1000
0001
1000
0100
,
0010
0100
0010
0000
,
0001
0010
0001
0000
,
1000
0100
1000
0000
,
0001
1000
0001
0001
,
1000
0010
1000
0000
,
0100
1000
0010
0000
,
0100
0001
0010
0000
,
0100
0100
0100
0000
,
1000
0100
0010
0000
,
0001
0001
0010
0001
,
1000
0010
1000
0100
,
0000
0100
1000
0001
,
0100
0000
0001
1000
,
0010
0100
0010
0000
,
1001
0000
0001
1000
,
0001
0000
0100
0001
,
0010
0100
1000
0001
,
1000
0000
0100
1000
,
0010
0100
0100
0010
,
0100
0000
0001
0010
,
0001
0000
1000
0100
,
1000
0000
0001
0001
,
0010
0001
0000
1000
,
0010
1000
0010
0000
,
0100
0001
0100
0000
,
0001
1000
0001
0000
,
1000
0010
0100
0001
,
0100
0010
1000
0001
,
0100
0010
0000
0000
0000
0000
0000
0000
;

//--------------- dance-single - ----------------
#NOTES:
     dance-single:
     :
     Hard:
     7:
     0,0,0,0,0:
0000
0000
0000
0000
,
0001
0000
0001
1000
0000
0001
1000
0001
,
0000
0100
0001
0000
1000
0000
0010
1000
,
0000
0010
1000
0000
0001
1000
0000
0001
,
0100
0000
0001
0010
0000
0001
1000
0001
,
0100
0000
0001
1000
0100
1000
0010
1000
,
0000
0001
1000
0000
0100
1000
0000
0010
,
1000
0000
0100
0010
0000
0100
0010
0000
,
0001
1000
0000
0001
1000
0100
1000
0000
,
1100
0000
0010
0001
0000
1000
0001
0100
,
0000
0100
0001
1000
0001
1000
0100
0000
,
1000
0010
0000
1000
0001
0000
0100
0001
,
1000
0010
1000
0000
0001
0000
1100
0000
,
0010
0001
0010
0001
0000
1000
0001
0100
,
0000
0001
0100
0000
0001
0000
1000
0010
,
0000
0010
1000
0000
0100
1000
0001
0000
,
0101
0000
0100
0000
0001
1000
0001
0000
,
2000
0000
0000
3010
1000
0000
0001
0000
,
0100
0001
1000
0000
0001
0000
0010
0000
,
0002
0000
0000
0103
0001
0000
1000
0000
,
0010
1000
0010
0000
1000
0000
0200
0000
,
0010
0000
0000
0310
0100
0000
1000
0100
,
1000
0000
0001
0100
0001
0000
1000
0000
,
0001
0000
0100
0010
0000
0100
0010
0000
,
1000
0000
0001
0000
1000
0010
1000
0000
,
1001
0000
0001
0010
0001
0000
0100
0001
,
0100
0000
0001
0000
1000
0010
0100
0000
,
0001
0000
0010
0001
0000
1000
0001
0000
,
1000
0000
0100
0010
0100
0010
0100
0000
,
0010
0000
0001
1000
0000
1000
0001
0000
,
0100
0010
0000
0000
0000
0000
0000
0000
;
