#TITLE:i wanna go home;
#SUBTITLE:;
#ARTIST:bill wurtz;
#TITLETRANSLIT:;
#SUBTITLETRANSLIT:;
#ARTISTTRANSLIT:;
#GENRE:;
#CREDIT:8Chasey 2026 / BWE Volume 3;
#MUSIC:i wanna go home.ogg;
#BANNER:;
#BACKGROUND:;
#CDTITLE:;
#SAMPLESTART:14.600;
#SAMPLELENGTH:15.000;
#SELECTABLE:YES;
#OFFSET:0.730;
#BPMS:0.000=133.000;
#STOPS:;
#BGCHANGES:1.6=i wanna go home.mp4=1.000=1=0=0=,
71.5=i wanna go home-bg.png=1.000=1=0=0=;
#FGCHANGES:;

//--------------- dance-single - BRAND NEW ----------------
#NOTES:
     dance-single:
     BRAND NEW:
     Beginner:
     1:
     0,0,0,0,0:
0000
0000
0000
0000
,
0001
0000
1000
0000
,
0001
0000
0000
0000
,
1000
0000
0000
0000
,
0001
0000
0000
0000
,
1000
0000
0001
0000
,
1000
0000
0000
0000
,
0001
0000
0000
0000
,
1000
0000
0000
0000
,
0110
0000
0000
0000
,
0010
0000
0000
0000
,
0100
0000
0100
0000
,
0100
0000
0100
0000
,
0010
0000
0000
0000
,
0100
0000
0000
0000
,
0010
0000
0010
0000
,
0010
0000
0010
0000
;

//--------------- dance-single - EASY WAY ----------------
#NOTES:
     dance-single:
     EASY WAY:
     Easy:
     2:
     0,0,0,0,0:
0000
0000
0000
0000
,
1001
0000
0001
0000
,
0100
0001
0100
0000
,
0010
0000
1000
0000
,
0001
0000
1000
0001
,
1000
0000
0100
0000
,
0010
0100
0010
0000
,
0001
1000
0001
0000
,
1000
0000
0000
0000
,
0110
0000
0010
0000
,
1000
0001
1000
0000
,
0010
0000
1000
0000
,
0100
0000
0010
0010
,
0100
0000
1000
0000
,
0010
1000
0010
0000
,
0100
0000
0001
0000
,
1000
0000
0100
0010
;

//--------------- dance-single - GET REAL ----------------
#NOTES:
     dance-single:
     GET REAL:
     Medium:
     4:
     0,0,0,0,0:
0000
0000
0000
0000
,
1001
0000
0000
1000
0001
1000
0000
0100
,
0000
1000
0100
0000
0010
0000
0100
0010
,
0100
0000
0100
0000
0010
0001
0000
0010
,
0000
0001
0010
0000
0110
0000
0100
0000
,
1001
0000
1000
0000
0010
1000
0000
0010
,
0000
0100
0000
0001
0100
0000
0001
0000
,
1000
0000
0010
0000
0100
0010
0000
1000
,
0000
1000
0001
0000
1001
0000
1000
0100
,
0010
0000
0001
0010
0000
0000
0010
0001
,
0000
1000
0001
0000
0100
0000
0001
0100
,
0001
0000
1000
0010
0000
0000
0010
1000
,
0000
0100
1000
0000
0001
0100
0001
0000
,
1010
0000
1000
0000
0100
1000
0000
0100
,
0000
0010
0100
0010
,
0011
0000
0001
0000
0100
0001
0000
1000
,
0000
0001
0010
0000
0110
0000
0100
0010
;

//--------------- dance-single - SO HARD TO DO ----------------
#NOTES:
     dance-single:
     SO HARD TO DO:
     Hard:
     7:
     0,0,0,0,0:
0000
0000
0000
0000
,
1001
0000
0000
0000
0001
0000
0010
0000
0001
0000
1000
0000
0000
0000
0100
1000
,
0000
0000
1000
0000
0100
0000
1000
0000
0010
0000
0000
0100
0001
0000
0100
0000
,
0001
0000
0001
0000
0010
0000
0001
0000
1000
0000
0010
0000
0000
0000
0100
0010
,
0000
0000
0010
0000
0100
0000
0001
0000
1000
0000
0000
0000
0001
1000
0001
0000
,
1001
0000
0000
0000
1000
0000
0010
0000
1000
0000
0001
0000
0000
0000
0100
0001
,
0000
0000
0010
0000
0001
0000
1000
0000
0010
0000
0010
0000
0100
0010
0100
0000
,
0010
0000
0100
0001
0100
1000
0100
0110
,
0000
0000
0010
0000
0010
0000
0100
0000
0001
0000
1000
0000
0100
1000
0100
0000
,
0110
0000
0010
0001
1000
0010
0010
1010
,
0000
0000
1000
0000
0100
0000
1000
0000
0001
0000
0010
0000
0001
0100
0001
0000
,
1000
1100
0100
1000
0010
0100
0001
0101
,
0000
0000
0011
0000
0001
0000
0100
0000
0010
0000
0000
0000
1000
0001
1000
0000
,
1001
0000
0001
0010
0010
0001
0100
0110
,
0000
0000
0010
0000
1000
0000
0100
0000
0001
0000
0100
0000
1000
0100
1000
0000
,
0010
0100
0100
0010
1000
0001
0100
0101
,
0000
0000
0100
0000
0010
0100
0010
0000
0110
0000
0100
0000
0001
1000
0001
0000
;

//--------------- dance-solo - BABY MODE ----------------
#NOTES:
     dance-solo:
     BABY MODE:
     Beginner:
     1:
     0,0,0,0,0:
000000
000000
000000
000000
,
000010
000000
010000
000000
,
000010
000000
000000
000000
,
100000
000000
000000
000000
,
000001
000000
000000
000000
,
010000
000000
000010
000000
,
010000
000000
000000
000000
,
000001
000000
000000
000000
,
100000
000000
000000
000000
,
000010
000000
010000
000000
,
000010
000000
000000
000000
,
010000
000000
000010
000000
,
010000
000000
000000
000000
,
000100
000000
000100
000000
,
001000
000000
001000
000000
,
000100
000000
000100
000000
,
001000
000000
000100
000000
;
