#TITLE:i wanna be with you;
#SUBTITLE:;
#ARTIST:bill wurtz;
#TITLETRANSLIT:;
#SUBTITLETRANSLIT:;
#ARTISTTRANSLIT:;
#GENRE:;
#CREDIT:8Chasey 2026 / BWE Volume 3;
#MUSIC:i wanna be with you.ogg;
#BANNER:;
#BACKGROUND:;
#CDTITLE:;
#SAMPLESTART:24.95;
#SAMPLELENGTH:15;
#SELECTABLE:YES;
#OFFSET:0.676;
#BPMS:0.000=110.000;
#STOPS:;
#BGCHANGES:;
#FGCHANGES:;

//--------------- dance-single - BRAND NEW ----------------
#NOTES:
     dance-single:
     BRAND NEW:
     Beginner:
     1:
     0,0,0,0,0:
0000
0000
0000
0000
,
0000
0000
0000
0000
,
0001
0000
0000
0000
,
1000
0000
0000
0000
,
0010
0000
0000
0000
,
0100
0000
0000
0000
,
0001
0000
1000
0000
,
1000
0000
0001
0000
,
1001
0000
0000
0000
,
1000
0000
1000
1000
,
1000
0000
0000
0000
,
0001
0000
0001
0001
,
0001
0000
0000
0000
,
0100
0000
0010
0000
,
0100
0000
0000
0000
,
0010
0000
0100
0000
,
0010
0000
0000
0000
,
1000
0000
0001
0000
,
1000
0000
0000
0000
,
0001
0000
1000
0000
,
0001
0000
0000
0000
;

//--------------- dance-single - EASY WAY ----------------
#NOTES:
     dance-single:
     EASY WAY:
     Easy:
     3:
     0,0,0,0,0:
0000
0000
0000
0000
,
0000
0000
0000
0000
,
0000
0000
0001
0000
,
1000
0000
0100
1000
,
0010
0000
1000
0000
,
0001
0000
0100
0001
,
0010
0000
0100
0000
,
0010
0000
0001
1000
,
1001
0000
0001
0000
,
0100
0000
0001
1000
,
0001
0000
1000
0000
,
0010
1000
0010
0000
,
0110
0000
0000
0000
0100
0000
0000
0001
,
0000
0100
0001
0000
,
0010
0000
0000
0000
0100
0000
0000
1000
,
0000
0100
1000
0000
,
0001
0000
0000
0000
1000
0000
0000
1000
,
0000
1000
0001
0000
,
0010
0000
0000
0000
0001
0000
0000
0001
,
0000
0001
1000
0100
,
0110
0000
0000
0000
;

//--------------- dance-single - GET REAL ----------------
#NOTES:
     dance-single:
     GET REAL:
     Medium:
     6:
     0,0,0,0,0:
0000
0000
0000
0000
,
0000
0000
0000
0000
,
0000
0000
0001
1000
,
0001
0000
0010
0000
0001
0000
1000
0001
,
1000
0100
1000
0001
,
1000
0000
0010
0000
1000
0000
0001
1000
,
0001
0100
0010
0100
,
0001
0000
0000
0000
1000
0000
0000
0000
0100
0000
0000
0010
0000
0000
0100
0000
,
0110
0000
0010
0000
0000
0001
0000
0100
,
0001
0000
0100
0000
0010
0000
1000
0100
,
1000
0000
0001
0000
1000
0010
0000
0100
,
0001
1000
1001
0000
,
0001
0000
1000
0000
1100
0000
0000
1000
,
0000
0010
1000
0000
0001
1000
0001
0000
,
1000
0000
0001
0000
0101
0000
0000
0001
,
0000
0000
0010
0000
0001
0000
0000
0000
1000
0000
0000
0001
0000
0000
1000
0000
,
0001
0000
0100
0000
0110
0000
0000
0010
,
0000
0000
0100
0000
0010
0000
0000
0000
1000
0000
0000
0001
0000
0000
1000
0000
,
0000
0001
0100
0000
0110
0000
0000
0010
,
0000
0000
1000
0000
0010
0000
0000
0000
1000
0000
0000
0001
0000
0000
1000
0000
,
0001
0000
0100
0010
0000
0000
0000
0000
;

//--------------- dance-single - SO HARD TO DO ----------------
#NOTES:
     dance-single:
     SO HARD TO DO:
     Hard:
     7:
     0,0,0,0,0:
0000
0000
0000
0000
,
0000
0000
0000
0000
,
0000
0000
0000
0000
0001
0000
0100
0001
,
1000
0000
0100
0000
1000
0010
1000
0000
,
1001
0000
0001
0001
0010
0000
0001
0010
,
0100
0000
1000
0100
0010
0000
0100
0000
,
0110
0000
0010
0001
0100
0000
0001
1000
,
0100
0000
0000
0000
1000
0000
0010
0000
1010
0000
0000
1000
0000
0000
0001
0000
,
0011
0000
0001
0100
0001
0100
0000
0010
,
1000
0010
1000
0000
0010
0000
0000
0000
0100
0000
0010
0000
0100
0000
0001
0000
,
0101
0000
0001
0010
0001
1000
0000
0100
,
1100
0000
0000
1000
0000
0000
0100
0000
0110
0000
0000
0000
0000
0000
0000
0000
,
1001
0000
0000
0001
0000
0000
1000
0000
0001
0000
0000
0000
0010
0000
0001
0000
,
0000
0000
0000
0000
0000
0000
0000
0000
0010
0000
0000
0000
0000
0000
0000
0000
0001
0000
0000
0000
0000
0000
0000
0000
0100
0000
0000
0000
0000
0000
0000
0000
1000
0000
0000
0000
0000
0000
0000
0000
0000
0000
0000
0000
0000
0000
0000
0000
0100
0000
0000
0000
0000
0010
0000
0000
0000
0000
0100
0000
0000
0000
0000
0000
,
0010
0000
0000
0010
0000
0000
1000
0000
0010
0000
0000
0000
0100
0000
0001
0000
,
0000
0000
1000
0000
0100
0000
0000
0000
0010
0000
0000
0011
0000
0000
0001
0000
,
1001
0000
0000
0000
1000
0000
0010
0000
1000
0000
0000
0010
0000
0000
0100
0000
,
0000
0000
0001
0000
0100
0000
0000
0000
0110
0000
0000
0010
0000
0000
1000
0000
,
0010
1000
0100
1000
0001
0000
0000
1001
,
0000
0000
1000
0000
0010
0000
0001
0000
0100
0000
0000
1000
0000
0000
0001
0000
,
1001
0000
0100
0020
0000
0000
0000
0000
,
0000
0000
0000
0000
,
0030
0000
0000
0000
;
