#TITLE:i love you;
#SUBTITLE:;
#ARTIST:Bill Wurtz;
#TITLETRANSLIT:;
#SUBTITLETRANSLIT:;
#ARTISTTRANSLIT:;
#GENRE:;
#CREDIT:;
#MUSIC:i love you.ogg;
#BANNER:i love you.png;
#BACKGROUND:;
#CDTITLE:cdtitle.png;
#SAMPLESTART:40.3;
#SAMPLELENGTH:12;
#SELECTABLE:YES;
#OFFSET:0.426;
#BPMS:0.000=99.000;
#STOPS:;
#BGCHANGES:;
#FGCHANGES:;

//--------------- dance-single - ----------------
#NOTES:
     dance-single:
     :
     Beginner:
     3:
     0,0,0,0,0:
0000
0000
0000
0000
,
0001
0001
0001
0000
,
1000
0000
1001
0000
,
1000
1000
1000
0000
,
0001
0000
1001
0000
,
0110
0000
0100
0000
,
0110
0000
0010
0000
,
1000
0000
0001
0000
,
1001
0000
0100
0000
,
0001
0001
0001
0000
,
0010
0010
0010
0000
,
1000
1000
1000
0000
,
0100
0100
0100
0000
,
1000
0000
0100
0000
,
0001
0000
0100
0000
,
0010
0010
0010
0000
,
0110
0000
0000
0000
,
0001
0001
0001
0000
,
1001
0000
0100
0000
,
1000
1000
1000
0000
,
1001
0000
0100
0000
,
0010
0010
0010
0000
,
0110
0000
0100
0000
,
0001
0001
0001
0000
,
1000
1000
1000
0000
,
1001
0000
0110
0110
,
0110
0000
0001
0000
,
1001
0000
0110
0110
,
0110
0000
1000
0000
,
0100
0100
0100
0000
,
0010
0010
0010
0000
,
0001
0000
1000
0000
,
1001
0000
0000
0000
;

//--------------- dance-single - ----------------
#NOTES:
     dance-single:
     :
     Easy:
     4:
     0,0,0,0,0:
0000
0000
0000
0000
,
0001
0010
1000
0100
,
0010
0011
0010
1010
,
0100
0001
0100
1000
,
0100
0110
0010
0010
,
1000
0100
0001
0100
,
0001
0010
1000
0010
,
0101
0001
1100
1000
,
1001
0000
0000
0000
,
0001
0010
1000
0010
,
0100
1000
0010
0000
,
1000
0010
0001
0010
,
0100
0001
0010
0000
,
1000
0010
0001
1000
,
0100
0001
0010
0100
,
1000
0001
1000
0001
,
1001
0000
0110
0000
,
0001
0000
0100
0000
0001
0000
0001
0001
,
0000
0010
0000
0010
,
1000
0000
0100
0000
1000
0000
1000
1000
,
0000
0010
0000
0010
,
0100
0000
0010
0000
0100
0000
0010
0010
,
0000
0100
0000
0100
,
1001
0000
0100
0010
,
1001
0000
0010
1000
,
0001
0000
0001
0000
0010
0001
0010
0000
,
0100
0100
0100
0000
,
1000
0000
1000
0000
0010
1000
0010
0000
,
0100
0100
0100
0000
,
1001
1001
1000
0100
,
1001
1001
0001
0100
,
0010
1000
0010
0001
,
0100
0100
0000
0000
0000
0000
0000
0000
;

//--------------- dance-single - ----------------
#NOTES:
     dance-single:
     :
     Medium:
     5:
     0,0,0,0,0:
0000
0000
0000
0000
,
0001
0010
1000
0100
,
0110
0000
0000
0001
0100
1000
0100
0000
,
0010
1000
0001
0100
,
1001
0000
0000
1000
1000
0001
0001
0000
,
0010
0100
1000
0000
0010
0100
0001
0000
,
1010
0000
0011
0000
0100
0100
0010
0000
,
0010
0001
0100
0000
0010
1000
0100
0000
,
1100
0000
0000
0000
0001
0100
0001
0100
,
0010
1000
0100
0001
,
0010
0100
0010
0001
1000
0000
0010
0000
,
1000
0100
0001
1000
,
0010
0001
0100
0010
1000
0000
0110
0000
,
0100
0000
0001
0000
1000
0000
0010
0100
,
0001
0000
1000
0100
1000
0001
0100
0010
,
0100
0101
1100
0100
,
0110
0000
0000
0000
,
1000
0010
0100
0000
0010
1000
0100
0010
,
0000
0001
1000
0001
,
0001
0010
0100
0000
0010
0001
0100
0010
,
0000
1000
0001
1000
,
0100
0010
0001
1000
0100
0010
0100
0010
,
0000
0000
1000
0000
0001
0000
0010
0110
,
0000
0000
1000
0000
0000
0000
0001
1001
,
0000
0100
0001
1000
,
0010
1000
0010
0000
0100
0001
0100
0000
,
0001
1001
1000
1100
,
0010
0001
0010
0000
0100
1000
0100
0000
,
0011
1010
0100
0100
,
0001
0010
0001
1000
0100
0100
1000
0010
,
0100
0000
0000
0100
0000
0000
0001
0000
1000
0000
1000
0000
0000
0000
0000
0000
,
1000
0100
1000
0000
0001
0100
0001
0010
,
0100
0100
0000
0000
0000
0000
0000
0000
;

//--------------- dance-single - ----------------
#NOTES:
     dance-single:
     :
     Hard:
     6:
     0,0,0,0,0:
0000
0000
0000
0000
,
0001
0000
0000
0010
0001
0000
0000
0000
1000
0000
0000
0010
1000
0000
0000
0000
,
0200
0300
1000
0010
,
0001
0000
0000
0100
0001
0000
0000
0000
1000
0000
0000
0100
1000
0000
0000
0000
,
0110
0000
0000
0000
1000
0000
1000
0000
0000
0000
0001
0010
0001
0000
1000
0010
,
1000
0000
0100
0010
0001
0000
0100
0010
,
1000
0000
0010
1000
0001
0100
0001
1000
,
1100
0000
0010
0001
0101
0000
0010
1000
,
2002
0000
3003
0000
,
1000
0000
0000
0010
0100
0000
0010
0000
0100
0000
0000
0000
1001
0000
0000
0000
,
0001
0000
0000
0010
0100
0000
0010
0000
0100
0000
0000
0000
0110
0000
0000
0000
,
1000
0010
0010
0100
0001
0010
0010
0010
,
0110
0000
1000
0001
0000
0000
0000
0000
0010
0000
0001
0000
0010
0000
0100
0000
,
1000
0010
0000
0100
0000
0100
0000
0100
0001
0010
0000
0100
0000
0100
0000
0100
,
1000
0001
1000
0001
,
0011
0001
1000
0000
1010
1000
0001
0000
,
2002
0000
0000
0000
0000
0000
0000
0000
3003
0000
0000
0000
0000
0010
1000
0000
,
0001
0000
0011
0000
0011
0000
0100
0002
,
0000
0000
0003
0000
,
1000
0000
1010
0000
1010
0000
0100
2000
,
0000
0000
3000
0000
,
1010
0000
0011
0000
0100
0000
0001
2000
,
0000
0000
0000
0000
3000
0000
1000
2000
,
0000
0000
0000
0000
3001
0000
0100
0000
0001
0000
0001
0010
0000
0000
2100
0000
,
0000
0000
0000
0000
3001
0000
0000
0000
0010
0001
0000
0000
1000
0000
0000
0000
,
0100
0010
0001
1000
0001
1000
0100
0001
,
1000
0010
0100
1000
0010
0100
0001
0000
,
0001
1000
0001
0010
1000
0010
0100
1000
,
0010
0100
0001
1000
0001
0010
0100
0000
,
2020
3030
0022
0033
,
2020
3030
0022
0033
,
0001
0000
0000
0100
0001
0000
0000
0000
1000
0000
0000
0100
1000
0000
0010
0000
,
0110
0010
0000
0000
0000
0000
0000
0000
;

//--------------- dance-solo - ----------------
#NOTES:
     dance-solo:
     :
     Beginner:
     1:
     0,0,0,0,0:
000000
000000
000000
000000
,
000001
000000
001000
000000
,
000001
000000
000000
000000
,
100000
000000
001000
000000
,
100000
000000
000000
000000
,
000001
000000
000001
000000
,
100000
000000
100000
000000
,
000001
000000
100000
000000
,
100001
000000
000000
000000
,
100000
000000
000100
000000
,
100000
000000
000000
000000
,
000001
000000
000100
000000
,
000001
000000
000000
000000
,
100000
000000
100000
000000
,
000001
000000
000001
000000
,
100000
000000
000001
000000
,
100001
000000
000000
000000
,
010000
000000
000000
000000
,
000100
000000
000000
000000
,
000010
000000
000000
000000
,
000100
000000
000000
000000
,
001000
000000
000000
000000
,
000100
000000
000000
000000
,
001100
000000
000000
000000
,
100001
000000
000000
000000
,
100000
000000
000000
000000
,
000010
000000
000010
000000
,
000001
000000
000000
000000
,
010000
000000
010000
000000
,
000100
000000
001000
000000
,
000100
000000
001000
000000
,
000001
000000
100000
000000
,
010010
000000
000000
000000
;
