#TITLE:how am i spost;
#SUBTITLE:(sped up);
#ARTIST:Bill Wurtz feat. Flide Hamulton;
#TITLETRANSLIT:;
#SUBTITLETRANSLIT:;
#ARTISTTRANSLIT:;
#GENRE:;
#CREDIT:;
#MUSIC:how am i spost (Bill Wurtz ft. Flide Hamulton).mp3;
#BANNER:;
#BACKGROUND:;
#CDTITLE:;
#SAMPLESTART:61.930;
#SAMPLELENGTH:12.000;
#SELECTABLE:YES;
#OFFSET:-0.420;
#BPMS:0.000=156.051;
#STOPS:;
#BGCHANGES:;
#FGCHANGES:;

//--------------- dance-single - SUPER EASY ----------------
#NOTES:
     dance-single:
     SUPER EASY:
     Beginner:
     1:
     0,0,0,0,0:
0000
0000
0000
0000
,
0000
0000
0000
0000
,
0000
0000
0000
0000
,
0000
0000
0000
0000
,
0000
0000
0000
0000
,
0000
0000
0000
0000
,
0000
0000
0000
0000
,
0000
0000
0000
0000
,
0001
0000
0000
0000
,
1000
0000
0001
0000
,
1000
0000
0000
0000
,
0001
0000
1000
0000
,
0010
0000
0000
0000
,
0100
0000
0010
0000
,
0100
0000
0000
0000
,
0010
0000
0100
0000
,
0001
0000
0000
0000
,
0000
0000
0000
0000
,
0010
0000
0000
0000
,
0000
0000
0000
0000
,
1000
0000
0000
0000
,
0000
0000
0000
0000
,
0100
0000
0000
0000
,
0100
0000
0000
0000
,
0001
0000
0000
0000
,
1000
0000
1000
0000
,
1000
0000
0000
0000
,
0001
0000
0000
0000
,
1000
0000
0000
0000
,
0001
0000
0001
0000
,
0001
0000
0000
0000
,
1000
0000
0000
0000
,
0010
0000
0000
0000
,
0100
0000
0100
0000
,
0100
0000
0000
0000
,
0010
0000
0000
0000
,
0100
0000
0000
0000
,
0010
0000
0010
0000
,
0010
0000
0000
0000
,
0100
0000
0000
0000
,
0001
0000
1000
0000
,
0001
0000
0000
0000
,
1000
0000
0000
0000
,
0001
0000
0000
0000
,
1000
0000
0001
0000
,
1000
0000
0000
0000
,
0001
0000
0000
0000
,
1000
0000
0000
0000
,
0010
0000
0100
0000
,
0010
0000
0000
0000
,
0100
0000
0000
0000
,
0010
0000
0000
0000
,
0100
0000
0010
0000
,
0100
0000
0000
0000
,
0010
0000
0000
0000
,
0100
0000
0000
0000
,
1001
0000
0000
0000
;

//--------------- dance-single - NO HARM ----------------
#NOTES:
     dance-single:
     NO HARM:
     Easy:
     2:
     0,0,0,0,0:
0000
0000
0000
0000
,
0000
0000
0000
0000
,
0000
0000
0000
0000
,
0000
0000
0000
0000
,
0000
0000
0000
0000
,
0000
0000
0000
0000
,
0000
0000
0000
0000
,
0000
0000
0000
0000
,
0001
0001
0001
0000
,
0000
1000
0001
0000
,
1000
1000
1000
0000
,
0000
0001
1000
0000
,
0010
0010
0010
0000
,
0000
0100
0010
0000
,
0100
0100
0100
0000
,
0000
0010
0100
0000
,
0101
0000
0000
0000
,
0000
0000
0000
0000
,
0011
0000
0000
0000
,
0000
0000
0000
0000
,
1010
0000
0000
0000
,
0000
0000
0000
0000
,
1100
0000
0000
0000
,
1001
0000
0000
0000
,
0001
0000
0001
0000
,
0001
0000
0000
0000
,
0010
0000
0001
0000
,
0010
0000
0001
0000
,
1000
0000
1000
0000
,
1000
0000
0000
0000
,
0010
0000
1000
0000
,
0010
0000
1000
0000
,
0100
0000
0100
0000
,
0100
0000
0000
0000
,
1000
0000
0001
0000
,
0100
0000
0000
0000
,
0010
0000
0010
0000
,
0010
0000
0000
0000
,
1000
0000
0001
0000
,
0010
0000
0000
0000
,
1001
0000
0001
0000
,
0000
0000
1000
0000
,
0001
0000
1000
0000
,
0000
0100
1000
0000
,
0110
0000
0100
0000
,
0000
0000
0010
0000
,
0100
0000
0010
0000
,
0000
0001
1000
0000
,
0001
0100
0001
0000
,
0000
0000
1000
0000
,
0010
0000
1000
0000
,
0000
0000
0100
0000
,
1000
0100
1000
0000
,
0000
0000
0001
0000
,
0010
0000
0001
0000
,
0000
0000
0100
0000
,
0010
0000
0000
0000
;

//--------------- dance-single - GET REAL ----------------
#NOTES:
     dance-single:
     GET REAL:
     Medium:
     4:
     0,0,0,0,0:
0000
0000
0000
0000
,
0000
0000
0000
0000
,
0000
0000
0000
0000
,
0000
0000
0000
0000
,
0001
0000
1000
0000
,
0000
0001
1000
0000
,
1000
0000
0001
0000
,
0000
1000
1001
0000
,
0001
0010
0001
1000
,
0000
0100
1000
0000
,
1000
0010
1000
0001
,
0000
0100
0001
0000
,
0010
0001
0100
0001
,
0000
1000
1000
0000
,
0010
1000
0100
1000
,
0000
0001
0001
0000
,
0101
0000
0001
0000
,
0000
0000
1000
0000
,
1100
0000
1000
0000
,
0000
0000
0001
0000
,
0011
0000
0010
0000
,
0100
0000
1000
0000
,
1010
0000
0010
0000
,
0100
0000
0001
0000
,
0100
0100
0100
0000
,
0001
0000
1000
0000
,
0010
0010
0010
0000
,
1000
0000
0100
0000
,
1000
1000
1000
0000
,
0010
0000
0100
0000
,
0001
0001
0001
0000
,
1000
0000
0010
0000
,
0100
0001
0100
0000
,
0010
0000
1000
0000
,
0100
1000
0100
0000
,
0010
0000
0001
0000
,
1000
0000
0010
1000
,
0010
0000
0100
0001
,
0010
0000
0010
0001
,
0010
0000
0100
0000
,
1001
0000
0001
0000
,
1000
0010
1000
0000
,
0100
0000
1000
0000
,
0001
0010
0001
0000
,
0110
0000
0100
0000
,
1000
0100
1000
0000
,
0010
0000
0100
0000
,
0001
0100
0001
0000
,
1010
0000
1000
0000
,
0100
0010
0001
0000
,
0011
0000
0001
0000
,
0100
0010
1000
0000
,
0010
1000
0010
1000
,
0001
0001
0100
0100
,
0001
0010
0001
0000
,
1000
0100
0100
0000
,
1001
0000
0000
0000
;

//--------------- dance-single - FLIPPING HARD ----------------
#NOTES:
     dance-single:
     FLIPPING HARD:
     Hard:
     6:
     0,0,0,0,0:
0000
0000
0000
0000
,
0000
0000
0000
0000
,
0000
0000
0000
0000
,
0000
0000
0000
0000
,
0010
0000
0000
0000
0001
0000
0000
0100
,
0000
0001
1000
0000
,
0010
0000
0000
0000
1000
0000
0000
0100
,
0000
0010
0110
0000
,
1000
0010
1000
0000
0010
0000
1000
0010
,
0000
1000
0000
0010
1000
0000
1000
0000
,
0001
0010
0001
0000
0010
0000
0001
0010
,
0000
0001
0000
0010
0001
0000
0001
0000
,
0100
0010
0100
0000
0100
0000
0010
0100
,
0000
0010
0000
0100
0010
0000
0010
0000
,
1000
0001
1000
0000
0001
0000
0010
0001
,
0000
1000
0000
0001
1000
0000
0100
0000
,
1000
0000
1000
0000
0001
0000
1000
0010
,
0000
1000
0000
0000
0001
0000
0100
0000
,
0001
0000
0001
0000
1000
0000
0001
0010
,
0000
0100
0000
0000
1000
0000
0010
0000
,
0100
0001
0100
0000
0001
0000
0000
1000
,
0000
0010
0000
0000
1000
0000
1000
0000
,
0100
1000
0100
0000
1000
0000
0001
0100
,
0000
0001
0000
0000
0001
0000
1000
0000
,
0010
1000
0001
0000
0100
0001
0100
0010
,
0000
0100
0000
0001
0100
0000
0001
0000
,
0010
0001
1000
0000
0100
1000
0010
0100
,
0000
0001
0000
0100
0001
1000
0001
0000
,
0010
0001
1000
0000
0100
1000
0100
0010
,
0000
0100
0000
1000
0100
0000
1000
0000
,
0010
1000
0001
0000
0100
0001
0010
0100
,
0000
1000
0000
0100
1000
0001
1000
0000
,
0001
0001
0100
0000
0001
0010
0001
0100
,
0000
0010
0000
1000
0001
0000
1001
0000
,
1000
1000
0100
0000
1000
0010
1000
0100
,
0000
0010
0000
0100
0010
0000
0110
0000
,
0010
0010
0100
0000
1000
0000
0010
1000
,
0000
0001
0000
1000
0001
0000
0010
0000
,
0100
0100
1000
0000
0001
0000
1000
0001
,
0000
0010
0000
0010
0001
0000
0100
0000
,
0101
0000
0010
0000
0100
1000
0001
0100
,
0000
0010
1000
0000
1010
0000
0000
0000
,
1100
0000
0010
0000
0001
0000
0010
0001
,
0000
1000
0001
0000
0011
0000
0000
0000
,
0110
0000
1000
0000
0100
0000
0010
0100
,
0000
1000
0001
0000
1001
0000
0000
0000
,
0110
0000
0110
0000
1001
0000
0010
0001
,
0000
0010
0000
0100
1000
0000
1010
0000
,
0011
0000
1000
0000
0100
0000
1000
0010
,
0000
1000
0001
0000
0100
0000
0010
0000
,
1010
0000
0001
0000
0100
0000
0010
1000
,
0000
0001
0100
0000
0110
0000
1001
0000
,
0100
0010
0100
0001
1000
0000
0100
1000
,
0000
1100
0000
0010
0001
0000
0011
0000
,
0010
0001
0100
0010
1000
0000
0001
0100
,
0000
0101
0000
0010
1010
0000
1000
0000
,
1001
0000
0000
0000
;

//--------------- pump-single - Beat Popper Novice Chart ----------------
#NOTES:
     pump-single:
     Beat Popper Novice Chart:
     Easy:
     3:
     0,0,0,0,0:
00100
00000
10000
00000
,
00000
00100
10000
00000
,
00100
00000
10000
00000
,
00000
00100
10000
00000
,
00100
00000
10000
00000
,
00000
00100
10000
00000
,
00100
00000
10000
00000
,
00000
00100
10001
00000
,
00010
00010
00010
00010
,
00000
00010
00000
00000
00010
00000
01000
00000
,
00010
00010
00010
00010
,
00000
00010
00000
00000
00010
00000
01000
00000
,
00010
00010
00010
00010
,
00000
00010
00000
00000
00010
00000
01000
00000
,
00010
00010
00010
00010
,
00000
00010
00000
00000
00010
00000
01000
00000
,
00010
00010
00010
00010
,
00000
00010
00000
00000
00010
00000
01000
00000
,
00010
00010
00010
00010
,
00000
00010
00000
00000
00010
00000
01000
00000
,
00010
00010
00010
00010
,
00000
00010
00000
00000
00010
00000
01000
00000
,
00010
00010
00010
00010
,
00000
00010
00000
00000
00010
00000
01000
00000
,
00010
00010
00010
00010
,
00000
00010
00000
00000
00010
00000
01000
00000
,
00010
00010
00010
00010
,
00000
00010
00000
00000
00010
00000
01000
00000
,
00010
00010
00010
00010
,
00000
00010
00000
00000
00010
00000
01000
00000
,
00010
00010
00010
00010
,
00000
00010
00000
00000
00010
00000
01000
00000
,
00010
00010
00010
00010
,
00000
00010
00000
00000
00010
00000
01000
00000
,
00010
00010
00010
00010
,
00000
00010
00000
00000
00010
00000
01000
00000
,
00010
00010
00010
00010
,
00000
00010
00000
00000
00010
00000
01000
00000
,
00010
00010
00010
00010
,
00000
00010
00000
00000
00010
00000
01000
00000
,
00100
00000
10000
00000
,
00000
00100
10000
00000
,
00100
00000
10000
00000
,
00000
00100
10000
00000
,
00100
00000
10000
00000
,
00000
00100
10000
00000
,
00100
00000
10000
00000
,
00000
00100
10000
00000
,
00100
00000
10000
00000
,
00000
00100
10000
00000
,
00100
00000
10000
00000
,
00000
00100
10000
00000
,
00100
00000
10000
00000
,
00000
00100
10000
00000
,
00100
00000
10000
00000
,
00000
00100
10001
00000
,
00101
00000
00000
00000
;

//--------------- pump-single - Beat Popper Chart ----------------
#NOTES:
     pump-single:
     Beat Popper Chart:
     Medium:
     6:
     0,0,0,0,0:
00100
00000
00000
00000
10000
00000
00000
00100
,
00000
00100
10000
00000
,
00100
00000
00000
00000
10000
00000
00000
00100
,
00000
00100
10000
00000
,
00100
00000
00000
00000
10000
00000
00000
00100
,
00000
00100
10000
00000
,
00100
00000
00000
00000
10000
00000
00000
00100
,
00000
00100
10001
00000
,
00110
00000
00000
00000
00010
00000
00000
00000
00010
00000
00000
00000
00000
00000
00000
00000
10010
00000
00000
00000
00000
00000
00000
00000
00010
00000
00000
00000
00100
00010
00000
00000
,
00000
00010
00100
00010
10010
00000
01000
00001
,
00110
00000
00000
00000
00010
00000
00000
00000
00010
00000
00000
00000
00000
00000
00000
00000
10010
00000
00000
00000
00000
00000
00000
00000
00010
00000
00000
00000
00100
00010
00000
00000
,
00000
00010
00100
00010
10010
00000
01000
00001
,
00110
00000
00000
00000
00010
00000
00000
00000
00010
00000
00000
00000
00000
00000
00000
00000
10010
00000
00000
00000
00000
00000
00000
00000
00010
00000
00000
00000
00100
00010
00000
00000
,
00000
00010
00100
00010
10010
00000
01000
00001
,
00110
00000
00000
00000
00010
00000
00000
00000
00010
00000
00000
00000
00000
00000
00000
00000
10010
00000
00000
00000
00000
00000
00000
00000
00010
00000
00000
00000
00100
00010
00000
00000
,
00000
00010
00100
00010
10011
00000
01000
00001
,
00010
00000
00000
00000
00010
00000
00000
00000
00010
00000
00000
00000
00000
00000
00000
00000
00010
00000
00000
00000
00000
00000
00000
00000
00010
00000
00000
00000
00000
00010
00000
00000
,
00000
00010
00000
00010
00010
00000
01000
00001
,
00010
00000
00000
00000
00010
00000
00000
00000
00010
00000
00000
00000
00000
00000
00000
00000
00010
00000
00000
00000
00000
00000
00000
00000
00010
00000
00000
00000
00000
00010
00000
00000
,
00000
00010
00000
00010
00010
00000
01000
00001
,
00010
00000
00000
00000
00010
00000
00000
00000
00010
00000
00000
00000
00000
00000
00000
00000
00010
00000
00000
00000
00000
00000
00000
00000
00010
00000
00000
00000
00000
00010
00000
00000
,
00000
00010
00000
00010
00010
00000
01000
00001
,
00010
00000
00000
00000
00010
00000
00000
00000
00010
00000
00000
00000
00000
00000
00000
00000
00010
00000
00000
00000
00000
00000
00000
00000
00010
00000
00000
00000
00000
00010
00000
00000
,
00000
00010
00000
00010
00010
00000
01000
00001
,
00010
00000
00000
00000
00010
00000
00000
00000
00010
00000
00000
00000
00000
00000
00000
00000
00010
00000
00000
00000
00000
00000
00000
00000
00010
00000
00000
00000
00000
00010
00000
00000
,
00000
00010
00000
00010
00010
00000
01000
00001
,
00010
00000
00000
00000
00010
00000
00000
00000
00010
00000
00000
00000
00000
00000
00000
00000
00010
00000
00000
00000
00000
00000
00000
00000
00010
00000
00000
00000
00000
00010
00000
00000
,
00000
00010
00000
00010
00010
00000
01000
00001
,
00010
00000
00000
00000
00010
00000
00000
00000
00010
00000
00000
00000
00000
00000
00000
00000
00010
00000
00000
00000
00000
00000
00000
00000
00010
00000
00000
00000
00000
00010
00000
00000
,
00000
00010
00000
00010
00010
00000
01000
00001
,
00010
00000
00000
00000
00010
00000
00000
00000
00010
00000
00000
00000
00000
00000
00000
00000
00010
00000
00000
00000
00000
00000
00000
00000
00010
00000
00000
00000
00000
00010
00000
00000
,
00000
00010
00000
00010
00010
00000
01000
00001
,
00010
00000
00000
00000
00010
00000
00000
00000
00010
00000
00000
00000
00000
00000
00000
00000
00010
00000
00000
00000
00000
00000
00000
00000
00010
00000
00000
00000
00000
00010
00000
00000
,
00000
00010
00000
00010
00010
00000
01000
00001
,
00010
00000
00000
00000
00010
00000
00000
00000
00010
00000
00000
00000
00000
00000
00000
00000
00010
00000
00000
00000
00000
00000
00000
00000
00010
00000
00000
00000
00000
00010
00000
00000
,
00000
00010
00000
00010
00010
00000
01000
00001
,
00010
00000
00000
00000
00010
00000
00000
00000
00010
00000
00000
00000
00000
00000
00000
00000
00010
00000
00000
00000
00000
00000
00000
00000
00010
00000
00000
00000
00000
00010
00000
00000
,
00000
00010
00000
00010
00010
00000
01000
00001
,
00010
00000
00000
00000
00010
00000
00000
00000
00010
00000
00000
00000
00000
00000
00000
00000
00010
00000
00000
00000
00000
00000
00000
00000
00010
00000
00000
00000
00000
00010
00000
00000
,
00000
00010
00000
00010
00010
00000
01000
00001
,
00110
00000
00000
00000
00010
00000
00000
00000
00010
00000
00000
00000
00000
00000
00000
00000
10010
00000
00000
00000
00000
00000
00000
00000
00010
00000
00000
00000
00100
00010
00000
00000
,
00000
00010
00100
00010
10010
00000
01000
00001
,
00110
00000
00000
00000
00010
00000
00000
00000
00010
00000
00000
00000
00000
00000
00000
00000
10010
00000
00000
00000
00000
00000
00000
00000
00010
00000
00000
00000
00100
00010
00000
00000
,
00000
00010
00100
00010
10010
00000
01000
00001
,
00110
00000
00000
00000
00010
00000
00000
00000
00010
00000
00000
00000
00000
00000
00000
00000
10010
00000
00000
00000
00000
00000
00000
00000
00010
00000
00000
00000
00100
00010
00000
00000
,
00000
00010
00100
00010
10010
00000
01000
00001
,
00110
00000
00000
00000
00010
00000
00000
00000
00010
00000
00000
00000
00000
00000
00000
00000
10010
00000
00000
00000
00000
00000
00000
00000
00010
00000
00000
00000
00100
00010
00000
00000
,
00000
00010
00100
00010
10010
00000
01000
00001
,
00110
00000
00000
00000
00010
00000
00000
00000
00010
00000
00000
00000
00000
00000
00000
00000
10010
00000
00000
00000
00000
00000
00000
00000
00010
00000
00000
00000
00100
00010
00000
00000
,
00000
00010
00100
00010
10010
00000
01000
00001
,
00110
00000
00000
00000
00010
00000
00000
00000
00010
00000
00000
00000
00000
00000
00000
00000
10010
00000
00000
00000
00000
00000
00000
00000
00010
00000
00000
00000
00100
00010
00000
00000
,
00000
00010
00100
00010
10010
00000
01000
00001
,
00110
00000
00000
00000
00010
00000
00000
00000
00010
00000
00000
00000
00000
00000
00000
00000
10010
00000
00000
00000
00000
00000
00000
00000
00010
00000
00000
00000
00100
00010
00000
00000
,
00000
00010
00100
00010
10010
00000
01000
00001
,
00110
00000
00000
00000
00010
00000
00000
00000
00010
00000
00000
00000
00000
00000
00000
00000
10010
00000
00000
00000
00000
00000
00000
00000
00010
00000
00000
00000
00100
00010
00000
00000
,
00000
00010
00100
00010
10011
00000
01000
00001
,
00101
00000
00000
00000
;
