#TITLE:hey jodie foster;
#SUBTITLE:;
#ARTIST:bill wurtz;
#TITLETRANSLIT:;
#SUBTITLETRANSLIT:;
#ARTISTTRANSLIT:;
#GENRE:;
#CREDIT:8Chasey 2026 / BWE Volume 3;
#MUSIC:hey jodie foster.ogg;
#BANNER:;
#BACKGROUND:;
#CDTITLE:;
#SAMPLESTART:57.340;
#SAMPLELENGTH:12.000;
#SELECTABLE:YES;
#OFFSET:0.418;
#BPMS:0.000=134.000;
#STOPS:;
#BGCHANGES:2.375=hey jodie foster.mp4=1.000=0=0=0=StretchNoLoop====,
248.75=hey jodie foster-bg.png=1.000=0=0=0=;
#FGCHANGES:;

//--------------- dance-single - BRAND NEW ----------------
#NOTES:
     dance-single:
     BRAND NEW:
     Beginner:
     2:
     0,0,0,0,0:
0000
0000
0000
0000
,
0001
0000
1000
0000
,
0001
0000
0001
0000
,
1000
0000
0001
0000
,
1000
0000
0000
0000
,
0010
0000
0100
0000
,
0100
0000
0010
0000
,
0100
0000
0100
0000
,
0010
0010
0000
0000
,
1000
0000
0001
0000
,
1000
0000
1000
0000
,
0001
0000
1000
0000
,
0001
0000
0000
0000
,
0100
0000
0010
0000
,
0010
0000
0100
0000
,
0010
0000
0010
0000
,
0100
0100
0000
0000
,
0001
0000
1000
0000
,
1000
0000
0001
0000
,
1000
0000
0001
0000
,
0001
0000
1000
0000
,
0010
0000
0100
0000
,
0010
0000
0010
0000
,
0100
0000
0010
0000
,
0100
0000
0100
0000
,
0010
0000
0100
0000
,
0010
0000
0000
0000
,
0000
0100
0100
0000
,
0010
0000
0000
0000
,
0100
0000
0010
0000
,
0100
0000
0000
0000
,
0000
0010
0010
0000
,
0100
0000
0000
0000
,
0010
0000
1000
0000
,
0000
1000
1000
0000
,
0001
0000
0000
0001
,
0001
0000
0100
0000
,
0010
0000
1000
0000
,
1000
0000
0010
0000
,
0100
0000
0001
0000
,
0001
0000
0100
0000
,
0010
0000
0000
0000
,
0010
0000
0100
0000
,
0010
0000
0100
0000
,
0001
0000
0001
0000
,
1000
0000
1000
0000
,
0001
0000
1000
0000
,
0001
0000
0001
0000
,
1000
0000
1000
0000
,
0001
0000
1000
0000
,
0001
0000
0000
0000
,
1000
0000
1000
0000
,
0001
0000
0001
0000
,
1000
0000
0001
0000
,
1000
0000
0000
0000
,
0010
0000
0000
0000
,
0100
0000
0000
0000
,
0001
0000
1000
0000
,
0001
0000
0000
0000
,
1000
0000
0001
0000
,
1000
0000
0010
0010
,
0000
0000
0100
0100
;

//--------------- dance-single - EASY WAY ----------------
#NOTES:
     dance-single:
     EASY WAY:
     Easy:
     4:
     0,0,0,0,0:
0000
0000
0000
0000
,
1001
0000
0001
0000
1000
0000
0000
0001
,
0000
0001
1000
1000
,
0100
0000
0010
0000
0100
0000
0000
0010
,
0000
0000
0010
0000
0000
0100
0000
0000
,
0100
0000
0100
0000
1000
0000
0000
0001
,
0000
0000
0001
0000
1000
0000
0000
0010
,
0000
0010
0000
0010
0000
0010
0000
0100
,
0000
0000
0100
0000
0000
0100
0000
0000
,
0110
0000
0010
0000
0100
0000
0000
0001
,
0000
0000
0001
0000
0000
1000
0000
0000
,
1000
0000
0000
0010
0000
0100
0000
0010
,
0000
0000
0100
0000
0000
0100
0000
0000
,
0100
0000
0100
0000
0100
0000
0000
0001
,
0000
1000
0000
0001
0000
0001
0000
1000
,
0000
0001
0000
1000
0000
1000
0000
1001
,
0000
0001
0001
1000
,
0001
0001
0100
0100
,
0001
1000
0001
0000
,
1000
1000
0100
0100
,
1000
0001
1000
0000
,
0010
0010
0100
0010
,
0100
0000
0010
0010
,
1000
0000
0000
0000
0001
0000
0000
1000
,
0000
0001
0000
1000
0000
0001
0000
0000
,
1001
0000
1000
0000
0001
0000
0000
1000
,
0000
0100
0010
0100
,
0010
0000
0010
0000
0010
0000
0000
0110
,
0000
0110
0000
0000
0100
0000
0010
0000
,
0100
0000
0100
0000
0100
0000
0000
1000
,
0000
0001
0000
1000
0000
0001
0000
0100
,
0000
0010
0000
0100
0000
0010
0000
0110
,
0000
0100
0010
0010
,
1000
0000
1001
0000
,
0001
0000
0100
0001
,
0001
0000
1000
0000
0000
0010
0000
0110
,
0000
0100
0010
0100
,
0010
0000
1000
0001
,
1000
0000
0100
0010
,
0100
0010
0001
1000
,
0001
0000
0100
0001
,
0100
0000
0010
0100
,
0010
0000
0000
1000
0000
0000
1000
0000
,
0000
0001
1000
0001
,
1000
0000
0010
0000
0000
0010
0000
0000
,
0010
0000
0100
0000
0000
0100
0000
0000
,
0100
0010
0100
0000
,
1001
0000
1000
0000
0001
0000
0000
1000
,
0000
0100
0100
0010
,
0010
0000
0000
0001
0000
1000
0000
0001
,
0000
0100
0100
0010
,
0010
0000
0000
1000
0000
0001
1000
0000
,
1000
0001
0000
1000
0000
0001
0000
0100
,
0000
0100
0000
0010
0000
0100
0000
0010
,
0000
1000
0001
1000
,
1001
0001
0001
1000
,
1000
0001
1000
1000
,
0001
0001
0100
0100
,
0001
1000
0001
0001
,
1000
1000
0010
0010
,
0100
0010
0100
0100
,
0001
0000
0001
0000
1000
0001
0000
1000
;

//--------------- dance-single - GET REAL ----------------
#NOTES:
     dance-single:
     GET REAL:
     Medium:
     6:
     0,0,0,0,0:
0000
0000
0000
0000
,
1001
0000
0001
0000
0010
0000
0001
0100
,
0000
0010
0000
1000
0100
1000
0001
0000
,
0010
0001
0010
0000
0100
0000
0100
1000
,
0000
0001
1000
0001
0000
0100
0010
0000
,
0110
0000
0100
0000
0001
0000
0010
0100
,
0000
0000
1000
0000
0000
1000
0000
0000
1000
0000
0001
0000
0000
0000
1000
0000
,
0010
0100
0000
0110
0000
0010
0100
0001
,
0000
0001
0010
0000
0000
0100
1000
0000
,
1001
0000
0001
0100
0010
0000
1000
0010
,
0000
1000
0001
1000
0000
1000
0100
0000
,
0010
0010
0000
0100
0000
0010
0100
0010
,
0000
0000
0001
0000
0000
1000
0000
0000
0001
0000
0100
0000
0001
0000
0000
0000
,
0010
0000
0000
0100
0010
0100
0000
1000
,
0000
0001
0000
1001
0000
1000
0010
0100
,
0000
0001
0010
0100
0000
0000
0100
0010
,
0000
0000
0001
0000
0000
1000
0000
0000
0001
0000
1000
0000
0010
0000
0000
0000
,
1010
0000
0010
0100
0001
0100
0000
0001
,
0000
0010
0100
0000
0000
0010
0000
0000
,
0011
0000
0001
0100
0000
0010
0000
1001
,
0000
0000
1000
0000
0100
1000
0100
0000
,
0010
0000
0001
0000
0100
0001
0000
0010
,
0000
0000
0100
0010
0000
0100
1000
0000
,
0001
1000
0000
1001
0000
0001
0100
0001
,
0000
0011
0000
1100
0000
1000
0010
0100
,
0001
0001
0001
0000
0100
0000
0010
0100
,
0000
0001
0000
1000
0000
0100
1000
0100
,
0000
1000
1000
0000
0001
0001
0000
0010
,
0000
0110
0000
0100
0010
0000
0100
0000
,
1000
0000
0100
1000
0100
1000
0000
0001
,
0000
1000
0000
0001
0000
0100
0001
0100
,
0001
0100
0001
0100
0000
0010
0000
0100
,
0000
0000
0001
1000
0001
0000
1000
0000
,
1100
0000
0100
0000
0010
0000
0000
0011
,
0000
0000
0001
0000
0100
0001
0100
0000
,
0101
0000
0100
0000
0000
0010
0000
1010
,
0000
0000
1000
0001
0000
0100
0001
0100
,
0000
0010
1000
0010
0000
1000
0001
1000
,
0000
0100
0010
0100
0000
0010
0001
0010
,
0000
0001
0100
0001
0000
1000
0000
1001
,
0000
0001
0010
0001
0000
1000
0100
1000
,
0000
0000
0010
0100
0000
0001
0010
0001
,
0000
1000
0100
1000
0000
0000
0010
0100
,
0000
0010
0000
1000
0100
0000
1000
0001
,
1000
0000
0001
0000
0000
0001
1000
0001
,
1000
0000
0100
0000
0010
0100
0000
0010
,
0001
0000
1000
0001
1000
0001
0000
0100
,
0010
0000
0100
0000
0001
0010
0001
0100
,
0000
0010
0000
0100
0010
0000
1001
0000
,
1000
0100
1000
0001
0000
0010
0000
0110
,
0000
0000
0100
1000
0100
0000
1000
0000
,
0010
0100
0000
0100
0000
0100
0001
0000
,
0100
0010
0000
1000
0000
0001
0000
1001
,
0000
1000
0100
1000
0000
0010
0000
0110
,
0000
0100
0010
0100
0000
0001
1000
0000
,
0001
0000
0000
0000
0001
0000
0000
0000
0100
0000
0000
0100
0000
0000
0100
0000
,
0000
0100
0000
0000
0000
0000
0010
0000
0100
0000
0010
0000
0100
0000
0010
0000
,
0000
0000
1000
0100
1000
0100
0000
1000
,
0000
0000
0000
1000
0001
1000
0001
1000
,
0000
0000
0001
0100
0001
0100
0000
0001
,
0000
0100
0010
0100
0010
0100
0010
0100
,
0000
0000
0001
1000
0001
1000
0000
1001
;

//--------------- dance-single - SO HARD TO DO ----------------
#NOTES:
     dance-single:
     SO HARD TO DO:
     Hard:
     9:
     0,0,0,0,0:
0000
0000
0000
0000
,
1100
0000
1000
0001
1000
0000
0001
0010
,
0000
0000
0010
0000
0000
0000
0001
1000
0001
0000
0001
0000
1000
0000
0100
0000
,
1000
0010
0100
0000
0101
0000
0001
0010
,
0000
0001
1000
1000
0100
1000
1000
0010
,
0100
0000
0000
0000
0001
0010
0000
0010
1000
0000
0000
0000
0010
0000
0001
0000
,
0000
0000
1000
0000
0000
1000
0000
0000
1000
0000
0010
0000
0000
0000
0110
0000
,
0000
0100
0000
0101
0000
0001
1000
1100
,
0000
0100
0010
0000
0000
0001
1000
0010
,
1010
0000
0000
0000
0110
0000
0000
0000
0100
0000
0100
0000
0001
0000
0010
0001
,
0010
0001
0100
0001
1000
0010
1000
0100
,
0010
0010
0001
0100
0000
0001
1000
0001
,
0000
0000
0010
0001
0000
1000
0010
0000
0000
0000
0100
0000
0010
0000
0010
0000
,
0100
0000
0001
1000
0001
1000
0000
1100
,
0000
0011
0000
1001
0000
0001
0100
1000
,
0000
0100
0010
1000
1000
0001
0001
1001
,
0000
0000
1000
0000
0001
0100
0000
0001
0010
0000
0100
0010
0100
0000
1000
0100
,
1000
1000
0001
0001
0100
0010
0000
0110
,
0000
0000
0101
0000
0000
0101
0000
0000
1100
0000
0000
1100
0000
0000
1000
0000
,
0010
1000
0100
1000
0001
0001
0000
1001
,
0000
0001
0010
0001
1000
0100
1000
0010
,
0100
0000
0001
0010
0001
1000
0000
1100
,
0000
1000
0001
0010
0001
0100
0010
0010
,
0100
0010
1010
1000
0000
0100
1000
1001
,
0000
0000
0001
0010
0001
0000
1000
0001
0000
1000
0001
0000
0100
0001
0100
0000
,
0010
0000
1010
0000
1000
0100
0001
0100
,
0000
0010
0010
0001
0000
0100
0001
1000
,
0100
0010
0010
0100
0100
1000
0001
1001
,
0000
0000
1001
0000
0000
0000
1000
0000
0100
0000
1000
0000
0010
0100
0000
0010
,
0100
0000
0001
0010
0001
0010
0000
0001
,
0000
0101
0000
1010
0000
1000
0100
1000
,
0010
0100
0001
0010
0000
0011
0000
1100
,
0000
1000
0010
1000
0001
0100
0001
0010
,
0100
0000
0010
0000
1001
0000
0001
0100
,
0000
0000
0001
0000
1000
0000
1000
0000
0010
0000
0000
1000
0010
0000
1000
0000
,
0100
0000
0010
0100
0000
0110
0000
1001
,
0000
0001
0100
0100
0000
0010
1000
1000
,
0001
0000
0100
0001
0000
0010
0001
1000
,
0010
0000
0110
0000
0100
0001
0100
0010
,
0000
0000
0000
0000
1010
0000
0000
0010
1000
0000
0001
0000
0000
0000
0101
0000
,
0000
0100
1000
0100
0001
0010
0100
1000
,
0100
0000
0110
0000
0010
0001
1000
0001
,
0000
0100
0010
1000
0000
0000
1001
0000
,
0001
0000
0010
0000
0000
0000
0010
0000
0001
0000
0000
1000
0010
0000
0100
0000
,
0000
0000
0010
0000
0000
0100
0001
0100
,
0010
1000
0010
0100
0001
1000
0100
0010
,
0001
0000
0101
0000
1100
1000
0001
0000
,
1001
0000
1000
0000
0010
1000
0001
1000
,
0000
0000
0100
1000
0000
0001
1000
0000
0001
0000
0010
0001
0000
0001
0100
0000
,
0010
0000
1000
0100
1000
0001
0000
0011
,
0000
0010
0100
1000
0001
0100
1000
1000
,
0100
0010
0100
0010
0000
1000
0100
0000
,
1000
0001
0010
0001
1000
0010
0000
1010
,
0000
0000
1000
0100
1000
0010
0000
0110
,
0000
0100
0001
0001
0100
1000
1000
0100
,
0110
0000
0100
0000
0010
0000
0000
0000
1000
0000
0001
1000
0000
0001
1000
0000
,
0000
0001
1000
0000
0001
0100
0001
0001
,
0000
0000
1000
0010
1000
1000
0000
1001
,
0000
0001
1000
0000
1000
0001
1000
0001
,
0100
0010
0100
0000
0010
0000
0100
0000
0001
0000
1000
0001
1000
0000
0001
0000
,
1000
0000
1000
0000
0010
0000
0100
0010
0100
0000
0010
0000
0010
0000
0100
0000
,
0001
0000
1000
0000
0001
0000
1000
0010
1000
0010
1000
0000
0001
0000
0101
0000
;
