#TITLE:help me, i'm trapped in the center of a rectangle;
#SUBTITLE:;
#ARTIST:bill wurtz;
#TITLETRANSLIT:;
#SUBTITLETRANSLIT:;
#ARTISTTRANSLIT:;
#GENRE:;
#CREDIT:8Chasey 2026 / BWE Volume 3;
#MUSIC:help me, i'm trapped in the center of a rectangle.ogg;
#BANNER:;
#BACKGROUND:;
#CDTITLE:;
#SAMPLESTART:21.75;
#SAMPLELENGTH:15;
#SELECTABLE:YES;
#OFFSET:0.475;
#BPMS:0.000=120.000
,1.000=31.444
,4.000=120.000
,36.000=240.000
,84.000=120.000
,86.000=240.000
,150.000=480.000
,248.000=60.000
;
#STOPS:84.000=3.000;
#BGCHANGES:;
#FGCHANGES:;

//--------------- dance-single - BRAND NEW ----------------
#NOTES:
     dance-single:
     BRAND NEW:
     Beginner:
     4:
     0,0,0,0,0:
0000
0000
0000
0000
,
0001
0000
1000
0000
,
0001
0000
0001
0000
,
1000
0000
0001
0000
,
1000
0000
1000
0000
,
0010
0000
0100
0000
,
0010
0000
0010
0000
,
0100
0000
0010
0000
,
0100
0000
0100
0000
,
1001
0000
0000
0001
,
0000
0000
0000
0001
,
0000
0000
0000
0001
,
0000
0000
0000
0000
,
1001
0000
0000
1000
,
0000
0000
0000
1000
,
0000
0000
0000
1000
,
0000
0000
0000
0000
,
0110
0000
0000
0010
,
0000
0000
0000
0010
,
0000
0000
0000
0010
,
0000
0000
0000
0000
,
1001
0000
0001
0000
,
1000
0000
0001
0000
,
0000
0000
1000
0000
,
0001
0000
1000
0000
,
0000
0000
0001
0000
,
0001
0000
1000
0000
,
1000
0000
0001
0000
,
1000
0000
0001
0000
,
0000
0000
1000
0000
,
0001
0000
1000
0000
,
0000
0000
0001
0000
,
1000
0000
0001
0000
,
0000
0000
1000
0000
,
1000
0000
0001
0000
,
0001
0000
1000
0000
,
0001
0000
1000
0000
,
0000
0000
1001
0000
,
0000
0000
0000
0000
,
1000
0000
0000
0000
,
0000
0000
0000
0000
,
1000
0000
0000
0000
,
0000
0000
0000
0000
,
1000
0000
0000
0000
,
0000
0000
0000
0000
,
0000
0000
1001
0000
,
0000
0000
0000
0000
,
0001
0000
0000
0000
,
0000
0000
0000
0000
,
0001
0000
0000
0000
,
0000
0000
0000
0000
,
0001
0000
0000
0000
,
0000
0000
0000
0000
,
0000
0000
0110
0000
,
0000
0000
0000
0000
,
0100
0000
0000
0000
,
0000
0000
0000
0000
,
0100
0000
0000
0000
,
0000
0000
0000
0000
,
0100
0000
0000
0000
,
0000
0000
0000
0000
,
0000
0000
1001
0000
;

//--------------- dance-single - EASY WAY ----------------
#NOTES:
     dance-single:
     EASY WAY:
     Easy:
     5:
     0,0,0,0,0:
0000
0000
0000
0000
,
1000
0001
1000
1000
,
0001
1000
0001
0001
,
0100
0010
0100
0100
,
0010
0100
0010
0010
,
0110
0000
0100
0001
,
0100
0000
0010
1000
,
0010
0000
1000
1000
,
0001
0001
1000
0001
,
1001
0000
0000
1000
,
0000
0000
0000
0001
,
0000
1000
0000
0001
,
0000
1000
0000
0000
,
0001
0000
0000
0001
,
0000
0000
0000
1000
,
0000
0001
0000
1000
,
0000
0001
0000
0000
,
0100
0000
0000
0010
,
0000
0000
0000
0010
,
0000
0100
0000
0001
,
0000
1000
0000
0000
,
1001
0000
1000
0000
,
0001
0000
1000
0000
,
0000
0000
0001
0000
,
1000
0000
0001
0000
,
0000
0000
0010
0000
,
0010
0000
0100
0000
,
0100
0000
1000
0000
,
0001
0000
1000
0000
,
0001
0000
0100
0000
,
0010
0000
0100
0000
,
0000
0000
0010
0000
,
0100
0000
0010
0000
,
0000
0000
1000
0000
,
1000
0000
0001
0000
,
0001
0000
0100
0100
,
0000
0100
0000
0010
,
0010
0000
0010
0000
,
0000
0000
0000
0000
,
0100
0000
0000
0000
,
0100
0000
0000
0000
,
0010
0000
0000
0000
,
0000
0000
0000
0000
,
1000
0000
0000
0000
,
0001
0000
0000
0000
,
0000
0000
0100
0000
,
0000
0000
0000
0000
,
0010
0000
0000
0000
,
0010
0000
0000
0000
,
0100
0000
0000
0000
,
0000
0000
0000
0000
,
0001
0000
0000
0000
,
1000
0000
0000
0000
,
0000
0000
1001
0000
,
0000
0000
0000
0000
,
0001
0000
0000
0000
,
0000
0000
0000
0000
,
1000
0000
0000
0000
,
0000
0000
0000
0000
,
0001
0000
0000
0000
,
1000
0000
0000
0000
,
0000
0000
1001
0000
;

//--------------- dance-single - GET REAL ----------------
#NOTES:
     dance-single:
     GET REAL:
     Medium:
     8:
     0,0,0,0,0:
0000
0000
0020
0000
0000
0000
0000
0030
,
0110
0000
0000
0100
0000
0000
1000
0000
0100
0000
0000
0010
0000
0000
0001
0000
,
0100
0000
0000
0100
0000
0000
0001
0000
0010
0000
0000
0100
0000
0000
1000
0000
,
0010
0000
0000
0010
0000
0000
1000
0000
0100
0000
0000
0010
0000
0000
0001
0000
,
0100
0000
0000
0001
0000
0000
1000
0000
0001
0000
1001
0000
0000
0000
1000
0000
,
1001
0000
0000
0001
0000
0000
0100
0000
1000
0000
0100
0000
0001
0000
0000
0000
,
0001
0000
0000
1000
0000
0000
0100
0000
0001
0000
0100
0000
1000
0000
0000
0000
,
0010
0000
0000
0100
0010
0000
0000
0000
0100
0000
0000
0010
0100
0000
0000
0000
,
0101
0000
1010
0000
1100
0000
0011
0001
,
1001
0000
0000
0010
0000
0000
0100
0000
,
0000
0101
0000
1100
,
0000
1000
0000
0001
,
0000
0100
0010
0100
,
0110
0000
0000
0001
0000
0000
1000
0000
,
0000
1010
0000
0011
,
0000
0010
0000
0100
,
0010
0100
0010
0000
,
1001
0000
0000
0001
0000
0000
0100
0000
,
0000
0110
0000
1001
,
0000
1000
0000
0001
,
1000
0001
0100
0000
,
0110
0010
0100
0001
1001
0000
0000
0000
,
1000
0000
1000
0000
0001
0000
0000
0100
,
0000
0001
0000
1000
,
0001
0000
0001
0000
1000
0000
0000
0100
,
0000
1000
0000
0010
,
0100
0000
0010
0000
0100
0000
0000
0001
,
0000
1000
1100
0000
,
0101
0000
0001
1000
,
0000
1000
0001
0000
,
0010
0000
0001
0000
0010
0000
0000
0010
,
0000
0001
1000
0000
,
0010
0000
1000
0000
0010
0000
0000
0010
,
0000
1000
1001
0000
,
0001
0000
0110
0000
,
1000
0000
0001
0001
,
0000
1001
0000
1000
,
1000
0000
1000
0000
,
0000
0001
0000
0000
,
1000
0000
0000
0000
,
0001
0000
0000
0000
,
0010
0000
0000
0000
,
0010
0000
0000
0000
,
0100
0000
0000
0000
,
0100
0000
0000
0000
,
0000
0000
0010
0000
,
0000
0100
0000
0000
,
0010
0000
0000
0000
,
0100
0000
0000
0000
,
1000
0000
0000
0000
,
1000
0000
0000
0000
,
0001
0000
0000
0000
,
0001
0000
0000
0000
,
0000
0000
1001
0000
,
0000
0000
0000
0000
,
1000
0000
0000
0000
,
0001
0000
0000
0000
,
1000
0000
0000
0000
,
0001
0000
0000
0000
,
0100
0000
0000
0000
,
0000
0000
0010
0000
,
0000
0000
1001
0000
;

//--------------- dance-single - SO HARD TO DO ----------------
#NOTES:
     dance-single:
     SO HARD TO DO:
     Hard:
     10:
     0,0,0,0,0:
0000
0000
0220
0000
0000
0000
0000
0330
,
1001
0000
0000
0001
0100
0000
1000
0000
0100
0000
0000
1000
0100
0000
0001
0000
,
0100
0000
0000
0010
1000
0000
0100
0000
0010
0000
0000
0010
0001
0000
0100
0000
,
0010
0000
0000
0100
0001
0000
1000
0000
0100
0000
0000
0100
1000
0000
0001
0000
,
0100
0000
0000
0001
1000
0000
0100
0000
0010
0000
0110
0000
0100
1000
0001
0000
,
1001
0000
0001
0010
0001
0000
0100
0000
0010
0000
1000
0010
1000
0000
0100
0000
,
0010
0000
0001
0100
0010
0000
1000
0000
0010
0000
1000
0100
0010
0000
0001
0000
,
0101
0000
0100
0010
1000
0000
0100
0000
1100
0000
0100
0010
0001
0000
0100
0000
,
0110
0000
0010
1000
0001
0000
0010
0000
0011
0000
0001
1000
0010
0000
1010
0000
,
1001
0000
0000
0101
0000
0000
1100
0000
,
1000
0100
0110
0000
0010
0000
0011
0000
,
0001
1000
0100
1000
0010
0000
1010
1000
,
0000
0001
1001
0000
1000
0010
0001
0010
,
0110
0000
0000
1010
0000
0000
0011
0000
,
0010
0100
1001
0000
1010
0000
0101
0001
,
0000
1000
1100
0000
0110
0000
0011
0001
,
0000
1010
0000
1000
0001
0010
0100
1000
,
1001
0000
0000
0110
0000
0000
1001
0000
,
0001
1000
1100
0000
1000
0001
0101
0000
,
0110
0000
1001
1000
0100
0010
0011
0000
,
0001
1000
1010
0000
0010
0100
0001
1000
,
2002
3003
0000
0000
0001
0000
1000
0000
0010
0000
0100
0000
0001
0000
0100
0000
0110
0000
0000
0000
0000
0000
0000
0000
0010
0000
0000
0000
1000
0000
0000
0000
,
0010
0000
0010
0000
1000
0000
0100
1000
,
0000
0000
1000
0000
0100
0000
0010
0001
,
0010
0000
0010
0000
0001
0000
0001
0100
,
0000
0000
0001
0000
1000
0000
0100
0010
,
0100
0000
0010
0000
0001
0000
0100
0001
,
0000
1000
1010
0010
,
0101
0000
0100
0000
0001
0100
0010
0000
,
1000
0000
0100
0000
0110
0000
0010
0001
,
0100
0000
0010
0000
0100
0000
0001
0100
,
0000
0000
0001
0000
1000
0000
0010
1000
,
0100
0000
0010
0000
0100
0000
1000
0100
,
0000
0000
1000
0000
1001
0000
0001
0010
,
0100
0000
1000
0000
0010
0000
1000
0100
,
0010
0001
0101
1100
,
0001
1000
1001
0000
0100
0100
0010
0000
,
0110
0100
1001
0000
,
0000
0101
0000
0000
,
1100
0000
1000
0010
,
0110
0000
0010
0000
,
1001
0000
1000
0100
,
0001
0000
0100
0000
,
0010
0100
0000
0100
,
0010
0000
1001
0000
,
0001
0000
1100
0000
,
0000
0101
0000
0000
,
0110
0000
0010
1000
,
0100
0000
0010
0000
,
1001
0000
0001
0100
,
0101
0000
1010
0000
,
1000
1001
0000
0001
,
1001
0000
0100
0010
,
1000
0001
1001
0000
,
0000
1010
0000
0000
,
0101
0000
0001
0010
,
0011
0000
0100
1000
,
1100
0000
0100
1000
,
0010
0000
0100
0001
,
0010
0000
0100
0010
,
0001
0100
0010
1000
,
0001
1000
2002
0000
,
0000
0000
0000
0000
,
0000
0000
3003
0000
;

//--------------- dance-solo - BABY MODE ----------------
#NOTES:
     dance-solo:
     BABY MODE:
     Beginner:
     1:
     0,0,0,0,0:
000000
000000
000000
000000
,
000010
000000
000000
000000
,
000010
000000
000000
000000
,
010000
000000
000000
000000
,
010000
000000
000000
000000
,
000001
000000
000000
000000
,
000001
000000
000000
000000
,
100000
000000
000000
000000
,
100000
000000
000000
000000
,
000100
000000
000000
000100
,
000000
000000
000000
000100
,
000000
000000
000000
000100
,
000000
000000
000000
000000
,
001000
000000
000000
001000
,
000000
000000
000000
001000
,
000000
000000
000000
001000
,
000000
000000
000000
000000
,
000001
000000
000000
100000
,
000000
000000
000000
000001
,
000000
000000
000000
100000
,
000000
000000
000000
000000
,
100001
000000
100000
000000
,
000000
000000
100000
000000
,
000000
000000
000001
000000
,
000000
000000
000001
000000
,
000000
000000
100000
000000
,
000000
000000
000001
000000
,
000000
000000
100000
000000
,
000001
000000
100000
000000
,
000001
000000
000001
000000
,
000000
000000
000001
000000
,
000000
000000
100000
000000
,
000000
000000
100000
000000
,
000000
000000
000001
000000
,
000000
000000
100000
000000
,
000000
000000
000001
000000
,
100000
000000
000001
000000
,
100000
000000
001000
000000
,
000000
000000
000000
000000
,
001000
000000
000000
000000
,
000000
000000
000000
000000
,
001000
000000
000000
000000
,
000000
000000
000000
000000
,
001000
000000
000000
000000
,
000000
000000
000000
000000
,
000000
000000
000100
000000
,
000000
000000
000000
000000
,
000100
000000
000000
000000
,
000000
000000
000000
000100
,
000000
000000
000000
000000
,
000000
000000
000000
000000
,
000100
000000
000000
000000
,
000000
000000
000000
000000
,
000000
000000
010000
000000
,
000000
000000
000000
000000
,
000010
000000
000000
000000
,
000000
000000
000000
000000
,
010000
000000
000000
000000
,
000000
000000
000000
000000
,
000010
000000
000000
000000
,
000000
000000
000000
000000
,
000000
000000
010010
000000
;
