#TITLE:goo soup;
#SUBTITLE:;
#ARTIST:Bill Wurtz;
#TITLETRANSLIT:;
#SUBTITLETRANSLIT:;
#ARTISTTRANSLIT:;
#GENRE:;
#CREDIT:;
#MUSIC:goo soup.ogg;
#BANNER:goo soup.png;
#BACKGROUND:;
#CDTITLE:cdtitle.png;
#SAMPLESTART:55.1;
#SAMPLELENGTH:12;
#SELECTABLE:YES;
#OFFSET:-0.709;
#BPMS:0.000=131.000
,41.000=105.000
,42.000=131.000
;
#STOPS:;
#DISPLAYBPM:131.000;
#BGCHANGES:;
#FGCHANGES:;

//--------------- dance-single - ----------------
#NOTES:
     dance-single:
     :
     Easy:
     4:
     0,0,0,0,0:
0000
0000
0000
0000
,
0001
0010
1001
0000
,
1000
0100
1001
0000
,
1000
0100
0000
1100
,
0001
0100
0000
0101
,
0010
0010
1000
1000
,
0001
0001
0100
0100
,
0110
0000
0001
0000
,
1000
0001
1000
0000
1000
0000
0000
0000
,
0100
1000
0010
0001
,
0100
1001
1010
1000
,
0010
0001
0011
0000
,
0100
0001
0000
0010
,
0000
1000
0000
1001
,
0010
0000
0010
0000
0010
0000
1000
0001
,
0000
1000
0010
0000
0000
0000
0011
0000
,
0000
0010
0000
1010
,
0000
1000
0100
0001
,
0010
0100
0010
0001
,
1000
0110
0000
0001
,
0000
0001
0000
1000
,
0000
0100
0000
0000
0000
0000
0001
0000
,
0000
0010
0000
0000
0000
0000
1000
0001
,
0000
0001
0000
1000
0000
0001
0000
0000
,
0100
0000
0010
0000
0100
0000
0000
0101
,
0000
0000
0000
0000
,
0001
0001
0011
0000
,
1000
1000
1100
0000
,
1001
1000
0100
0000
,
1000
0010
0001
0010
,
0001
0000
0001
0010
,
0100
0000
1001
1000
,
0000
1000
0010
0010
,
0000
1000
0001
1000
,
0000
0010
1000
0000
0000
0000
0001
0000
,
0000
0100
0001
0000
0000
0000
1000
0000
,
0100
1000
0100
0010
,
0001
0000
0010
0000
0001
0000
0001
0010
,
0000
0001
0000
1000
,
0000
0100
0100
0010
,
0010
0001
0000
1000
,
0010
0001
0100
0010
,
0010
1000
0000
0100
,
0100
0001
0000
0010
,
0001
0010
1000
0110
,
0000
0100
0000
1000
,
0000
0001
0000
0100
,
0000
1001
0000
1000
,
0000
0010
0000
0001
,
0000
0100
0000
0110
,
0000
0000
0000
0000
,
0000
0000
0000
1000
,
0100
1010
0000
0001
,
0100
0000
0000
0000
0011
0000
0000
0000
0000
0000
0000
0000
0010
0000
0000
0010
,
0000
0000
0000
0000
0100
0000
0000
0100
0000
0000
0000
0000
0000
0000
0000
0000
;

//--------------- dance-single - ----------------
#NOTES:
     dance-single:
     :
     Medium:
     6:
     0,0,0,0,0:
0000
0000
0000
0000
,
0001
0010
0001
0000
1100
0000
1000
0000
,
1000
0010
1000
0000
0101
0000
0001
0000
,
1000
0010
0000
0000
0000
0000
0000
0000
0000
0101
0000
0000
,
0001
0010
0000
0000
0000
0000
1000
0000
0000
0100
0000
0000
,
0010
0001
0100
0100
0010
1000
0100
0100
,
1000
0010
0001
0100
,
1001
0000
1000
0001
,
1000
0000
0000
1010
0000
0000
0001
0000
0010
0000
0001
0000
0100
0000
0000
0000
,
0010
0000
0000
0001
0000
0000
1000
0000
0100
0000
0000
1000
0000
0000
0010
0000
,
0100
0000
0001
0000
1000
0000
0000
0000
0010
0000
0000
1000
0000
0000
0001
0000
,
0100
0000
0000
0001
0000
0000
0010
0000
0100
0000
0010
0000
0001
0000
1000
0000
,
0010
0000
0000
0010
0000
0000
0000
0000
1010
0000
0000
0000
1000
0000
0010
0000
,
0000
0100
0001
1000
0100
0010
0010
0000
,
0001
1000
0000
1000
0100
0000
1000
0001
,
0000
0000
0001
0000
0100
0000
0000
0010
0000
0000
1000
0000
0001
0000
0000
0010
,
0000
0000
0100
0000
1000
0000
0000
0001
0000
0000
1000
0000
0001
0000
0000
0000
,
1001
0000
0000
0000
0010
0000
0000
0001
0000
0000
0010
0000
1000
0000
0000
0000
,
0010
0000
0000
0000
1000
0000
0000
0100
0000
0000
1000
0000
0001
0000
0000
0100
,
0000
0000
0001
0000
0000
0110
0000
0000
0000
0000
0000
0000
1000
0000
0000
0000
,
0010
0000
0001
0000
0000
0000
1000
0000
0100
0000
0010
0000
0001
0000
0000
0100
,
0000
0000
0001
0000
0010
0000
0000
0000
0000
0000
0000
0000
1000
0000
0000
0100
,
0000
1000
0010
0000
0000
0000
0100
0001
,
1000
0100
0000
0100
0000
1001
0000
0000
,
1000
0000
0000
0000
0010
0000
0000
0000
0001
0000
0000
0100
0000
0000
0110
0000
,
0000
0000
0000
1000
,
0001
0000
0010
0000
0000
0001
0000
0000
0010
0000
0000
0000
0000
0000
0000
0000
,
1000
0000
0010
0000
0000
1000
0000
0000
0010
0000
0000
0000
0000
0000
0000
0000
,
0101
0000
1100
0000
1001
0000
0000
1000
,
0010
0000
0001
0000
1000
0100
0010
0100
,
0010
0000
0001
1000
0010
0000
0010
1000
,
0000
0000
0001
0000
0010
0000
1000
0010
,
0001
0100
0000
0100
0000
0110
0000
0000
,
0000
1000
0100
0011
,
0001
0100
0000
0000
0000
0000
1010
0000
,
1000
0100
0000
0000
0000
0000
1000
0000
,
0010
0100
0000
0100
0000
0101
0000
0000
,
0000
0000
0001
0000
0010
0000
0001
1000
,
0000
1000
0100
0010
0000
0101
0000
0000
,
1000
0000
0000
0000
0100
0000
0010
0001
,
0000
1001
0000
0000
0000
0000
0000
0000
,
1000
0000
0000
0000
0001
0000
1000
0010
,
1000
0100
0000
0000
0000
0000
0001
0010
,
0001
0100
0000
0000
0000
0000
1100
0000
,
1000
0101
0101
0010
,
1000
0000
0000
0000
0001
0000
0000
0010
0000
0000
0001
0000
0000
0000
0000
0000
,
0000
1000
0100
0000
0100
0000
0010
0001
,
1000
0000
0100
0000
0000
0000
0000
0000
0000
0000
0000
0000
1000
0000
0000
0010
,
0000
1000
0000
0000
0000
0000
0001
0000
,
0000
0000
1000
0000
0000
0100
0000
0000
,
0000
0000
0000
0000
,
0000
0000
0000
0000
0000
0000
1000
0010
,
1000
0000
1001
0000
0001
0000
0001
0010
,
0001
0000
0000
0000
1001
0000
0000
0000
1000
0000
0000
0000
0100
0000
0000
0001
,
0000
0000
0000
0000
1100
0000
0000
1001
0000
0000
0000
0000
0000
0000
0000
0000
;

//--------------- dance-single - ----------------
#NOTES:
     dance-single:
     :
     Hard:
     9:
     0,0,0,0,0:
0000
0000
0000
0000
,
0001
0010
1000
0010
0001
0000
0000
0000
,
1000
0000
0100
0000
0001
0000
0100
0000
1000
0000
0000
0010
0000
0000
0010
0000
,
1000
0000
0000
0000
0001
0000
0000
0000
0000
0000
0000
0000
0000
0000
0000
0000
0000
0000
0000
0000
0000
0000
0000
0000
1001
0000
0000
0000
0000
0000
0000
0000
0000
0100
0000
0000
0000
0000
0000
0000
0000
0000
0100
0000
0000
0000
0000
0000
,
0001
0000
0000
0000
1000
0000
0000
0000
0000
0000
0000
0000
0000
0000
0000
0000
0000
0000
0000
0000
0000
0010
0000
0000
1000
0000
0000
0000
0000
0000
0001
0000
0000
0000
0000
0000
0000
0000
0000
0000
0000
0000
0100
0000
0000
0000
0000
0000
,
1010
1000
0100
0010
0011
0001
0100
0010
,
1000
0000
0000
1000
0000
0000
1100
0000
0001
0000
0000
0001
0000
0000
0101
0000
,
0000
0000
0000
0000
0010
0000
1000
0000
0001
0000
0000
1001
0000
0000
0100
0000
,
0010
1000
0010
1000
0000
0001
0010
0000
0011
0000
0000
0000
1000
0000
0000
0000
,
0010
0000
0000
0100
0001
0000
1000
0000
0100
0000
1000
0000
0001
0000
0010
0000
,
0000
0000
0010
0000
0200
0000
0000
0000
1300
0000
0000
0010
0100
0000
0001
0000
,
0010
0001
1000
1100
0000
1000
0002
0000
,
0103
0000
0000
1000
0100
0000
0000
0000
0010
0000
0001
0000
1000
0000
0010
0000
,
0000
0000
0100
0001
1000
0000
0001
0000
0010
0000
0000
0000
1001
0000
0000
0000
,
0001
0100
1000
0100
0001
0000
1100
0000
,
0101
0000
0000
0000
1000
0000
0010
0100
0000
0001
0010
0000
0001
0000
1000
0010
,
0000
0010
0100
0000
0001
0000
1000
0100
0000
0010
1000
0000
0010
0000
0001
0000
,
1000
0000
0010
0000
0100
0000
0001
0010
0000
0001
1000
0000
0100
0000
1000
0000
,
0001
0000
0000
0000
0110
0000
0010
0001
0000
1000
0100
0000
1100
0000
0010
0001
,
0000
0100
0010
0000
0000
0202
0000
0000
0303
0000
1000
0100
0010
0000
0000
0001
,
1000
0000
0010
0000
0000
0000
0101
0000
0101
0000
1000
0000
0010
0000
1000
0001
,
0000
1000
0010
0000
0100
0001
0000
0000
0020
0000
0000
0000
0130
0000
1000
0001
,
0000
0010
0100
0000
1000
0010
0000
0000
0100
0000
0001
0000
0010
0000
0001
0010
,
0000
0100
1000
0000
0010
1000
0001
0000
0100
0000
0200
0000
0000
0000
0301
0000
,
0010
0000
1000
0000
0010
0000
0001
0000
1000
0001
0000
0100
0001
0000
2020
0000
,
0000
0000
3030
0001
,
1000
0000
0010
0000
1000
0001
0000
0000
0200
0000
0000
0000
0300
0000
0000
0000
,
0001
0000
0010
0000
0001
1000
0000
0000
0200
0000
0000
0000
0300
0000
1000
0100
,
0010
0000
0000
0000
0001
0100
0000
0000
0002
0000
0000
0000
0013
0000
0001
0000
,
1000
0010
0100
0000
0001
0010
0100
0000
0010
0000
0001
0000
0001
0000
1001
0000
,
1000
0000
0000
0010
0100
0000
0001
0000
1000
0000
0100
0000
0100
0000
1100
0000
,
0000
0000
0010
0001
1000
0000
0001
0000
0000
1000
0010
0000
0100
0000
0000
0010
,
1000
0000
0001
0010
0001
0000
0010
0000
0100
0000
2100
0000
0000
0000
3001
0010
,
0001
0000
1000
0000
0100
0010
0001
0000
1000
0000
0010
0000
0101
0000
0000
0001
,
0010
0000
0001
0000
2000
0000
0100
0000
3000
0000
0000
0000
1100
0000
0000
1000
,
0010
0000
1000
0000
0002
0000
0100
0000
0003
0000
1000
0010
0100
0000
0001
0000
,
1000
0000
0001
0000
0000
0000
0011
0000
0010
0000
0011
0000
0000
0000
0000
1000
,
0100
0000
0010
0000
0100
0010
0001
0000
0100
0010
0001
0000
0010
0000
1000
0000
,
0100
0000
1100
0000
0000
0000
0011
0000
0000
1000
0010
0000
0000
0000
0100
0001
,
1000
0000
0100
0000
0010
0001
0000
0010
0100
0000
0010
0000
0001
0000
1000
0000
,
0100
0000
1010
0000
0001
0010
0000
0001
0010
0100
0000
0010
0100
1000
0100
0000
,
0010
0100
0010
0000
0001
0000
1000
0000
0010
0000
0001
0000
0010
0000
1000
0000
,
0100
0010
0220
0000
0330
0000
0010
0001
,
0100
0000
0010
0000
0220
0000
0000
0000
0330
0000
0000
0000
1000
0010
0000
0100
,
0001
0000
0010
0001
1000
0000
0100
0010
1000
0000
0110
0000
0000
0000
0000
0010
,
0001
0000
0000
0000
1000
0000
0000
0011
0000
0000
0200
0000
0000
0000
0000
0000
,
0310
0000
0001
0000
0100
0000
0010
1000
,
0000
0000
1001
0000
0000
0000
0000
0000
0001
0000
0000
0000
0001
0000
0000
0010
,
0000
0100
0010
0000
1000
0000
0010
0001
,
1000
0010
0020
0000
0000
0200
0000
0000
,
0000
0000
0000
0000
,
0000
0000
0330
0000
0000
0000
1001
0001
,
0010
0100
2000
0000
3000
0000
1001
1000
,
0100
0000
0010
0000
0002
0000
0000
0000
1003
0000
0001
0100
0001
0000
0000
0010
,
0000
0000
1000
0000
0100
0000
0000
1001
0000
0000
0000
0000
0000
0000
0000
0000
;
