#TITLE:go to the store;
#SUBTITLE:;
#ARTIST:bill wurtz;
#TITLETRANSLIT:;
#SUBTITLETRANSLIT:;
#ARTISTTRANSLIT:;
#GENRE:;
#CREDIT:8Chasey 2026 / BWE Volume 3;
#MUSIC:go to the store.ogg;
#BANNER:;
#BACKGROUND:;
#CDTITLE:;
#SAMPLESTART:34.750;
#SAMPLELENGTH:12.000;
#SELECTABLE:YES;
#OFFSET:-0.465;
#BPMS:0.000=98.000
,86.000=99.000
,96.000=98.000
,112.000=97.000
,116.000=99.000
,120.000=97.000
,124.000=98.000
,136.000=100.000
,140.000=96.000
,144.000=99.000
,148.000=98.000
,156.000=96.000
,161.000=98.200
,200.000=97.000
;
#STOPS:;
#DISPLAYBPM:98.000;
#BGCHANGES:;
#FGCHANGES:;

//--------------- dance-single - BRAND NEW ----------------
#NOTES:
     dance-single:
     BRAND NEW:
     Beginner:
     1:
     0,0,0,0,0:
0000
0000
0000
0000
,
0000
0000
0000
0000
,
0000
0000
0000
0000
,
0000
0000
0000
0000
,
0001
0000
0001
0000
,
1000
0000
0000
0000
,
0001
0000
0000
0000
,
0001
0000
0000
0000
,
1000
0000
1000
0000
,
0001
0000
0000
0000
,
1000
0000
0000
0000
,
1000
0000
0000
0000
,
0000
0010
0000
0100
,
0100
0000
0010
0010
,
0010
0000
0100
0000
,
0010
0000
0000
0000
,
1000
0000
0000
0000
,
0001
0000
0000
0000
,
0100
0000
0010
0000
,
0100
0000
0000
0000
,
0001
0000
0000
0000
,
1000
0000
0000
0000
,
0001
0000
0001
0000
,
0001
0000
0000
0000
,
1000
0000
0000
0000
,
0001
0000
0000
0000
,
1000
0000
1000
0000
,
1000
0000
0000
0000
,
0001
0000
0000
0000
,
1000
0000
0000
0000
,
0100
0000
0100
0000
,
0100
0000
0000
0000
,
0010
0000
0000
0000
,
0100
0000
0000
0000
,
0010
0000
0010
0000
,
0010
0000
0000
0000
,
0100
0000
0000
0000
,
0010
0000
0000
0000
,
0100
0000
0000
0000
,
0010
0000
0000
0000
,
0000
0100
0000
0000
,
0000
0000
0000
0000
,
0000
0000
0000
0000
,
0000
0000
0000
0000
,
0000
1000
0000
0000
,
0000
0001
0000
0000
,
0000
1000
0000
0000
,
0000
0000
0000
0000
,
0000
0001
0000
0000
,
0000
1000
0000
0000
,
0000
0001
0000
0000
,
0000
0000
0000
0000
,
0000
0100
0000
0000
;

//--------------- dance-single - EASY WAY ----------------
#NOTES:
     dance-single:
     EASY WAY:
     Easy:
     3:
     0,0,0,0,0:
0000
0000
0000
0000
,
0000
0000
0000
0000
,
0000
0000
0000
0000
,
0000
0000
0000
0000
,
0001
1000
0001
0000
,
1000
0000
0100
0100
,
0010
0000
0010
0000
,
0100
0000
0000
0000
,
1000
0001
1000
0000
,
0001
0000
0010
0010
,
0100
0000
0010
0000
,
0100
0010
0100
0000
,
0010
0001
0010
1000
,
0010
0100
0100
0010
,
0110
0000
0001
0000
,
1000
0001
1000
0000
,
0100
0100
0000
0010
,
0000
0100
0000
0010
,
0001
0000
0100
0001
,
0100
0000
0010
0000
,
1000
0100
1000
0000
,
0001
1000
0001
0000
,
1001
0000
1000
0000
,
0010
0100
0010
0000
,
0100
0001
0000
0100
,
0010
1000
0000
0010
,
0100
0100
0010
0000
,
1000
1000
0001
0000
,
1000
0100
0000
1000
,
0001
0010
0000
0001
,
0100
0000
0010
0100
,
0010
0000
0100
0000
,
0001
1000
0000
1000
,
0100
0010
0000
0010
,
0100
0000
1000
0010
,
1000
0000
0001
0000
,
1001
0000
1000
0000
,
0010
0100
0010
0000
,
0100
0000
0000
0000
,
0010
0000
0000
0000
,
0000
0110
0000
0100
,
0000
0010
0000
0100
,
0000
0001
0000
1000
,
0000
0001
0000
1000
,
0000
0100
0000
0100
,
0000
0010
0000
0100
,
0000
1000
0000
0010
,
0000
0100
0000
0001
,
0000
0010
0000
0010
,
0000
0100
0000
0100
,
0000
1000
0000
0001
,
0000
1000
0000
0001
,
0000
1001
0000
0000
;

//--------------- dance-single - GET REAL ----------------
#NOTES:
     dance-single:
     GET REAL:
     Medium:
     4:
     0,0,0,0,0:
0000
0000
0000
0000
,
0000
0000
0000
0000
,
0000
0000
0000
0000
,
0000
0000
0000
0000
,
0010
1000
0100
0010
,
0100
0010
0100
0000
0010
0000
0001
0000
,
1000
0000
0001
1000
0001
0000
1000
0000
,
0010
0100
0100
0010
,
0100
0001
0010
0100
,
0010
0100
0010
0000
0100
0000
1000
0000
,
0001
1000
0001
0000
1000
0000
0010
0000
,
0100
0010
0010
0100
,
0001
0010
0001
1000
0000
0010
1000
0100
,
0000
0010
0100
0110
0000
0010
0001
1000
,
1001
0000
0001
0100
0001
0000
0100
0000
,
0010
1000
0000
0010
1000
0000
0100
0000
,
1000
0001
1000
0000
0001
0000
0001
0000
,
0100
0010
1000
0001
,
0010
0001
0010
0000
0001
0000
1000
0000
,
0100
1000
0100
0000
0010
0000
0001
0000
,
0100
0000
0010
0000
0100
0010
0100
0000
,
0001
1000
1000
0001
,
1001
0000
1000
0000
0100
1000
0100
0000
,
0010
0000
0001
0000
0010
0001
0010
0000
,
0100
0000
0010
0100
0010
0000
0100
0000
,
1000
0000
0001
0000
1000
0001
1000
0000
,
1001
0000
0001
0000
0100
0001
0100
0000
,
0010
0000
1000
0000
0010
1000
0010
0000
,
0100
0000
0010
0100
0010
0000
1000
0000
,
0001
0000
1000
0001
0000
0001
0010
0000
,
0110
0000
0100
0000
0010
0100
0010
0000
,
0001
0000
1000
0000
0100
0010
0100
0000
,
0010
0000
0001
0100
0001
0000
1000
0000
,
0100
0000
1000
0001
0000
1000
0001
0000
,
0010
0000
0010
0000
0001
1000
0001
0000
,
1000
0000
0100
0000
1000
0001
1000
0000
,
0010
0000
0100
0000
0001
0100
0001
0000
,
1000
0100
1000
0000
0001
0000
1000
0000
,
0100
0000
0000
0000
,
0010
0000
0000
0000
,
0000
0000
0001
0000
0100
0000
0001
1000
,
0001
0100
0010
1000
,
0001
0000
1000
0000
0100
0000
1000
0001
,
1000
0010
0100
0001
,
1000
0000
0010
0100
0010
0000
0100
0000
,
0010
0000
1000
0001
1000
0000
0001
0000
,
1000
0000
0100
0000
0010
0000
0001
1000
,
0001
0100
0010
1000
,
0001
0000
0100
0010
0100
0000
0010
0000
,
0100
0000
0001
1000
0001
0000
1000
0000
,
0001
0010
0100
1000
,
0001
0010
0100
1000
,
0001
0100
0000
0000
;

//--------------- dance-single - SO HARD TO DO ----------------
#NOTES:
     dance-single:
     SO HARD TO DO:
     Hard:
     7:
     0,0,0,0,0:
0000
0000
0000
0000
,
0000
0000
0000
0000
,
0000
0000
0000
0000
,
0000
0000
0000
0000
,
1000
0000
0100
1000
0001
0000
0010
0000
,
0100
1000
0000
0100
1000
0010
0000
1000
,
0010
0100
0001
0000
0010
0001
1000
0000
,
1001
0000
0001
0000
0100
0001
0100
0000
,
0010
1000
0010
1000
0100
1000
0001
0000
,
0010
0001
0100
0000
0010
1000
0000
0001
,
0010
0100
1000
0000
0010
1000
0001
0000
,
0100
0000
0110
0000
0010
0100
0010
0000
,
1000
0010
1000
0000
0001
0000
0100
0000
0001
0010
0001
0000
1000
0000
0010
0100
,
0010
0000
0100
0000
0001
0000
1000
1000
0000
0010
0100
0010
0100
0000
0001
0001
,
1000
0100
1000
0010
1000
0000
0010
0000
,
0100
0000
0001
0010
0001
0000
0100
0000
,
0001
0010
0001
0000
1000
0100
1000
0000
,
0010
0000
1000
0000
0001
0100
0010
0000
,
1000
0000
0100
1000
0100
0000
1000
0000
,
0001
0010
0000
0010
0001
0100
0001
0000
,
1001
0000
1000
0010
0100
0000
0001
0000
,
0010
0001
0100
0000
0010
1000
0010
0000
,
0110
0000
0000
0000
1001
0000
0000
1000
0001
0000
0001
0000
1000
0000
0010
0000
,
1000
1000
0010
0000
0100
0010
0100
0000
,
0101
0001
0100
0000
0010
1000
0100
0000
,
1000
0001
1000
0000
0001
0100
0001
0000
,
1010
0000
0000
0000
1100
0000
0000
0100
0010
0000
0100
0000
1000
0000
0001
0000
,
0001
0010
0001
0000
0100
0010
0010
0000
,
1010
1000
0100
0000
0010
0001
0100
0000
,
0001
0001
1000
0010
0000
1000
0100
0000
,
0011
0000
0000
0000
0101
0000
0000
0001
1000
0000
0010
0000
1000
0000
1000
0000
,
0001
0001
0010
0000
0001
0001
0100
0000
,
1100
1000
0001
0000
0010
0001
1000
0000
,
0010
1000
0010
0010
0000
0100
0001
0000
,
1001
0000
0000
0000
0110
0000
0000
0100
0010
0000
0010
0000
0100
0000
0001
0000
,
1000
1000
0100
0000
1000
0001
0100
0010
,
1000
1000
0010
0010
0100
0100
0001
0001
,
0010
0010
0100
0100
1000
0001
1000
0001
,
0100
0000
0000
0000
,
0010
0000
0000
0000
,
0000
0000
1000
0100
1000
0001
1000
0100
,
1000
0001
1000
0100
1000
0001
1000
0100
,
0010
0000
0001
0100
0001
1000
0001
0100
,
0001
1000
0001
0100
0001
1000
0001
0100
,
0010
0000
1000
1000
0010
0010
1000
1000
,
0001
0100
0001
0001
0010
0010
0001
0001
,
1000
0100
0010
0001
0100
0000
0010
1000
,
0100
0000
1000
0010
0100
0000
0001
0010
,
0100
0000
1000
1000
0010
1000
0001
0100
,
0001
0010
0001
0001
0010
0001
1000
0100
,
1000
0010
0100
0001
0010
0000
0100
1000
,
0010
0000
0100
0010
1000
0000
0100
0010
,
0001
0100
0000
0000
;
