#TITLE:go home;
#SUBTITLE:~i wanna~;
#ARTIST:Bill Wurtz;
#TITLETRANSLIT:;
#SUBTITLETRANSLIT:;
#ARTISTTRANSLIT:;
#GENRE:;
#CREDIT:8Chasey;
#MUSIC:go home (i wanna).ogg;
#BANNER:;
#BACKGROUND:;
#CDTITLE:;
#SAMPLESTART:8.32;
#SAMPLELENGTH:12;
#SELECTABLE:YES;
#OFFSET:-0.029;
#BPMS:0.000=94.000;
#STOPS:;
#DISPLAYBPM:188.000;
#BGCHANGES:0.000=go home (i wanna).avi=1.000=0=0=0=StretchNoLoop====,
46.000=go home (i wanna)-bg.png=1.000=0=0=1,
99999.000=-nosongbg-=1.000=0=0=0=StretchNoLoop====
;
#FGCHANGES:;

//--------------- dance-single - ----------------
#NOTES:
     dance-single:
     :
     Beginner:
     1:
     0,0,0,0,0:
0000
0000
0000
0000
,
0000
0000
0000
0000
,
0001
0000
1000
0000
,
0000
0010
0000
0010
,
0000
0010
0000
0000
,
0100
0000
0100
0000
,
0100
0000
1001
0000
,
0000
0001
0000
0001
,
0000
1000
0000
1000
,
0000
0000
0010
0000
,
0100
0000
0010
0000
,
0100
0000
0000
0000
;

//--------------- dance-single - ----------------
#NOTES:
     dance-single:
     :
     Easy:
     2:
     0,0,0,0,0:
0000
0000
0001
1000
,
0001
0000
1000
0000
,
0010
0000
0000
1001
0000
0100
0000
0100
,
0000
0001
0001
0010
,
0000
0001
1000
0001
,
1000
1000
0010
0000
,
0100
0000
0000
1001
0000
0000
0001
0000
,
0000
1000
0000
0001
,
0000
1000
0000
0001
,
0000
1000
0010
1000
,
0100
0000
0010
0001
,
0100
0000
0000
0000
;

//--------------- dance-single - ----------------
#NOTES:
     dance-single:
     :
     Medium:
     4:
     0,0,0,0,0:
0000
0000
0000
0000
,
0001
0000
1000
0000
0001
0100
0001
0000
,
1000
0010
0000
1010
0000
0010
0000
0010
,
0000
0010
0100
0000
0101
0000
1000
0100
,
1000
0000
0010
1000
0010
1000
0100
0000
,
1100
0000
0001
0010
0001
0100
0010
0000
,
1000
0001
0000
1001
0000
0000
1000
0000
,
0000
0001
0000
0100
,
0000
0010
0000
1000
,
1000
0001
0010
0100
,
1000
0100
0010
0100
,
1000
0000
0000
0000
;

//--------------- dance-single - ----------------
#NOTES:
     dance-single:
     :
     Hard:
     7:
     0,0,0,0,0:
0000
0000
0000
0000
,
0000
0000
0000
0000
0001
0100
0010
0000
,
1000
0000
0000
0010
0000
0000
1001
0000
0000
0000
0100
0000
0000
0001
0100
0000
,
0001
0000
0100
0000
0010
0000
1000
0000
0010
0100
0010
0000
1000
0000
0001
0000
,
0100
0000
0101
0000
0000
0000
0100
0000
0001
0010
0001
0000
1100
0000
0000
0000
,
1000
0001
1000
0000
0100
0000
1000
0000
0010
0000
1000
0000
0001
1000
0001
0000
,
0101
1010
0000
0110
0000
0100
0001
0100
,
0000
0001
1000
0001
0000
1000
0001
1000
,
0000
0010
1000
0010
0000
1000
0100
1000
,
0010
1000
0100
1000
0001
0010
0100
1000
,
0100
1000
0100
0010
0001
0010
0100
1000
,
0200
0000
0000
0300
;

//--------------- dance-solo - ----------------
#NOTES:
     dance-solo:
     :
     Beginner:
     1:
     0,0,0,0,0:
000000
000000
000000
000000
,
000000
000000
010000
000000
,
000010
000000
010010
000000
,
000000
001000
000000
000001
,
000000
100000
000000
000100
,
000100
000000
010000
000000
,
000010
000000
010010
000000
;
