#TITLE:fever;
#SUBTITLE:(is what makes you sick);
#ARTIST:Bill Wurtz;
#TITLETRANSLIT:;
#SUBTITLETRANSLIT:;
#ARTISTTRANSLIT:;
#GENRE:;
#CREDIT:8Chasey;
#MUSIC:fever.ogg;
#BANNER:;
#BACKGROUND:;
#CDTITLE:;
#SAMPLESTART:52.920;
#SAMPLELENGTH:12.000;
#SELECTABLE:YES;
#OFFSET:1.423;
#BPMS:0.000=133.000;
#STOPS:;
#DISPLAYBPM:133.000:266.000;
#BGCHANGES:3.750=fever.avi=1.000=0=0=0=StretchNoLoop====,
212.000=fever-bg.png=1.000=0=0=1,
99999.000=-nosongbg-=1.000=0=0=0=StretchNoLoop====
;
#FGCHANGES:;

//--------------- dance-single - SUPER EASY ----------------
#NOTES:
     dance-single:
     SUPER EASY:
     Beginner:
     2:
     0,0,0,0,0:
0000
0000
0000
0000
,
0001
0000
1000
0000
,
0001
0000
1000
0000
,
0001
0000
1000
0000
,
0001
0000
1000
0000
,
0001
0000
1000
0000
,
0001
0000
1000
0000
,
0001
0000
1000
0000
,
1001
0000
0000
0000
,
1001
0000
0000
0000
,
0001
0001
0001
0000
,
0001
0001
0000
0000
,
1000
1000
1000
0000
,
1000
1000
0000
0000
,
0001
0000
1000
0000
,
1001
0000
0000
0000
,
1001
0000
0000
0000
,
1000
1000
1000
0000
,
0001
0000
1000
0000
,
0001
0001
0001
0000
,
1000
0000
0001
0000
,
1000
0000
1000
0000
,
0001
0000
1000
0000
,
0001
0000
0001
0000
,
1000
0000
0000
0000
,
1001
0000
0000
0000
,
0001
0000
0000
0000
,
1001
0000
0000
0000
,
1000
0000
0000
0000
,
1001
0000
0001
0000
,
1001
0000
1000
0000
,
1001
0000
0001
0000
,
1000
0000
0001
0000
,
1000
0000
1000
0000
,
0000
0000
1000
0000
,
0001
0000
0001
0000
,
0000
0000
1000
0000
,
0001
0000
1000
0000
,
0000
0000
0001
0000
,
1000
0000
0001
0000
,
0000
1000
1000
1000
,
1000
0000
0000
0000
,
0000
0001
0001
0001
,
0001
0000
1000
0000
,
0000
0000
0001
0000
,
1001
0000
0000
0000
,
0001
0001
0001
0000
,
1000
1000
1000
0000
,
0001
0000
1000
0000
,
0001
0000
0000
0000
,
1000
0000
0001
0000
,
1000
0000
0000
0000
,
0001
0000
1000
0000
,
1001
0000
0000
0000
;

//--------------- dance-single - NO HARM ----------------
#NOTES:
     dance-single:
     NO HARM:
     Easy:
     4:
     0,0,0,0,0:
0000
0000
0000
0000
,
0001
0100
1000
0100
,
0010
1000
0001
0100
,
0001
0010
0001
1001
,
1000
0010
1000
1001
,
0100
0000
0001
0000
0010
0001
0010
0000
,
0100
0000
1000
0000
0010
1000
0010
0000
,
0100
0001
1000
0000
0100
1000
0001
0000
,
1001
0000
0000
0100
,
0110
0000
1000
0010
,
1000
0001
0100
0001
,
0010
0001
1000
0001
,
1000
0100
1000
0010
,
0110
0000
0100
0100
0000
0000
0010
0000
,
0100
0001
1000
0100
,
1000
0000
0000
0001
0000
0000
0000
1001
,
0000
0010
0100
0010
,
1000
0100
0010
0001
,
0100
0100
0001
1000
,
0010
1000
0001
0100
,
0100
0000
0010
0010
0100
0000
0001
0000
,
1000
0100
1000
0010
,
0100
0001
0100
0000
0001
0000
1000
0000
,
0001
0000
0100
0000
0001
0001
0001
0000
,
1000
0100
0000
1000
0010
0000
1000
0000
,
0110
0000
0100
0000
0001
0000
0000
0010
,
0000
0001
1000
0000
0100
0000
1000
0000
,
0010
0000
1000
0000
0001
0000
0000
0001
,
0000
1000
0001
0000
0100
0000
0010
0000
,
1000
0000
0100
0000
1000
0000
0000
1001
,
0000
0010
0001
1000
,
1001
0000
0100
0000
0001
0000
0000
1000
,
0000
0010
0100
0010
,
0100
0000
0100
0000
0001
0000
0000
1000
,
0000
0100
1000
0001
,
0010
0000
0001
0000
1000
0000
0000
0010
,
0000
0100
0001
0100
,
0001
0000
0000
0000
1000
0000
0000
0100
,
0000
1000
0001
1000
,
0001
0000
0100
0000
0100
0000
0000
0010
,
0000
0100
0010
0110
,
0110
0000
0100
0000
0001
0000
0000
1000
,
0000
1000
0100
1000
,
0010
0000
0100
0000
0001
0000
0000
1000
,
0000
0001
1000
0100
,
0010
0000
0001
0000
1000
0000
0000
0001
,
0000
0000
1000
0000
0010
0000
0000
1000
,
0000
0000
0001
0000
0100
0000
0000
0001
,
0000
1000
0100
0010
,
0100
0000
0010
0001
,
1000
0000
0010
0010
,
0010
0000
0100
0010
,
1001
0000
0000
0110
,
1001
0000
0000
0000
;

//--------------- dance-single - GET REAL ----------------
#NOTES:
     dance-single:
     GET REAL:
     Medium:
     6:
     0,0,0,0,0:
0000
0000
0000
0000
,
0001
0000
0000
0000
0100
0001
0000
0000
1000
0000
0000
0000
0100
1000
0000
0000
,
0010
0000
0000
0000
1000
0010
0000
0000
0100
0000
0000
0000
0001
0100
0000
0000
,
0001
0000
0000
0000
1000
0010
0000
0000
1000
0000
0000
0000
0001
0010
0000
0000
,
0100
0000
0000
0000
1000
0001
0000
0000
0100
0000
0000
0000
0001
1000
0000
0000
,
0010
0000
0000
0000
1000
0100
0000
0000
0010
0000
0000
0000
0001
0100
0000
0000
,
0001
0000
0000
0000
1000
0001
0000
0000
1000
0000
0000
0000
0001
1000
0000
0000
,
0100
0000
0000
0000
1000
0010
0000
0000
0100
0000
0000
0000
0001
0010
0000
0000
,
1001
0000
0000
0000
0001
1000
0001
0000
,
0110
0000
0001
0000
0010
0001
1000
0000
,
0100
0000
1000
0000
0010
1000
0001
0000
,
0100
0000
0001
0100
0000
0001
1000
0000
,
0100
0000
1000
0000
0010
1000
0001
0000
,
0100
0000
0001
0100
0000
0010
1000
0000
,
0100
1000
0001
0100
,
1010
0000
0000
0011
0000
0000
0000
1001
,
0000
0000
0100
0000
0001
1000
0001
1000
,
0010
0000
1000
0000
0100
0010
0001
0000
,
1000
0001
0100
0000
0001
0000
1000
0000
,
0010
0000
0010
0000
1000
0000
0100
1000
,
0000
0001
1000
0000
0001
0010
0001
1000
,
0010
0000
0100
0001
1000
0100
1000
0001
,
0000
0100
0100
0000
0001
0000
1000
0000
,
0001
0000
0100
0000
0001
0001
0001
0000
,
1000
0100
0000
1000
0010
0000
1000
0000
,
1001
0000
0001
0000
1000
0010
0000
1000
,
0000
0001
1000
0001
0100
0000
0001
0000
,
0010
0001
1000
0000
0100
1000
0000
0010
,
0000
1000
0001
0001
1000
0000
0001
0000
,
0100
0001
1000
0000
0010
1000
0000
0010
,
0000
0100
0001
0000
1100
0000
0101
0000
,
1001
0000
1000
0010
1000
0001
0100
0001
,
0000
1000
0001
0000
0011
0000
1000
0000
,
1010
0000
0100
0010
0100
0000
0001
0100
,
0000
0100
0001
0000
1000
0100
0010
0000
,
0100
0000
1000
0010
1000
0000
0001
0100
,
0000
0001
1000
0100
0010
0100
0010
0000
,
0011
0000
1000
0010
0100
0000
0001
0010
,
0001
0100
0000
0100
0001
1000
0010
0000
,
1010
0000
0100
0001
0010
0000
0010
0001
,
0000
1000
0010
0100
0001
0000
1000
1001
,
1001
0000
0001
0100
0001
0000
0010
0001
,
0000
1000
0100
1000
0010
0000
0100
0000
,
0100
0000
0101
0000
0001
0010
0001
1000
,
0000
0010
1000
0000
0100
0000
1000
0000
,
0010
0000
1000
0000
0001
0000
0010
0100
,
0000
0010
0100
0000
1000
0000
0100
1000
,
0000
0001
1000
0000
0001
0000
0100
0001
,
0000
0001
0010
0000
0001
1000
0001
1000
,
0100
0000
1000
0010
1000
0000
0001
0100
,
0000
0100
0001
0000
0010
0001
1000
0000
,
0100
0000
1000
0001
0100
0000
0010
0100
,
0000
0000
0000
0001
0000
0000
1000
0000
0000
0000
0001
0000
0000
0000
1000
0000
0000
0000
0001
0000
0000
0000
0100
0000
,
0010
0000
0000
0000
;

//--------------- dance-single - FLIPPING HARD ----------------
#NOTES:
     dance-single:
     FLIPPING HARD:
     Hard:
     9:
     0,0,0,0,0:
0000
0000
0000
0000
,
0001
0000
0000
0100
0001
0010
0001
0000
1000
0000
0010
0000
1000
0100
1000
0000
,
0010
0000
1000
0010
0100
0010
0100
0000
0001
0000
0100
0010
0000
0100
0001
0000
,
0010
0000
0001
1000
0001
1000
0001
0000
1000
0000
0100
1000
0000
0001
1000
0000
,
0010
0000
0100
0001
0000
0100
0001
0000
1000
0000
0100
1000
0010
1000
0010
1000
,
0001
0000
0100
0001
0000
0100
0001
1000
0010
0000
1000
0100
1000
0001
1000
0000
,
0010
0000
1000
0000
0001
1000
0000
0001
0100
0001
0100
0001
0000
0010
0001
0000
,
1000
0000
0100
1000
0001
0000
1000
0000
0010
0000
1000
0001
0000
0100
0001
0000
,
0011
0010
0001
1000
0100
0010
0100
1000
,
1010
0000
1000
1000
0001
0001
0100
0001
,
0010
0001
0100
0001
1000
0100
1000
0010
,
0100
0100
0001
0100
0001
1000
0010
1000
,
1000
0000
0100
1000
0010
0100
0001
0100
,
0101
0000
0001
0010
0001
0000
1000
0100
,
0000
0000
1000
0010
1000
0000
0001
0000
0100
0000
0001
0000
1000
0000
0100
0000
,
1100
0000
0000
0010
0000
0000
0110
0000
0000
0000
0100
0000
0001
0000
1001
0000
,
0000
1000
0010
0000
1000
0100
0010
0001
,
0010
0000
0001
1000
1000
0001
1000
0100
,
0000
0000
1000
0000
0010
0000
1000
0000
0100
0000
1000
0000
0001
0000
0100
0001
,
0100
0001
0010
0001
0000
1000
0001
1001
,
0000
0100
0001
0010
0100
1000
0001
0000
,
1010
0000
0001
0010
0000
0001
1000
0100
,
0000
1000
1000
0000
0010
1000
0001
0010
,
0001
0000
0100
0000
0001
0001
0001
0000
,
1000
0100
0000
1000
0010
0000
1000
0000
,
1001
0000
0000
0001
0100
0000
0001
0000
1000
0000
0000
0000
0000
0000
0010
0000
,
0000
1000
1000
0100
1000
0001
0100
0000
,
0100
0000
0000
0001
0100
0000
0100
0000
0010
0000
0000
1000
0010
0000
1000
0000
,
0000
0100
1000
0001
0100
0001
0001
1000
,
0010
0000
0000
1000
0100
0000
0010
0000
0100
0000
1000
0000
0100
0000
1000
0000
,
0000
0000
0001
0000
0100
0000
0001
0010
0001
0000
1000
0000
0010
0000
0100
0000
,
0101
0000
1000
0010
1000
1000
0100
1000
,
0000
0001
0100
0001
0010
0001
1000
0100
,
0010
0000
0001
0010
0100
1000
0001
1000
,
0000
0010
1000
0001
0100
0100
0001
1000
,
1100
0000
1000
0100
0010
0001
0010
0001
,
0000
0000
0100
0000
0001
0000
0000
1000
0001
0000
0100
0000
0010
0000
0000
0000
,
0110
0000
0100
0000
0100
0000
0001
0100
0001
0000
0000
1000
0010
0000
1000
0000
,
0000
0000
0100
0000
1000
0100
1000
0000
0010
0000
0000
1000
0010
0000
1000
0001
,
0100
0000
0001
0000
0010
0000
0001
0000
1000
0000
0010
1000
0010
0000
0100
0000
,
0000
0101
0001
0010
0001
1000
0100
1100
,
1100
1000
0010
1000
0001
0100
0001
0010
,
0000
0000
0100
1000
0100
0000
1000
0000
0010
0000
1000
0000
0001
0000
0100
0000
,
0101
0100
0010
1000
0001
0010
0001
0100
,
0000
0000
0001
0000
1000
0100
1000
0000
0100
0000
1000
0000
1000
0000
0001
0000
,
0010
0001
0001
0010
0001
1000
0100
1000
,
0000
0010
1010
0000
1000
0001
1000
0001
,
0000
0000
0010
0001
0010
0000
0001
0000
0100
0001
0000
0100
0001
0000
1000
0000
,
0000
0010
1000
0100
1000
1000
0001
0010
,
0011
0000
1000
0010
1000
1000
0100
1000
,
0001
0100
1000
0100
0010
1000
0100
1000
,
0010
0000
0100
0100
0001
1000
0100
0010
,
0010
0000
0000
0001
0000
0000
1000
0000
0001
0000
1000
0000
0100
0000
1000
0000
0100
0000
0010
0000
0001
0000
1000
0000
,
1001
0000
0000
0000
;
