#TITLE:feel okay;
#SUBTITLE:;
#ARTIST:Bill Wurtz;
#TITLETRANSLIT:;
#SUBTITLETRANSLIT:;
#ARTISTTRANSLIT:;
#GENRE:;
#CREDIT:8Chasey;
#MUSIC:feel okay.ogg;
#BANNER:;
#BACKGROUND:;
#CDTITLE:;
#SAMPLESTART:2.18;
#SAMPLELENGTH:12;
#SELECTABLE:YES;
#OFFSET:0.000;
#BPMS:0.000=109.000;
#STOPS:;
#DISPLAYBPM:109.000;
#BGCHANGES:1.500=feel okay.avi=1.000=0=0=0=StretchNoLoop==CrossFade==,
99999.000=-nosongbg-=1.000=0=0=0=StretchNoLoop====
;
#FGCHANGES:;

//--------------- dance-single - SUPER EASY ----------------
#NOTES:
     dance-single:
     SUPER EASY:
     Beginner:
     1:
     0,0,0,0,0:
0000
0000
0000
0000
,
1001
0000
0010
0000
,
1000
0000
0010
0000
,
0100
0000
0001
0000
,
0100
0000
0000
0000
,
0100
0000
0100
0000
,
0010
0000
0010
0000
,
1000
0000
0001
0000
,
1000
0000
0000
0000
,
0001
0000
1000
0000
,
0001
0000
0001
0000
,
0001
0000
0000
0000
,
1000
0000
1000
0000
,
1000
0000
0000
0000
,
0010
0000
0010
0000
,
0010
0000
0000
0000
,
0100
0000
0100
0000
,
0100
0000
0000
0000
,
0001
0000
0001
0000
,
1000
0000
1000
0000
,
0100
0000
0000
0000
;

//--------------- dance-single - NO HARM ----------------
#NOTES:
     dance-single:
     NO HARM:
     Easy:
     2:
     0,0,0,0,0:
0000
0000
0000
0000
,
1001
0001
1000
0100
,
0010
0001
1000
0010
,
0110
0100
0001
1000
,
0100
0100
1000
0001
,
0100
0000
0001
0000
,
1000
0000
0010
0000
,
0100
0100
0001
0000
,
0101
0000
0001
0000
,
1000
0100
1000
0000
,
1100
0000
1001
0000
,
0010
0001
0100
0000
,
0101
0000
1001
0000
,
0010
1000
0100
0000
,
0110
0000
1001
0000
,
0010
0010
0100
0100
,
0001
0100
0001
1000
,
0100
1000
0001
1000
,
0010
0000
0100
0000
,
0001
0000
1000
0000
,
1001
0000
0000
0000
;

//--------------- dance-single - GET REAL ----------------
#NOTES:
     dance-single:
     GET REAL:
     Medium:
     4:
     0,0,0,0,0:
0000
0000
0000
0000
,
1001
0000
0001
0000
1000
0100
0001
0000
,
0100
0000
1000
0000
0010
1000
0010
0000
,
0100
0001
0100
0000
0001
1000
0001
0000
,
1000
0000
0010
0100
0001
1000
0001
0000
,
0101
0000
1001
0000
,
1100
0000
0110
0000
,
0100
0001
1000
0001
0100
0000
0001
1000
,
0001
0000
1000
0010
1000
0010
1000
0000
,
0100
1000
0100
0000
1000
1001
0000
0000
,
0001
0000
0010
0000
0011
0000
0000
1000
,
0000
0010
1000
0000
1010
0000
0000
0000
,
0110
0000
0100
0000
0010
0000
0000
1000
,
0000
0001
1000
0000
1001
0000
0001
0000
,
0101
0000
1000
0000
1100
0000
0000
0010
,
0000
0100
0010
0000
0001
1000
0001
0000
,
0100
0000
0000
0001
0000
0000
1000
0000
0000
0001
0000
0000
1000
0000
0000
0100
,
0000
0000
1000
0000
0000
0001
0000
0000
1000
0000
0000
0001
0000
0000
0100
0000
,
0010
0000
0100
0000
0010
0000
0000
1000
0000
0000
0010
0000
1000
0000
0001
0000
,
1000
0001
0000
0100
0001
1000
0001
1000
,
1001
0000
0000
0000
;

//--------------- dance-single - FLIPPING HARD ----------------
#NOTES:
     dance-single:
     FLIPPING HARD:
     Hard:
     8:
     0,0,0,0,0:
0000
0000
0000
0000
,
1001
0000
0000
0000
1000
0000
0010
0000
1000
0000
0001
0100
0000
0000
0001
0000
,
0010
0000
0000
0000
0001
0000
1000
0000
0100
0000
1000
0010
0000
0000
0100
0000
,
0010
0000
0100
0000
0001
0000
1000
0000
0001
0000
1000
0010
0000
0000
0100
0000
,
0001
0000
0010
0000
0100
0000
1000
0000
0001
0010
0001
0000
1000
0010
1000
0000
,
0100
0000
1000
0000
1100
0000
1000
0001
,
0000
0100
0001
0000
0101
0000
0010
1000
,
0001
0000
0100
0000
0010
0000
0010
0000
1000
0000
0000
0001
1000
0000
0001
0000
,
0100
0000
0000
0000
0001
0000
0001
0000
1000
0000
0010
0000
1000
0000
0100
1000
,
0100
0000
1000
0000
0001
0000
0100
0000
0010
0000
0110
0000
0000
0100
0010
0000
,
0100
0001
0100
0000
1001
0000
1000
0010
,
1000
0000
0100
0000
1000
0000
0000
0000
1010
0000
0000
0000
0100
0010
0100
0000
,
0001
0100
0001
0000
0101
0000
0010
0001
,
0000
0000
1000
0000
0001
0000
0010
0000
0011
0000
0000
0000
0001
0100
0001
0000
,
1000
0010
1000
0000
1001
0000
0100
0001
,
0000
0000
0010
0000
0100
0000
1000
0000
1100
0000
0000
1000
0010
0000
1000
0000
,
0001
0000
0100
0001
0000
0100
0001
0000
1000
0010
0000
1000
0010
0000
0100
0010
,
0000
0100
0001
0000
1000
0001
0000
1000
0100
0000
1000
0001
0100
0000
0001
0000
,
0010
0000
0001
0000
1000
0000
0100
1000
0000
0100
1000
0000
0010
0000
1000
0000
,
0001
0100
0001
0000
0100
0000
0010
0000
1000
0100
1000
0000
0001
1000
0001
0000
,
0100
0100
0000
0000
0000
0000
0000
0000
0000
0000
0000
0000
0000
0000
0000
0000
;

//--------------- dance-solo - BABY MODE ----------------
#NOTES:
     dance-solo:
     BABY MODE:
     Beginner:
     1:
     0,0,0,0,0:
000000
000000
000000
000000
,
010010
000000
000000
000000
,
100000
000000
000001
000000
,
100001
000000
000000
000000
,
000010
000000
010000
000000
,
000100
000000
001000
000000
,
000100
000000
001000
000000
,
000001
000001
000001
000000
,
100001
000000
000000
000000
,
100000
100000
100000
000000
,
000100
010000
000100
000000
,
001000
000000
000001
000000
,
000100
000010
000100
000000
,
001000
000000
100000
000000
,
000100
000000
001000
000000
,
000100
000000
001000
000000
,
001100
000000
000000
000000
,
000000
000000
000000
000000
,
010000
000000
000000
000000
,
000010
000000
000000
000000
,
010010
000000
000000
000000
;
