#TITLE:educação;
#SUBTITLE:(from Cursed Commecrials 34);
#ARTIST:Fundação Roberto Marinho;
#TITLETRANSLIT:;
#SUBTITLETRANSLIT:;
#ARTISTTRANSLIT:;
#GENRE:Ambient;
#CREDIT:8Chasey 2025;
#MUSIC:educacao.ogg;
#BANNER:;
#BACKGROUND:;
#CDTITLE:;
#SAMPLESTART:24.44;
#SAMPLELENGTH:12;
#SELECTABLE:YES;
#OFFSET:-0.100;
#BPMS:0.000=45.500
,8.000=46.200
,11.000=45.400
,13.000=50.000
,14.000=48.000
,15.625=45.000
,17.000=48.000
,18.000=43.000
,20.000=42.000
,22.000=49.000
,23.500=43.500
,24.250=38.000
,25.000=56.000
,27.000=54.000
,30.750=45.000
,31.500=26.000
,32.000=32.000
,33.000=30.000
,34.000=26.000
,34.500=34.000
,35.000=32.000
,36.000=23.000
,37.000=10.000
;
#STOPS:;
#BGCHANGES:-0.050=educacao.mp4=1.000=1=0=0=StretchNoLoop====;
#FGCHANGES:;

//--------------- dance-single - 8Chasey ----------------
#NOTES:
     dance-single:
     8Chasey:
     Beginner:
     1:
     0,0,0,0,0:
0000
0000
0000
0000
,
0000
0000
0000
0000
,
0001
0000
0000
1000
,
0000
0000
0000
0000
0000
0000
0000
0100
0000
0000
0000
0000
0000
0000
0000
0000
,
0000
0000
0000
0000
0000
0000
0000
0000
0010
0000
0000
0000
0000
0000
0000
0000
0000
0000
0000
0000
0000
0000
0000
0000
0000
0000
0000
0100
0000
0000
0000
0000
,
0000
0000
1000
0000
,
0000
0001
0000
0100
,
0000
0000
0000
0000
0010
0000
0000
0000
0000
0000
0000
1000
0000
0000
0000
0000
,
0001
0000
1000
0000
,
0100
0010
0000
0000
;

//--------------- dance-single - 8Chasey ----------------
#NOTES:
     dance-single:
     8Chasey:
     Easy:
     1:
     0,0,0,0,0:
0000
0000
0000
0000
,
0000
0000
0000
0000
,
0002
0000
0000
0003
0000
0000
2000
0000
,
0000
0000
3000
0000
0000
0000
0000
0200
0000
0000
0000
0000
0300
0000
0000
0000
,
0010
0000
0000
0000
0000
0000
0000
0000
0100
0000
0000
0000
0000
0000
0000
0000
0010
0000
0000
0000
0000
0000
0000
0000
0000
0000
0000
0200
0000
0000
0000
0000
,
0000
0000
0000
0000
0000
0010
0000
0000
0000
0000
0000
0310
0000
0000
0000
0000
0002
0000
0000
0000
0000
0000
0000
0000
0000
0000
0000
0000
2000
0000
0000
0000
,
0000
3003
0001
0000
0000
0000
2000
0000
,
3000
0000
0000
0000
0200
0000
0000
0000
0000
0300
0000
0010
0000
0000
0100
0000
,
0002
0103
2000
3010
,
0200
0020
0330
0000
;

//--------------- dance-single - 8Chasey ----------------
#NOTES:
     dance-single:
     8Chasey:
     Medium:
     2:
     0,0,0,0,0:
0000
0000
0000
0000
,
0000
0000
0000
0000
,
0002
0000
0003
2000
,
0000
0000
0000
0000
0000
0000
0000
0000
3001
0000
0000
0000
1000
0000
0200
0000
0000
0000
0000
0000
0000
0000
0000
0010
0000
0000
0310
0000
0000
0000
0000
0000
,
0001
0000
0000
0000
1000
0000
0000
0000
0001
0000
0000
0000
0000
1000
0000
0000
0002
0000
0000
0000
0000
0000
0000
0000
0000
0000
0000
0203
0000
0000
0000
0000
,
0310
0000
0000
0000
0000
0010
0000
0000
0100
0000
0000
0010
0000
0000
0000
0000
0200
0000
0000
0000
0000
0000
0010
0000
0000
0000
0000
0000
0010
0000
0000
0000
,
0000
0310
0000
0000
1000
0000
0000
0000
0001
0000
0000
0000
2000
0000
0000
0000
,
3000
0000
0000
0000
0002
0000
0000
0000
0003
0000
0000
1000
0000
0000
0001
0000
,
2000
0000
0002
3003
0002
1000
1000
1003
,
0200
0020
0330
0000
;

//--------------- dance-single - 8Chasey ----------------
#NOTES:
     dance-single:
     8Chasey:
     Hard:
     3:
     0,0,0,0,0:
0000
0000
0000
0000
,
0000
0000
0000
0000
,
0002
0000
0000
0010
0000
0000
0000
0000
0000
0000
0000
0103
0000
0000
0000
0000
0000
0000
0000
0000
0000
0010
0000
0000
2000
0000
0000
0000
0000
0000
0000
0000
,
0000
0000
3100
0000
0000
0000
0000
0000
1000
0000
0000
0000
0001
0000
0200
0000
0000
0000
0000
0000
0300
0001
0000
0010
0000
0000
0010
0000
0000
0100
0000
0000
,
1000
0000
0000
0000
1000
0000
0000
0000
0001
0000
0000
0000
0000
0100
0000
0000
0001
0000
0000
0000
2000
0000
0000
0000
0000
0000
0000
0200
0000
0000
3300
0000
,
1000
0000
0000
0000
0000
0001
0000
0000
0000
0000
1000
0000
0000
0000
0000
0000
0001
0000
0000
0000
0000
0000
0020
0000
0000
0000
0000
0000
0000
0000
0000
0000
0230
0000
0000
0000
0000
0000
0000
0000
0000
0000
0000
0000
0010
0000
0000
0000
0000
0000
0000
0000
0000
0000
0000
0000
0310
0000
0000
0000
0000
0000
0000
0000
,
0000
0100
0000
0000
1000
0000
0000
0000
0001
0000
0000
0000
0200
0000
0000
0000
,
0000
0000
0000
0000
0020
0000
0000
0000
0000
0330
0000
1000
0000
0000
0001
0000
,
2000
0000
0000
0000
0100
0200
0000
3300
0002
0000
0010
0010
0010
0010
0020
0033
,
0200
0020
0330
0000
;

//--------------- dance-double - 8Chasey ----------------
#NOTES:
     dance-double:
     8Chasey:
     Easy:
     1:
     0,0,0,0,0:
00000000
00000000
00000000
00000000
,
00000000
00000000
00000000
00000000
,
00020000
00000000
00000000
00030000
00000000
00000000
00002000
00000000
,
00000000
00000000
00003000
00000000
00000000
00000000
00000000
02000000
00000000
00000000
00000000
00000000
03000000
00000000
00000000
00000000
,
00100000
00000000
00000000
00000000
00000000
00000000
00000000
00000000
01000000
00000000
00000000
00000000
00000000
00000000
00000000
00000000
00100000
00000000
00000000
00000000
00000000
00000000
00000000
00000000
00000000
00000000
00000000
20000000
00000000
00000000
00000000
00000000
,
00000000
00000000
00000000
00000000
00000000
30010000
00000000
00000000
00000000
00100000
00000000
00000000
00000000
00000000
00000000
00000000
00002000
00000000
00000000
00000000
00000000
00000000
00000000
00000000
00000000
00000000
00000000
00000000
00020000
00000000
00000000
00000000
,
00000000
00033000
00010000
00000000
00000000
00000000
00000020
00000000
,
00000030
00000000
00000000
00000000
00000200
00000000
00000000
00000000
00000300
00000000
00000000
00000010
00000000
00000000
00000100
00000000
,
00000002
00000103
00002000
00003010
,
00000200
00000020
00000330
00000000
;

//--------------- dance-double - 8Chasey ----------------
#NOTES:
     dance-double:
     8Chasey:
     Medium:
     2:
     0,0,0,0,0:
00000000
00000000
00000000
00000000
,
00000000
00000000
00000000
00000000
,
00020000
00000000
00030000
00002000
,
00000000
00000000
00000000
00000000
00000000
00000000
00000000
00000000
00103000
00000000
00000000
00000000
01000000
00000000
00200000
00000000
00000000
00000000
00000000
00000000
00000000
00000000
00000000
00001000
00000000
00000000
00301000
00000000
00000000
00000000
00000000
00000000
,
00010000
00000000
00000000
00000000
00001000
00000000
00000000
00000000
00010000
00000000
00000000
00000000
00000000
00000100
00000000
00000000
00000020
00000000
00000000
00000000
00000000
00000000
00000000
00000000
00000000
00000000
00000000
00000230
00000000
00000000
00000000
00000000
,
00001300
00000000
00000000
00000000
00000000
00000001
00000000
00000000
00001000
00000000
00000000
00000002
00000000
00000000
00000000
00000000
00000023
00000000
00000000
00000000
00000000
00000000
00000100
00000000
00000000
00000000
00000000
00000000
00000100
00000000
00000000
00000000
,
00000000
00000130
00000000
00000000
00010000
00000000
00000000
00000000
00001000
00000000
00000000
00000000
02000000
00000000
00000000
00000000
,
03000000
00000000
00000000
00000000
00200000
00000000
00000000
00000000
00300000
00000000
00000000
10000000
00000000
00000000
00010000
00000000
,
00200000
00000000
00002000
00303000
00020000
00000010
00000010
00030010
,
00000200
00000020
00000330
00000000
;

//--------------- dance-double - 8Chasey ----------------
#NOTES:
     dance-double:
     8Chasey:
     Hard:
     3:
     0,0,0,0,0:
00000000
00000000
00000000
00000000
,
00000000
00000000
00000000
00000000
,
00020000
00000000
00000000
00000010
00000000
00000000
00000000
00000000
00000000
00000000
00000000
00030100
00000000
00000000
00000000
00000000
00000000
00000000
00000000
00000000
00000000
00010000
00000000
00000000
00002000
00000000
00000000
00000000
00000000
00000000
00000000
00000000
,
00000000
00000000
01003000
00000000
00000000
00000000
00000000
00000000
00100000
00000000
00000000
00000000
10000000
00000000
00200000
00000000
00000000
00000000
00000000
00000000
00300000
01000000
00000000
00001000
00000000
00000000
00001000
00000000
00000000
00010000
00000000
00000000
,
00000100
00000000
00000000
00000000
00000100
00000000
00000000
00000000
00000010
00000000
00000000
00000000
00000000
00000001
00000000
00000000
00001000
00000000
00000000
00000000
00000200
00000000
00000000
00000000
00000000
00000000
00000000
00020000
00000000
00000000
00030300
00000000
,
00001000
00000000
00000000
00000000
00000000
00010000
00000000
00000000
00000000
00000000
00001000
00000000
00000000
00000000
00000000
00000000
01000000
00000000
00000000
00000000
00000000
00000000
00200000
00000000
00000000
00000000
00000000
00000000
00000000
00000000
00000000
00000000
02300000
00000000
00000000
00000000
00000000
00000000
00000000
00000000
00000000
00000000
00000000
00000000
00100000
00000000
00000000
00000000
00000000
00000000
00000000
00000000
00000000
00000000
00000000
00000000
03100000
00000000
00000000
00000000
00000000
00000000
00000000
00000000
,
00000000
10000000
00000000
00000000
01000000
00000000
00000000
00000000
00100000
00000000
00000000
00000000
00002000
00000000
00000000
00000000
,
00000000
00000000
00000000
00000000
00020000
00000000
00000000
00000000
00000000
00033000
00000000
00000010
00000000
00000000
00000100
00000000
,
00002000
00000000
00000000
00000000
00100000
00200000
00000000
00303000
00020000
00000000
00000100
00000100
00001000
00001000
00000020
00030030
,
00000200
00000020
00000330
00000000
;
