#TITLE:dumpies;
#SUBTITLE:;
#ARTIST:Bill Wurtz feat. Joe No;
#TITLETRANSLIT:;
#SUBTITLETRANSLIT:;
#ARTISTTRANSLIT:;
#GENRE:;
#CREDIT:;
#MUSIC:dumpies.mp3;
#BANNER:;
#BACKGROUND:;
#CDTITLE:;
#SAMPLESTART:35.731;
#SAMPLELENGTH:12.000;
#SELECTABLE:YES;
#OFFSET:-0.394;
#BPMS:0.000=326.000
,117.750=163.000
,150.000=326.000
,276.000=163.000
;
#STOPS:117.750=1.794;
#DISPLAYBPM:326.000;
#BGCHANGES:;
#FGCHANGES:;

//--------------- dance-single - ----------------
#NOTES:
     dance-single:
     :
     Beginner:
     3:
     0,0,0,0,0:
0000
0000
0000
0000
,
0000
0000
0000
0000
,
0000
0000
0000
0000
,
0000
0000
0000
0000
,
0000
0000
0000
0000
,
0000
0000
0000
0000
,
0000
0000
0000
0000
,
0000
0000
0000
0000
,
1001
0000
0000
0000
,
1001
0000
0000
0000
,
0110
0000
0000
0000
,
0110
0000
0000
0000
,
1001
0000
0000
0000
,
1001
0000
0000
0000
,
0110
0000
0000
0000
,
0110
0000
0000
0000
,
0001
0000
0001
0000
,
0001
0000
0001
0000
,
1000
0000
1000
0000
,
1000
0000
1000
0000
,
0001
0000
0001
0000
,
0001
0000
0001
0000
,
1000
0000
1000
0000
,
1000
0000
1000
0000
,
0010
0000
0010
0000
,
0010
0000
0010
0000
,
0100
0000
0100
0000
,
0100
0000
0100
0000
,
0110
0000
0110
0000
,
1001
0000
0001
0001
,
0001
0000
1000
1000
,
1000
0000
0001
0000
,
1000
0000
1001
1001
,
1001
0000
1000
1000
,
1000
0000
0001
0001
,
0001
0000
1000
0000
,
0001
0000
1001
1001
,
1001
0000
1000
0000
,
0000
0000
0010
0000
,
0000
0000
0100
0000
,
0000
0000
0001
0000
,
0000
0000
1000
0000
,
1000
0000
1000
0000
,
0000
0000
0001
0000
,
0001
0000
0001
0000
,
0000
0000
1001
0000
,
0000
0000
0110
0000
,
0000
0000
1000
0000
,
1000
0000
1000
0000
,
0000
0000
0110
0000
,
0000
0000
1001
0000
,
0000
0000
0100
0000
,
0000
0000
0100
0000
,
0000
0000
0010
0000
,
0010
0000
0010
0000
,
1000
0000
0001
0000
,
0001
0000
0001
0000
,
0100
0000
0010
0000
,
1000
0000
1000
0000
,
1000
0000
0100
0000
,
0100
0000
0100
0000
,
0001
0000
1001
0000
,
0000
0000
0010
0000
,
0100
0000
0010
0000
,
0000
0000
1000
0000
,
0001
0000
1000
0000
,
0000
0000
0010
0000
;

//--------------- dance-single - ----------------
#NOTES:
     dance-single:
     :
     Easy:
     6:
     0,0,0,0,0:
0000
0000
0000
0000
,
0000
0000
0000
0000
,
0000
0000
0000
0000
,
0000
0000
0000
0000
,
0000
0000
0000
0000
,
0000
0000
0000
0000
,
0000
0000
0000
0000
,
0000
0000
0000
0000
,
1001
0000
0001
0000
,
0001
0000
0001
0000
,
1001
0000
1000
0000
,
1000
0000
1000
0000
,
1001
0000
0010
0000
,
0010
0000
0010
0000
,
1001
0000
0100
0000
,
0100
0000
0100
0100
,
0002
0000
1000
0000
,
0010
0000
0103
0010
,
2000
0000
0100
0000
,
0001
0000
3010
0100
,
0020
0000
0100
0000
,
0001
0000
1030
0001
,
0200
0000
1000
0000
,
0001
0000
0310
1000
,
0002
0000
1003
0000
,
0020
0000
0130
0000
,
2000
0000
3001
0000
,
0200
0000
0310
0000
,
2000
0000
3002
0000
,
0013
0010
1000
1000
,
0001
1001
0010
0010
,
0001
0011
0001
0001
,
0100
1010
0100
0010
,
0110
0110
2000
0010
,
0010
3001
0200
1000
,
0010
0310
0002
0010
,
1000
0103
0020
0130
,
0110
1001
2000
0000
,
3100
0000
0100
0010
,
0100
0000
1000
0000
,
0001
0000
0010
0100
,
0001
0100
0002
0000
,
1003
0000
0001
0100
,
0001
0000
1000
0000
,
0010
0000
0100
0001
,
1000
0100
0020
0000
,
0130
0000
1000
0010
,
1000
0000
0001
0000
,
0010
0000
0100
0000
,
0001
1000
0200
0000
,
0310
0000
0100
0000
,
0100
0000
1001
0000
,
1001
0000
0010
1000
,
0001
0100
0020
0000
,
1000
1000
0000
0100
,
0130
0000
0001
0000
,
1000
0000
1000
0001
,
0010
0000
0020
0000
,
0001
0001
0000
0100
,
0130
0000
1000
0000
,
1100
0000
0101
0000
,
0101
0000
2000
0000
,
3010
0200
0000
0001
,
0301
0000
1000
0000
,
1010
0000
0011
0000
,
0011
0000
0001
0000
,
1000
0001
1000
0020
,
0000
0000
0000
0000
,
0000
0000
0000
0000
,
0000
0000
0000
0000
,
0000
0000
0030
0000
;

//--------------- dance-single - ----------------
#NOTES:
     dance-single:
     :
     Medium:
     8:
     0,0,0,0,0:
0000
0000
0000
0000
,
0000
0000
0000
0000
,
0000
0000
0000
0000
,
0000
0000
0000
0000
,
0000
0000
0000
0000
,
0000
0000
0000
0000
,
0000
0000
0000
0000
,
0000
0000
0000
0000
,
0002
0000
1000
1000
,
1003
0000
1000
0100
,
2000
0000
0001
0001
,
3001
0000
0001
0010
,
0200
0000
0010
0010
,
0310
0000
0001
1000
,
0020
0000
0100
0100
,
0130
0000
0110
0001
,
2000
0001
3001
0000
,
0010
0010
0001
0100
,
0002
0010
0013
0000
,
0100
1000
0001
0010
,
0200
1000
1300
0000
,
1000
0100
0010
0001
,
0200
0001
0301
0000
,
0001
1000
0100
1000
,
0020
0100
0130
0000
,
0010
1000
0001
1000
,
0020
0100
0130
0000
,
0001
1000
0010
0100
,
1001
0000
1000
0001
,
0010
0000
0100
0000
1000
0100
2000
0000
,
0001
0001
3010
0000
0001
0100
0002
0000
,
0100
0100
0013
0000
0001
0001
0200
0000
,
0010
0010
0310
0000
1000
1000
0020
0000
,
0100
0100
0130
0000
0020
1000
2030
0000
,
0100
0100
3100
0000
0020
0001
0032
0000
,
0100
0100
0103
0000
0001
1000
1001
0000
,
1000
0100
0110
0000
1000
0000
0001
0000
,
0010
0100
0010
0100
2000
0000
0000
0000
,
3020
0000
0130
0001
,
1000
0100
0200
0000
,
0320
0000
0031
1000
,
0010
0010
0200
0000
,
0301
0000
0001
0010
,
0100
0000
1000
0010
,
0100
0000
0001
1000
,
0110
0000
2000
0000
,
3020
0000
0130
0001
,
1000
0100
0100
0010
,
0001
0000
0000
0000
1000
0000
0010
0100
,
0010
0100
0200
0000
,
0302
0000
1003
0010
,
0100
0001
1000
1000
,
1001
0000
0001
0000
,
0110
0010
0200
2000
,
0000
0300
3100
0010
,
0001
0001
0200
0002
,
0000
0300
0013
0001
,
1000
0010
0020
0200
,
0000
0030
0310
1000
,
0001
0100
0200
0020
,
0000
0300
0130
0001
,
1000
0100
1100
0000
,
0010
0001
1000
0010
,
0100
0001
0101
0000
,
0001
1000
0100
0010
,
0100
0010
0001
1000
,
0010
0100
0000
2002
,
0000
0000
0000
0000
,
0000
0000
0000
0000
,
0000
0000
0000
0000
,
0000
0000
3003
0000
;

//--------------- dance-single - ----------------
#NOTES:
     dance-single:
     :
     Hard:
     10:
     0,0,0,0,0:
0000
0000
0000
0000
,
0000
0000
0000
0000
,
0000
0000
0000
0000
,
0000
0000
0000
0000
,
0000
0000
0000
0000
,
0000
0000
0000
0000
,
0000
0000
0000
0000
,
0000
0000
0000
0000
,
0101
0001
0010
0000
,
0100
1000
0001
0100
,
0110
0100
0001
0000
,
1000
0100
0010
0100
,
1001
1000
0010
0000
,
0100
0001
0010
0100
,
1100
1000
0001
0000
,
0010
0000
0001
0000
1000
0001
1000
0001
,
0010
0100
0010
0001
,
1000
0010
0100
0001
,
1001
1000
0010
0100
,
1000
0000
0100
0000
0001
1000
0010
0100
,
0001
0100
0010
0001
,
0010
1000
0100
0001
,
0100
0010
0001
1000
,
0010
0000
0100
0000
0001
0010
0100
1000
,
0001
0010
0001
1000
,
0010
0100
0010
0010
,
0110
0100
0001
1000
,
0100
0000
0010
0000
0100
1000
0010
0100
,
0001
0010
0001
1000
,
0010
0000
0000
0000
1000
0000
0001
0000
1000
0000
0010
0000
0100
0000
0001
0100
,
0001
0000
0010
0000
0002
0000
0000
0000
1003
0100
1000
0000
0010
0000
0100
0010
,
1000
0000
0100
0000
2000
0000
0000
0000
3010
0000
0100
0000
0001
0000
0010
0001
,
1000
0010
0200
0000
0301
1000
0100
0010
,
0001
0000
1000
0000
0020
0000
0000
0000
1030
0000
0100
0010
0100
0000
0010
0001
,
1000
0000
0010
0000
0200
0000
0000
0000
0301
0000
1000
0100
0010
0000
0001
0100
,
0010
0000
1000
0000
0002
0000
0000
0000
0013
0000
0100
0010
0001
0000
1000
0010
,
0100
0000
0010
0000
2000
0000
0000
0000
3010
0000
0100
0001
0010
0000
0001
1000
,
0010
0100
0101
1100
0110
0000
0010
0000
,
0001
1000
0001
0000
0100
0000
0010
0000
,
1000
0010
0100
0001
0010
0000
0001
1000
,
0100
0000
0010
0000
0001
1000
0010
0000
,
0100
0001
1000
0100
0010
0000
1000
0000
,
0001
0010
0100
0000
0010
0000
0001
0000
,
1000
0010
0100
0010
1000
0000
0100
0010
,
0001
0000
1000
0000
0001
0010
0001
1000
,
0010
0100
0010
1000
0100
0000
0001
0100
,
1000
0000
0001
0100
0010
0000
0100
0000
,
0001
1000
0100
0010
0001
0000
1000
0010
,
0100
0000
0001
0000
0001
1000
0010
0000
,
0100
0001
1000
0100
0010
0000
0001
1000
,
0001
0000
0010
0000
0001
0010
0100
0000
,
0010
0100
1000
0001
0100
0010
1000
0000
,
0010
0000
0100
0001
1000
0000
0100
0010
,
0001
1000
0010
0000
1010
0000
1000
0001
,
0010
0000
0001
0010
0100
0000
0100
0000
,
0011
0000
1001
0000
1000
0001
0010
0000
,
0100
0010
0001
1000
0010
0100
0001
0000
,
1000
0100
1000
0001
0100
0000
0010
0000
,
1000
0001
0100
0000
0001
0010
0100
0000
,
1100
0000
1001
0000
0010
0001
1000
0000
,
0010
0100
1000
0000
0100
0001
1000
0100
,
0010
0001
1000
0000
0010
0100
0010
0100
,
0001
0000
1000
0100
1000
0001
0010
0000
,
0100
0010
0100
0010
0001
0000
1000
0010
,
0100
0000
0110
0000
0010
1000
0001
0010
,
0100
0010
0001
1000
0010
0000
1000
0001
,
0010
0001
0100
0010
1000
0100
0010
0100
,
2000
0020
0000
0000
,
3000
0000
0000
0000
,
0000
0000
0000
0000
,
0000
0000
0030
0000
;

//--------------- dance-double - ----------------
#NOTES:
     dance-double:
     :
     Easy:
     7:
     0,0,0,0,0:
00000000
00000000
00000000
00000000
,
00000000
00000000
00000000
00000000
,
00000000
00000000
00000000
00000000
,
00000000
00000000
00000000
00000000
,
00000000
00000000
00000000
00000000
,
00000000
00000000
00000000
00000000
,
00000000
00000000
00000000
00000000
,
00000000
00000000
00000000
00000000
,
00011000
00000000
00010000
00010000
,
00010000
00000000
00010000
00000000
,
00011000
00000000
00001000
00001000
,
00001000
00000000
00001000
00000000
,
00000110
00000000
00000010
00000010
,
00000010
00000000
00000010
00000000
,
00000110
00000000
00000100
00000100
,
00000100
00000000
00000100
00000001
,
00000020
00000000
00000100
00000000
,
00002030
00000000
00013000
00001000
,
00200000
00000000
00010000
00000000
,
02300000
00000000
13000000
00100000
,
20000000
00000000
01000000
00000000
,
30020000
00000000
00130000
00001000
,
00020000
00000000
00001000
00000000
,
00030200
00000000
00001300
00000010
,
00000200
00000000
00000301
00000000
,
00002000
00000000
00003010
00000000
,
00020000
00000000
00031000
00000000
,
00200000
00000000
01300000
00000000
,
20000000
00000000
30020000
00000000
,
00130000
00001000
00010000
00010000
,
00001000
00011000
00000100
00000100
,
00000010
00001010
00001000
00001000
,
00000100
00010100
00000010
00000100
,
00000110
00000110
00020000
00000100
,
00000100
00031000
00200000
00010000
,
00010000
01300000
20000000
00100000
,
00010000
31000000
00200000
01300000
,
01100000
00011000
00020000
00000000
,
00030100
00000000
00000010
00000001
,
00001000
00000000
00000100
00000000
,
00010000
00000000
00100000
01000000
,
00100000
10000000
02000000
00000000
,
03010000
00000000
00001000
00010000
,
00001000
00000000
00000100
00000000
,
00000010
00000000
00001000
00000001
,
00000010
00001000
00020000
00000000
,
01030000
00000000
10000000
00100000
,
10000000
00000000
00010000
00000000
,
00100000
00000000
00001000
00000000
,
00010000
00000100
00002000
00000000
,
00003010
00000000
00000100
00000000
,
00000100
00000000
00000110
00000000
,
00000110
00000000
00000100
00001000
,
00010000
01000000
00200000
00000000
,
00001000
00001000
00000000
01000000
,
01300000
00000000
00010000
00000000
,
00001000
00000000
00010000
00001000
,
00000100
00000000
00000020
00000000
,
00000100
00000100
00000000
00010000
,
00010030
00000000
00001000
00000000
,
00110000
00000000
10100000
00000000
,
11000000
00000000
00200000
00000000
,
00301000
00020000
00000000
00000100
,
00030100
00000000
00000010
00000000
,
00000101
00000000
00001100
00000000
,
00011000
00000000
00100000
00000000
,
01000000
00010000
00001000
00002000
,
00000000
00000000
00000000
00000000
,
00000000
00000000
00000000
00000000
,
00000000
00000000
00000000
00000000
,
00000000
00000000
00003000
00000000
;

//--------------- dance-double - ----------------
#NOTES:
     dance-double:
     :
     Medium:
     8:
     0,0,0,0,0:
00000000
00000000
00000000
00000000
,
00000000
00000000
00000000
00000000
,
00000000
00000000
00000000
00000000
,
00000000
00000000
00000000
00000000
,
00000000
00000000
00000000
00000000
,
00000000
00000000
00000000
00000000
,
00000000
00000000
00000000
00000000
,
00000000
00000000
00000000
00000000
,
00000200
00000000
00000010
00000010
,
00000310
00000000
00000001
00000010
,
00002000
00000000
00010000
00010000
,
00013000
00000000
00001000
00100000
,
02000000
00000000
10000000
10000000
,
13000000
00000000
00010000
00100000
,
00002000
00000000
00010000
00010000
,
00013000
00000000
00011000
00010000
,
00000200
00000010
00000310
00000000
,
00000100
00000100
00000010
00000001
,
00002000
00000100
00003100
00000000
,
00010000
00001000
00100000
01000000
,
20000000
00100000
30100000
00000000
,
01000000
00100000
00010000
00001000
,
00000200
00000001
00000301
00000000
,
00001000
00000010
00000100
00001000
,
00020000
00001000
00031000
00000000
,
00100000
01000000
10000000
00100000
,
02000000
00100000
03100000
01000000
,
00010000
00100000
00001000
00010000
,
00011000
00000000
00010000
00001000
,
00000100
00000000
00000010
00000000
00001000
00000010
00002000
00000000
,
00000001
00000001
00003001
00000000
00000010
00000100
00020000
00000000
,
00000010
00000010
00030010
00000000
00010000
00001000
00200000
00000000
,
01000000
01000000
01300000
00000000
10000000
00010000
00200000
00000000
,
00001000
00001000
00301000
00000000
00020000
00001000
00032000
00000000
,
01000000
01000000
01003000
00000000
00200000
10000000
20300000
00000000
,
01000000
01000000
31000000
00000000
00100000
01000000
00100000
00010000
,
00100000
00001000
00011000
00000000
00010000
00000000
00001000
00000000
,
00000100
00000010
00000100
00000010
00002000
00000000
00000000
00000000
,
00003002
00000000
00000013
00001000
,
00010000
00000100
00000200
00000000
,
00000320
00000000
00001030
00010000
,
01000000
01000000
20000000
00000000
,
30200000
00000000
00310000
00001000
,
00010000
00000000
00000100
00000010
,
00000001
00000001
00001000
00000010
,
00000110
00000000
00000200
00000000
,
00000302
00000000
00001003
00000100
,
00010000
00100000
10000000
01000000
,
00010000
00000000
00000000
00000000
00001000
00000000
00010000
00001000
,
00010000
00000100
00000200
00000000
,
00000320
00000000
00000031
00000100
,
00000010
00001000
00000100
00010000
,
00011000
00000000
00010000
00000000
,
00000110
00000100
00002000
00000001
,
00000002
00003000
00000013
00000100
,
00010000
00001000
00200000
00001000
,
00002000
00300000
00013000
00100000
,
10000000
01000000
00200000
01000000
,
02000000
00300000
03100000
00010000
,
01000000
00100000
00020000
00001000
,
00002000
00030000
00013000
00000100
,
00000010
00000001
00000101
00000000
,
00000100
00001000
00010000
01000000
,
10000000
10000000
11000000
00000000
,
00100000
00010000
01000000
00100000
,
00010000
00001000
00010000
00000100
,
00000010
00000001
00000000
00002002
,
00000000
00000000
00000000
00000000
,
00000000
00000000
00000000
00000000
,
00000000
00000000
00000000
00000000
,
00000000
00000000
00003003
00000000
;

//--------------- dance-double - ----------------
#NOTES:
     dance-double:
     :
     Hard:
     10:
     0,0,0,0,0:
00000000
00000000
00000000
00000000
,
00000000
00000000
00000000
00000000
,
00000000
00000000
00000000
00000000
,
00000000
00000000
00000000
00000000
,
00000000
00000000
00000000
00000000
,
00000000
00000000
00000000
00000000
,
00000000
00000000
00000000
00000000
,
00000000
00000000
00000000
00000000
,
00010010
00000100
00000001
00000000
,
00000010
00000000
00000100
00000000
00010100
00000000
00001000
00000010
,
00000100
00001000
00010000
00000000
,
01000000
00000000
10000000
00000000
01100000
00000000
01000000
00010000
,
00100000
00001000
00010000
00000000
,
00000100
00000010
00000001
00000100
,
00000110
00001000
00000100
00000000
,
00010000
00000000
01000000
00000000
00100000
01000000
00100000
01000000
,
10000000
00100000
00010000
00001000
,
00010000
00001000
00000100
00000001
,
10010000
10000000
00100000
01000000
,
10000000
00000000
01000000
00000000
00010000
00100000
00001000
00010000
,
00000010
00001000
00000100
00000001
,
00000100
00000000
00010000
00000000
00100000
00000000
10000000
01000000
,
10000000
01000000
00100000
00010000
,
01000000
00000000
10000000
00000000
01000000
00010000
00100000
00001000
,
00010000
00000100
00000010
00000001
,
00000100
00001000
00010000
01000000
,
11000000
00100000
00001000
00010000
,
00000100
00000000
00000010
00000000
00000001
00000100
00000010
00001000
,
00000100
00000010
00001000
00010000
,
01000000
00000000
00000000
00000000
10000000
00000000
00100000
00000000
00001000
00000000
00000100
00000000
00000010
00000000
00000100
00001000
,
00000100
00000000
00000010
00000000
00002000
00000000
00000000
00000000
00013000
00001000
00010000
00000000
01000000
00000000
10000000
00100000
,
01000000
00000000
00010000
00000000
00200000
00000000
00000000
00000000
01300000
00000000
10000000
00000000
00100000
00000000
01000000
00010000
,
01000000
00100000
00020000
00000000
00031000
00000100
00000001
00000010
,
00000100
00000000
00010000
00000000
00002000
00000000
00000000
00000000
00103000
00000000
01000000
10000000
01000000
00000000
00100000
00010000
,
00100000
00000000
00001000
00000000
00020000
00000000
00000000
00000000
00030100
00000000
00000010
00000100
00001000
00000000
00000010
00000100
,
00000001
00000000
00000100
00000000
00002000
00000000
00000000
00000000
00103000
00000000
01000000
10000000
00010000
00000000
00100000
00001000
,
00010000
00000000
00000100
00000000
00000020
00000000
00000000
00000000
00000031
00000000
00000100
00000000
00001010
00000000
00001000
00000100
,
00000001
00000000
00000100
00000000
00010000
00001000
00010000
00001000
00100000
00000000
00000000
00000000
01000000
00000000
00000000
00000000
,
10000000
00100000
10000000
00000000
01000000
00000000
00010000
00000000
,
00001000
00000010
00000001
00000100
00001000
00000000
00010000
01000000
,
10000000
00000000
00100000
00000000
00010000
00001000
00010000
00000000
,
00000100
00000010
00001000
00010000
00001000
00000000
00100000
00000000
,
01000000
10000000
00010000
00000000
00100000
00000000
00001000
00000000
,
00010000
00001000
00010000
00000100
00000010
00000000
00000001
00000010
,
00001000
00000000
00010000
00000000
00001000
00000010
00000001
00000100
,
00000001
00001000
00000100
00010000
00001000
00000000
00100000
01000000
,
10000000
00000000
00100000
01000000
00010000
00000000
00100000
00000000
,
01000000
00100000
00001000
00010000
00001000
00000000
00000100
00000001
,
00000010
00000000
00000100
00000000
00000010
00000001
00000010
00000000
,
00000100
00001000
00000001
00000100
00001000
00000000
00010000
00001000
,
00010000
00000000
00100000
00000000
10000000
00100000
00010000
00000000
,
00100000
01000000
00010000
00100000
01000000
10000000
00100000
00000000
,
00010000
00000000
00001000
00000100
00000010
00000000
00001000
00000001
,
00000010
00000100
00001000
00000000
00001100
00000000
00000010
00000100
,
00001000
00000000
00000010
00000100
00001000
00000000
00010000
00000000
,
00101000
00000000
01100000
00000000
10000000
01000000
00100000
00000000
,
01000000
10000000
00010000
01000000
00100000
00010000
00001000
00000000
,
00100000
01000000
10000000
00100000
01000000
00000000
00010000
00000000
,
00001000
00010000
00000100
00000000
00000010
00000001
00000010
00000000
,
00000110
00000000
00010100
00000000
00010000
00001000
00000100
00000000
,
00000010
00000100
00000001
00000000
00000010
00001000
00010000
00001000
,
01000000
00100000
01000000
00000000
00100000
10000000
01000000
00100000
,
01000000
00000000
00100000
00001000
00010000
00000100
00000010
00000000
,
00000001
00000010
00000001
00000100
00000010
00000000
00001000
00000100
,
00000010
00000000
00000011
00000000
00000010
00000001
00000100
00001000
,
00010000
00001000
00010000
00100000
01000000
00000000
00010000
00100000
,
01000000
00010000
00001000
00000100
00000010
00001000
00000100
00000010
,
00000002
00000200
00000000
00000000
,
00000003
00000000
00000000
00000000
,
00000000
00000000
00000000
00000000
,
00000000
00000000
00000300
00000000
;

//--------------- dance-solo - ----------------
#NOTES:
     dance-solo:
     :
     Beginner:
     1:
     0,0,0,0,0:
000000
000000
000000
000000
,
000000
000000
000000
000000
,
000000
000000
000000
000000
,
000000
000000
000000
000000
,
000000
000000
000000
000000
,
000000
000000
000000
000000
,
000000
000000
000000
000000
,
000000
000000
000000
000000
,
000001
000000
000100
000000
,
000010
000000
000010
000000
,
100000
000000
000100
000000
,
010000
000000
010000
000000
,
000001
000000
001000
000000
,
000100
000000
000100
000000
,
100000
000000
001000
000000
,
000100
000000
000100
000000
,
000001
000000
000000
000000
,
100001
000000
000000
000000
,
000010
000000
000000
000000
,
010010
000000
000000
000000
,
100000
000000
000000
000000
,
100001
000000
000000
000000
,
010000
000000
000000
000000
,
010010
000000
000000
000000
,
000100
000000
000000
000000
,
001100
000000
000000
000000
,
001000
000000
000000
000000
,
001100
000000
000000
000000
,
000001
000000
100000
000000
,
100001
000000
010000
000000
,
010000
000000
000010
000000
,
000010
000000
010000
000000
,
010000
000000
000010
000000
,
000010
000000
100000
000000
,
100000
000000
000001
000000
,
000001
000000
100000
000000
,
100000
000000
000001
000000
,
000001
000000
100000
000000
,
000000
000000
001000
000000
,
000000
000000
100000
000000
,
000000
000000
010000
000000
,
000000
000000
000001
000000
,
000000
000000
001000
000000
,
000000
000000
000001
000000
,
000000
000000
000010
000000
,
000000
000000
000100
000000
,
000000
000000
001000
000000
,
000000
000000
100000
000000
,
000000
000000
000100
000000
,
000000
000000
000100
000000
,
000000
000000
001000
000000
,
000000
000000
000001
000000
,
000000
000000
000100
000000
,
000000
000000
000010
000000
,
010000
000000
000010
000000
,
000000
000000
010000
000000
,
000010
000000
010000
000000
,
000000
000000
000001
000000
,
000100
000000
000010
000000
,
000000
000000
100000
000000
,
000100
000000
010000
000000
,
000000
000000
001000
000000
,
000000
000000
100000
000000
,
000000
000000
000001
000000
,
000000
000000
001000
000000
,
000000
000000
000100
000000
,
000000
000000
010010
000000
;
