#VERSION:0.83;
#TITLE:dance the;
#SUBTITLE:;
#ARTIST:Bill Wurtz;
#TITLETRANSLIT:;
#SUBTITLETRANSLIT:;
#ARTISTTRANSLIT:;
#GENRE:;
#CREDIT:;
#MUSIC:dance the.ogg;
#BANNER:dance the.png;
#BACKGROUND:;
#CDTITLE:;
#SAMPLESTART:29.745;
#SAMPLELENGTH:15.000;
#SELECTABLE:YES;
#OFFSET:-0.350;
#BPMS:0.000=98.000;
#STOPS:;
#SPEEDS:0.000=1.000=0.000=0;
#SCROLLS:0.000=1.000;
#TICKCOUNTS:0.000=4;
#TIMESIGNATURES:0.000=4=4;
#LABELS:0.000=Song Start;
#COMBOS:0.000=1;
#ORIGIN:;
#PREVIEWVID:;
#JACKET:;
#CDIMAGE:;
#DISCIMAGE:;
#BGCHANGES:;
#FGCHANGES:;

//--------------- dance-single - ----------------
#NOTEDATA:;
#STEPSTYPE:dance-single;
#DESCRIPTION:;
#DIFFICULTY:Beginner;
#METER:1;
#RADARVALUES:0.137569,0.186202,0.120373,0,0,64,56,8,0,0,0,0,0,0,0.137569,0.186202,0.120373,0,0,64,56,8,0,0,0,0,0,0;
#CHARTNAME:;
#CHARTSTYLE:;
#CREDIT:;
#NOTES:
0010
0010
0010
0000
,
0100
0100
0100
0000
,
0001
0001
0001
0000
,
1000
1000
1000
0000
,
0001
0000
1000
0000
,
0001
0000
1000
0000
,
0010
0000
0100
0000
,
0010
0000
0100
0000
,
0001
0000
1000
0000
,
0010
0000
0100
0000
,
0010
0000
0000
0000
,
1001
0000
0000
0000
,
0001
0000
1000
0000
,
0010
0010
0010
0000
,
1000
0000
0001
0000
,
0010
0010
0010
0000
,
0100
0000
0010
0000
,
0001
0000
1000
0000
,
1001
0000
0000
0000
,
0100
0000
0010
0000
,
0110
0110
0110
0000
,
0000
0000
0001
0000
,
1000
0000
0001
0001
,
0000
1001
1001
1001
,
0000
0010
0010
0010
;

//--------------- dance-single - ----------------
#NOTEDATA:;
#STEPSTYPE:dance-single;
#DESCRIPTION:;
#DIFFICULTY:Easy;
#METER:3;
#RADARVALUES:0.167663,0.175199,0.030093,0.18056,0,78,76,2,12,0,0,0,0,0,0.167663,0.175199,0.030093,0.18056,0,78,76,2,12,0,0,0,0,0;
#CHARTNAME:;
#CHARTSTYLE:;
#CREDIT:;
#NOTES:
0001
1000
0001
0100
,
1000
0001
1000
0100
,
0010
0001
1000
0100
,
0001
0000
1000
0001
0000
0000
0000
0000
,
0002
0000
0013
0001
,
2000
0000
3010
1000
,
0200
0000
0310
0001
,
0200
0000
0310
1000
,
0100
1001
0000
0001
,
1000
0010
0100
0010
,
0000
0000
2000
0000
0010
0000
0000
0002
,
0000
0000
3003
0000
,
0001
0010
1000
0100
,
0010
0000
0001
0001
,
0001
0000
0000
1000
0000
1000
0010
0000
,
0020
0000
0130
0000
,
1000
0100
0010
1000
,
0010
0000
0001
1000
0000
0000
0000
0010
,
0010
0000
0000
1001
,
0200
0000
0310
0000
,
0001
0001
0002
0000
,
0013
0000
1000
1000
,
2000
0000
3010
0000
,
0100
0001
1000
0020
,
0000
0000
0130
0000
0000
0000
0000
0020
,
0000
0000
0000
0000
0000
0000
0000
0030
;

//--------------- dance-single - ----------------
#NOTEDATA:;
#STEPSTYPE:dance-single;
#DESCRIPTION:;
#DIFFICULTY:Medium;
#METER:5;
#RADARVALUES:0.285886,0.272532,0.105327,0.255793,0.037617,133,126,7,17,0,0,0,0,0,0.285886,0.272532,0.105327,0.255793,0.037617,133,126,7,17,0,0,0,0,0;
#CHARTNAME:;
#CHARTSTYLE:;
#CREDIT:;
#NOTES:
1000
0000
0001
0000
0010
0001
1000
0000
,
0100
0000
1000
0000
0001
1000
0100
0000
,
0010
0000
0001
0000
1000
0010
0100
0001
,
0010
0000
0001
1000
0000
0000
0000
0000
,
0100
0000
0010
1000
0001
0000
0100
0000
,
0001
0010
0100
0000
1000
0001
0100
0000
,
0010
0000
1001
0000
0100
0010
1000
0000
,
0001
0010
0100
1000
0001
0100
0001
0000
,
0010
0000
2000
0000
0100
0000
3001
0010
,
0002
0100
0010
0103
,
0010
0000
0000
0000
1000
0000
0001
0000
0100
0000
0000
0010
0000
0000
2002
0000
,
0000
0000
3003
0000
0001
1000
0001
1000
,
0010
0000
1000
0100
0010
0000
0001
1000
,
0100
0000
0000
0100
1000
0000
0010
0000
,
1001
0000
0000
0001
0000
0010
0001
0100
,
0020
0000
2000
0000
0000
0000
0000
0000
3030
0000
0000
0000
1000
0100
0000
0000
,
1000
0000
0001
0010
0001
0100
0010
1000
,
0200
0000
0000
1000
0000
0000
0320
0000
0000
0000
0001
0000
0000
0000
0032
0000
,
2000
0000
3003
1001
0000
0001
0100
0010
,
2000
3100
0002
0103
,
0010
0000
1000
0000
0102
0000
0000
0013
,
0000
0001
1000
0000
1000
0000
0010
0000
,
2100
0000
0000
3010
0000
0100
0001
0010
,
0100
1000
0010
0000
0100
0001
0020
0000
,
0130
0000
1000
0000
0010
0000
0000
1000
0000
0001
0000
0000
0000
0000
2002
0000
,
0000
0000
0000
0000
0000
0000
0000
3003
;

//--------------- dance-single - ----------------
#NOTEDATA:;
#STEPSTYPE:dance-single;
#DESCRIPTION:;
#DIFFICULTY:Hard;
#METER:7;
#RADARVALUES:0.397661,0.428265,0.255793,0.18056,0.285886,185,168,17,12,0,0,0,0,0,0.397661,0.428265,0.255793,0.18056,0.285886,185,168,17,12,0,0,0,0,0;
#CHARTNAME:;
#CHARTSTYLE:;
#CREDIT:;
#NOTES:
0001
1000
0000
0001
0000
1000
0000
0000
0010
0000
0100
0000
0110
0000
0000
0000
,
1000
0001
0000
1000
0000
0001
0000
0000
0100
0000
0010
0000
0110
0000
0000
0000
,
1000
0100
0000
0010
0000
0001
0000
0000
0010
0000
0100
0000
1000
0000
0100
0000
,
0020
0001
0130
0110
0000
0000
0000
0000
,
1001
0000
0000
0000
1000
0100
0000
0000
0010
0000
0000
0000
0001
0000
1000
0000
,
1001
0000
0010
0100
0010
0100
0110
0000
,
2000
0000
0100
0000
3001
0010
0010
0000
,
0200
0001
0000
0301
0100
0010
0100
0000
,
0010
0000
0001
0000
0012
0000
0000
0000
0103
0000
0010
0000
1000
0000
0001
1000
,
0001
0100
0010
0000
1000
1000
0100
1000
,
0000
0000
0001
0000
0010
0000
0001
0000
1000
0000
0000
0100
0000
0000
2000
0000
,
0000
0002
0000
0000
3003
0000
0000
0000
,
0100
1000
0000
0001
0100
0000
0001
0000
0100
0001
0000
1000
0100
0000
1000
0000
,
0010
1000
0000
0001
0010
0000
0001
0000
0010
0001
0000
1000
0010
0000
1000
0000
,
1001
0000
0000
0010
0000
0000
0010
0000
0000
0001
0100
0000
1000
0100
0000
1001
,
0000
0020
0000
0030
0100
0001
1000
0000
,
0100
0000
0010
0000
0010
0000
0000
0001
2000
0000
0000
0000
3010
0000
0010
0000
,
0101
0000
0000
1000
0000
0000
0010
0000
0100
0000
0001
0100
0001
0000
1000
0000
,
2002
0000
0000
0000
3003
0000
0110
0000
0000
0000
0001
1000
0001
1000
0010
0000
,
0100
0001
0001
0000
1000
0100
0100
0010
,
0001
0000
0000
0000
0010
0000
0001
0000
0000
0000
1000
0000
0100
0000
0000
1000
0000
0000
0001
0000
0000
1001
0000
0000
,
0000
0000
0000
0000
1000
0000
0001
0000
1001
0000
0000
0000
0100
0000
0010
1000
,
0010
1000
0001
0001
0100
0001
0010
0110
,
0000
0000
0000
1001
0000
0010
0001
0000
0100
0010
0000
1000
,
0100
0000
0010
0000
1000
0001
1000
0010
0000
0010
0000
0000
0000
0000
0220
0000
,
0000
0000
0000
0000
0000
0000
0000
0330
;

//--------------- dance-single - Why the heck did I make this chart super hard... ----------------
#NOTEDATA:;
#STEPSTYPE:dance-single;
#DESCRIPTION:Why the heck did I make this chart super hard...;
#DIFFICULTY:Challenge;
#METER:9;
#RADARVALUES:0.487941,0.583998,0.526633,0.571773,0.421306,227,192,35,38,0,0,0,0,0,0.487941,0.583998,0.526633,0.571773,0.421306,227,192,35,38,0,0,0,0,0;
#CHARTNAME:;
#CHARTSTYLE:;
#CREDIT:;
#NOTES:
0001
1000
0000
1001
0000
1001
0000
0100
0010
0100
0010
0000
0110
0000
0000
0000
,
1000
0001
0000
1001
0000
1001
0000
0010
0100
0010
0100
0000
0110
0000
0000
0000
,
1000
0100
0000
0010
0000
0001
0000
0001
0010
0100
1000
0000
1001
0000
0010
0000
,
0110
1000
1001
0220
0000
0330
0000
0000
,
2001
0000
0000
0000
3100
0200
0000
0000
0320
0000
0000
0000
0032
0000
0000
0000
,
1003
0010
0210
0001
0301
1000
1001
0000
,
0102
0000
0000
0000
1000
0000
0000
0000
0013
0000
0200
0020
0000
0000
0330
0000
,
2100
0000
0001
0000
3010
0100
0110
0000
,
1000
0000
0100
0000
0022
0000
0000
0000
0030
0000
0100
0000
0103
0000
0001
0020
,
0001
0000
0030
0000
0100
0000
0100
1000
0100
0010
0100
0000
0110
0000
0000
0000
,
0000
0000
1000
0000
0001
0000
1001
0000
0010
0000
0000
0100
0000
0000
0020
0000
,
0000
0200
0000
0000
0330
0000
0110
0000
,
0100
1000
0100
1000
0100
1000
0001
0000
0100
0001
0100
0001
0100
0001
1000
0000
,
0010
1000
0010
1000
0010
1000
0001
0000
0010
0001
0010
0001
0010
0001
1000
0000
,
2001
0000
0000
0010
0000
3000
0010
1000
0010
1000
0001
1000
0100
1000
0100
0000
,
1002
0000
0000
0010
0000
0003
0010
0001
0010
0001
1000
0001
0100
0001
0100
0000
,
2100
0000
3010
0000
0010
0000
1000
0001
0010
0100
0000
0000
0001
0100
0001
0000
,
0201
0010
0310
2200
3300
1001
1001
0020
,
0030
0000
0001
0000
0001
0010
0100
0000
0001
0000
0012
0000
0000
0000
1003
0000
,
2020
0000
0000
0000
3030
0000
0001
0000
0100
0000
0010
0000
0100
0001
1000
0000
,
1001
0000
0000
0000
0001
0000
0010
0000
0001
0000
1000
0000
0020
0000
0000
1000
0000
0000
0000
0000
0000
1030
0000
0000
,
0000
0201
0310
2000
0000
0100
3001
0010
,
0102
0000
1003
0020
0100
0100
0030
0220
,
0000
0000
0000
0330
0000
0000
0001
0000
0000
0000
0010
0000
0001
0000
0000
0000
1000
0000
0020
0000
0000
0100
0000
0000
,
0130
0000
0001
0000
1000
0010
0100
0010
0000
0220
0000
0000
0330
0000
2002
0000
,
0000
0000
0000
0000
0000
0000
0000
3003
;

//--------------- dance-double - ----------------
#NOTEDATA:;
#STEPSTYPE:dance-double;
#DESCRIPTION:;
#DIFFICULTY:Easy;
#METER:2;
#RADARVALUES:0.159065,0.155733,0.030093,0.195606,0,74,72,2,13,0,0,0,0,0,0.159065,0.155733,0.030093,0.195606,0,74,72,2,13,0,0,0,0,0;
#CHARTNAME:;
#CHARTSTYLE:;
#CREDIT:;
#NOTES:
00010000
00000000
00100000
00001000
,
00010000
00000000
00001000
00010000
,
00000100
00000000
00001000
00000000
,
00000001
00000000
00001000
00000001
00000000
00000000
00000000
00000000
,
00002000
00000000
00003100
00010000
,
00002000
00000000
00103000
00010000
,
02000000
00000000
03100000
10000000
,
02000000
00000000
03100000
00001000
,
00010000
00001000
00000000
00010000
,
00000100
00000010
00000100
00000010
,
00000000
00000000
00020000
00000000
00000100
00000000
00000000
00002000
,
00000000
00000000
00033000
00000000
,
00010000
00001000
00000100
00001000
,
00100000
00000000
00010000
00100000
,
00001000
00000000
00000000
00010000
00000000
00010000
00001000
00000000
,
00020000
00000000
00030100
00000000
,
00000010
00000001
00001000
00000001
,
00000100
00000000
00000000
00000100
00000000
00000000
00000000
00000010
,
00000010
00000000
00000000
00000110
,
00000220
00000000
00000330
00000001
,
00001000
00000100
00020000
00000000
,
00031000
00100000
00010000
00100000
,
00020000
00000000
00130000
00000000
,
00001000
00010000
00000100
00002000
,
00000000
00000000
00003001
00000000
00000000
00000000
00000000
00000200
,
00000000
00000000
00000000
00000000
00000000
00000000
00000000
00000300
;

//--------------- dance-solo - 2025 chart ----------------
#NOTEDATA:;
#STEPSTYPE:dance-solo;
#DESCRIPTION:2025 chart;
#DIFFICULTY:Beginner;
#METER:1;
#RADARVALUES:0,0,0,0,0;
#NOTES:
000100
000100
000100
000000
,
001000
001000
001000
000000
,
000010
000000
010000
000000
,
000001
000000
100000
000000
,
000010
000000
100000
000000
,
000010
000000
010000
000000
,
000001
000000
010000
000000
,
000100
000000
001000
000000
,
000001
000000
100000
000000
,
000100
000000
001000
000000
,
000010
000000
010000
000000
,
010010
000000
000000
000000
,
000001
000000
100000
000000
,
000010
000010
000010
000000
,
100000
000000
000001
000000
,
010000
010000
010000
000000
,
001000
000000
000100
000000
,
000010
000000
010000
000000
,
100001
000000
000000
000000
,
001000
000000
000100
000000
,
010000
010000
010000
000000
,
000010
000000
100000
000000
,
000001
000000
100000
100000
,
000000
000010
000010
000010
,
000000
001000
001000
001000
;
