#TITLE:butterfly (KCP Kung Fu Mix);
#SUBTITLE:;
#ARTIST:SMiLE.dk;
#TITLETRANSLIT:;
#SUBTITLETRANSLIT:;
#ARTISTTRANSLIT:;
#GENRE:;
#CREDIT:;
#MUSIC:butterfly (KCP Kung Fu Mix).mp3;
#BANNER:;
#BACKGROUND:butterfly (KCP Kung Fu Mix)-bg.jpg;
#CDTITLE:;
#SAMPLESTART:48.49;
#SAMPLELENGTH:12;
#SELECTABLE:YES;
#OFFSET:-0.496;
#BPMS:0.000=135.000;
#STOPS:;
#BGCHANGES:;
#FGCHANGES:;

//--------------- dance-single - ----------------
#NOTES:
     dance-single:
     :
     Beginner:
     1:
     0,0,0,0,0:
0000
0000
0000
0000
,
0000
0000
0000
0000
,
0001
0000
0000
0000
,
0000
0000
0000
0000
,
0001
0000
0000
0000
,
0000
0000
0000
0000
,
1000
0000
0000
0000
,
0000
0000
0000
0000
,
1000
0000
0000
0000
,
0000
0000
0000
0000
,
0001
0000
0000
0000
,
0001
0000
0000
0000
,
0010
0000
0000
0000
,
0010
0000
0000
0000
,
1000
0000
0000
0000
,
1000
0000
0000
0000
,
0010
0000
0000
0000
,
0010
0000
0000
0000
,
0000
0000
0000
0000
,
0100
0000
0000
0000
,
0100
0000
0000
0000
,
0100
0000
0000
0000
,
0000
0000
0000
0000
,
0100
0000
0000
0000
,
0100
0000
0000
0000
,
0100
0000
0000
0000
,
0000
0000
0000
0000
,
0001
0000
0001
0000
,
0001
0000
0000
0000
,
0001
0000
0001
0000
,
0001
0000
0000
0000
,
1000
0000
1000
0000
,
1000
0000
0000
0000
,
1000
0000
1000
0000
,
1000
0000
0000
0000
,
0010
0000
0000
0000
,
0010
0000
0000
0000
,
0010
0000
0000
0000
,
0000
0000
0000
0000
,
0010
0000
0000
0000
,
0010
0000
0000
0000
,
0010
0000
0000
0000
,
0000
0000
0000
0000
,
1000
0000
1000
0000
,
1000
0000
0000
0000
,
1000
0000
1000
0000
,
1000
0000
0000
0000
,
0001
0000
0001
0000
,
0001
0000
0000
0000
,
0001
0000
0001
0000
,
0001
0000
0000
0000
,
0100
0000
0000
0000
;

//--------------- dance-single - ----------------
#NOTES:
     dance-single:
     :
     Easy:
     2:
     0,0,0,0,0:
0000
0000
0000
0000
,
0000
0000
0000
0000
,
0002
0000
0000
0003
,
2000
0000
0000
3000
,
0002
0000
0000
0003
,
0000
0000
0000
0000
,
2000
0000
0000
3000
,
0002
0000
0000
0003
,
2000
0000
0000
3000
,
0010
0010
0010
0000
,
1000
0001
1000
0000
,
1000
0000
0100
0000
,
1000
0001
1000
0000
,
0010
0010
0010
0000
,
0001
1000
0001
0000
,
0001
0000
0100
0000
,
0001
1000
0001
0000
,
0010
0010
0010
0000
,
0000
0000
0000
0000
,
1000
0000
1000
0000
,
0100
0000
0100
0000
,
0001
0000
0001
0000
,
0010
0000
0010
0000
,
1000
0000
1000
0000
,
0001
0000
0001
0000
,
1000
0001
1000
0000
,
0001
1000
0001
0000
,
1001
0000
0010
0000
,
1000
0000
0100
0000
,
0001
1000
0001
0000
,
1000
0001
1000
0000
,
1001
0000
0010
0000
,
0001
0000
0100
0000
,
1000
0001
1000
0000
,
0001
1000
0001
0000
,
0001
0000
0001
0000
,
0010
0000
0010
0000
,
1000
0000
1000
0000
,
0100
0000
0100
0000
,
0001
0000
0001
0000
,
1000
0000
1000
0000
,
0001
1000
0001
0000
,
1000
0001
1000
0000
,
0010
1000
0010
0000
,
0100
0000
0100
0000
,
0001
0000
1000
0000
,
0001
0000
0001
0000
,
0010
0001
0010
0000
,
0100
0000
0100
0000
,
1000
0000
0001
0000
,
1000
0000
1000
0000
,
0020
0000
0030
0000
;

//--------------- dance-single - ----------------
#NOTES:
     dance-single:
     :
     Medium:
     4:
     0,0,0,0,0:
0000
0000
0000
0000
,
0000
0000
0000
0000
,
0002
0100
0000
0103
,
2000
0100
0000
3100
,
0002
0000
2003
0000
,
3020
0000
0030
0000
,
1000
0000
1000
0100
,
0010
0000
0001
0100
,
0010
0000
0001
0000
,
1000
0001
2002
3003
,
1000
0010
1000
0010
1000
0000
0000
0000
,
0001
0100
0001
0000
,
2000
3000
0002
0003
,
0010
0010
1001
0000
,
0001
0100
0001
0100
0001
0000
0000
0000
,
1000
0010
1000
0000
,
0002
0003
2000
3000
,
0110
0110
1001
0000
,
0000
0000
0000
0000
,
2000
0000
3010
0000
,
0002
0000
0013
0000
,
0001
0001
1000
1000
,
0100
0010
0110
0000
,
2000
0000
3100
0000
,
0002
0000
0103
0000
,
0010
0001
1000
0100
,
0220
0330
2002
3003
,
1000
1000
1000
0100
,
0001
0010
0002
0003
,
1000
0100
1000
0000
0001
0100
0001
0000
,
0010
0010
0020
0030
,
0001
0001
0001
0100
,
1000
0010
2000
3000
,
0001
0100
0001
0000
1000
0100
1000
0000
,
0100
0100
0200
0300
,
0020
0000
1030
0000
,
0200
0000
0301
0000
,
1000
0100
0001
0100
,
0010
0010
0010
0000
,
0200
0000
1300
0000
,
0020
0000
0031
0000
,
1000
0010
0001
0010
,
0220
0330
2002
3003
,
1000
0010
1000
0010
,
0100
0001
0100
0001
0100
0000
0000
0000
,
1001
0000
0010
0000
,
0100
0100
0100
0000
,
0001
0010
0001
0010
,
0100
1000
0100
1000
0100
0000
0000
0000
,
1100
0000
1010
0000
,
0101
0000
0011
0000
,
2002
0000
3003
0000
;

//--------------- dance-single - ----------------
#NOTES:
     dance-single:
     :
     Hard:
     7:
     0,0,0,0,0:
0000
0000
0000
0000
,
0000
0000
0000
0000
,
0000
0001
0000
0001
1000
0010
0100
0000
,
0000
1000
0000
1000
0001
0010
0100
0000
,
0000
1000
0000
0010
0100
0001
0010
0000
,
0100
0100
0100
0100
,
1001
0010
0000
0010
0001
1000
0010
0000
,
0000
0100
0000
0100
0001
1000
0100
0000
,
0000
0010
0000
0010
0100
0010
0100
0000
,
1000
0010
0001
0010
0200
0000
0300
0000
,
1001
0000
0001
0010
1000
0000
0001
0100
,
1000
0001
1000
0100
0020
0000
0030
0000
,
2000
0000
3100
0010
0002
0000
1003
0001
,
0100
0010
0100
0001
1000
0000
0110
0000
,
0001
0010
0001
1000
0010
0000
0100
0001
,
1000
0100
0010
0100
2000
0000
3010
0000
,
0002
0000
0103
0010
0200
0000
0310
0000
,
1000
0010
0100
0001
0010
0000
1100
0000
,
0101
0000
1000
1000
0001
0000
0010
0010
,
0001
0000
0000
0010
0001
0000
0100
0000
0020
0000
0000
0000
1030
0000
0000
0000
,
0001
0000
0000
0100
0001
0000
1000
0000
0200
0000
0000
0000
0310
0000
0000
0000
,
0100
0000
1000
0001
1000
0000
0010
0100
,
0010
0000
1000
0000
0001
0000
0001
1000
,
0100
0000
0000
0100
1000
0000
0010
0000
0200
0000
0000
0000
0301
0000
0000
0000
,
0010
0000
0000
0001
1000
0000
0100
0000
0020
0000
0000
0000
0130
0000
0000
0000
,
1000
0000
0001
0010
0001
0000
1000
0010
,
0100
0000
0010
1000
0001
0000
1000
0000
,
0101
0000
0001
0010
0001
0000
1000
0010
,
0100
0001
1000
0100
0020
0000
0130
0000
,
2000
0000
3001
0010
0002
0000
0103
0010
,
1000
0101
1100
0000
,
1001
0000
1000
0010
0001
0000
1000
0100
,
0001
0100
0010
0100
0020
0000
0130
0000
,
0020
0000
0031
1000
0200
0000
0300
0000
,
1010
0011
1001
0000
,
1000
0000
0000
0010
1000
0000
0001
0000
0020
0000
0000
0000
0031
0000
0000
0000
,
0001
0000
0000
0100
0001
0000
1000
0000
0200
0000
0000
0000
0310
0000
0000
0000
,
0100
0000
1000
0001
0001
0000
0010
0000
,
0001
0100
1000
0100
,
0110
0000
0000
0010
0001
0000
1000
0000
0020
0000
0000
0000
1030
0000
0000
0000
,
1000
0000
0000
0001
1000
0000
0001
0000
0200
0000
0000
0000
0301
0000
0000
0000
,
0010
0000
0001
1000
0001
0000
1000
0001
,
1000
0000
0100
0100
0100
0000
0110
0000
,
1000
0010
0001
0000
0100
0000
0100
0000
,
0001
0010
0001
1000
0020
0000
0130
0000
,
2000
0000
3100
0010
0002
0000
1003
0001
,
0100
0010
1000
0100
0010
0100
0010
0001
,
2000
0000
0010
0000
3001
0000
0010
0010
,
0002
0000
0100
0000
0013
0000
0100
0010
,
0001
0000
1000
0000
0010
1000
0100
1000
,
0001
0001
0010
0001
1000
0010
0100
0100
,
2002
0000
3003
0000
;
