#TITLE:burger king;
#SUBTITLE:;
#ARTIST:Bill Wurtz;
#TITLETRANSLIT:;
#SUBTITLETRANSLIT:;
#ARTISTTRANSLIT:;
#GENRE:;
#CREDIT:;
#MUSIC:burger king.ogg;
#BANNER:burger king.png;
#BACKGROUND:;
#CDTITLE:cdtitle.png;
#SAMPLESTART:10.69;
#SAMPLELENGTH:12;
#SELECTABLE:YES;
#OFFSET:-0.029;
#BPMS:0.000=135.000;
#STOPS:;
#BGCHANGES:;
#FGCHANGES:;

//--------------- dance-single - ----------------
#NOTES:
     dance-single:
     :
     Easy:
     3:
     0,0,0,0,0:
0000
0000
0000
0000
,
0000
0000
0000
0000
,
0001
0000
0010
0000
,
0001
0000
0100
0000
,
1000
0000
0010
0000
,
1000
0000
0000
0000
,
1001
0000
1000
0000
,
0010
0010
0000
0000
,
0001
0000
0010
0010
,
0010
0000
0100
1000
,
0010
0000
0100
0001
,
0010
0010
0000
0001
,
1000
0000
0100
1000
,
0010
0010
0000
1000
,
0001
0000
1000
0000
,
0010
0000
0100
0100
,
1001
0000
0000
0000
;

//--------------- dance-single - ----------------
#NOTES:
     dance-single:
     :
     Medium:
     5:
     0,0,0,0,0:
0000
0000
0000
0000
,
0000
0000
0000
0000
,
1000
0000
0010
0000
,
0001
0000
0100
0000
,
0001
0010
1000
0100
,
1001
0000
0000
0000
0000
0000
0000
1000
,
0001
0000
0010
0000
0001
0010
0100
0000
,
0010
0100
1000
0000
0010
0000
0010
0000
,
1000
0010
1000
0000
0001
0100
0001
0000
,
1100
0011
0010
0001
,
1000
0010
0101
1010
,
1000
0010
1000
0000
0001
0100
0000
0001
,
0000
0000
1000
0000
0100
0010
0100
0000
,
0010
0001
0010
0000
0100
1000
0000
0100
,
0000
0000
0001
0001
0010
0010
0001
0000
,
1000
0000
0000
1000
0000
0000
0010
0000
0000
0010
0000
0000
1000
0000
0000
0000
0001
0000
0000
0000
1000
0000
0000
0000
,
1001
0000
0000
0000
;

//--------------- dance-single - ----------------
#NOTES:
     dance-single:
     :
     Hard:
     8:
     0,0,0,0,0:
0000
0000
0000
0000
,
0000
0000
0000
0000
,
2000
0000
0000
0000
0000
0000
0000
0000
3001
0000
0000
0010
0000
0000
0200
0000
,
0000
0320
0000
0030
0001
0000
0000
0000
,
0001
1000
0010
0100
,
0220
0000
0000
0000
0000
0000
0000
0000
0000
0000
0330
0000
0000
0000
1000
0100
,
1000
0000
0000
0100
0010
0000
0000
0000
0001
0010
0001
0100
0000
0000
0010
0000
,
1000
0000
0010
0000
0001
0000
0000
0000
0220
0000
0000
0000
0330
0000
1000
0010
,
1000
0000
0100
0010
0001
0000
1000
0000
0001
0000
0001
0000
0010
0000
0100
0000
,
1000
0000
0100
0000
0001
0000
0000
0000
1001
0000
0000
0000
0000
0010
1000
0000
,
0001
0000
0010
0000
0100
0000
0010
0000
0001
0100
0001
0100
0000
0000
0010
1000
,
0100
1000
2001
0000
3001
0010
0000
0011
,
0000
1000
0010
0000
0100
0001
1000
0000
0100
0010
0001
0010
0000
0100
1000
0000
,
0010
0000
0010
0000
0110
0000
1000
0100
0010
0100
0010
0000
0002
0000
2000
0000
,
0003
3010
0100
0001
1000
0010
0100
0001
,
1000
0100
1000
0100
1000
0000
0000
0000
0001
0100
0001
0100
0001
0000
0000
0000
,
2002
0000
0000
0000
,
0000
0000
0000
3003
;

//--------------- dance-solo - ----------------
#NOTES:
     dance-solo:
     :
     Beginner:
     1:
     0,0,0,0,0:
000000
000000
000000
000000
,
000000
000000
000000
000000
,
000000
000000
000000
000000
,
000000
000000
000000
000000
,
000001
000000
100000
000000
,
001000
000000
000000
000000
,
100001
000000
000000
000000
,
000100
000100
000000
000000
,
001000
000000
001000
000000
,
001000
000000
000000
000000
,
000010
000000
000000
000000
,
010000
000000
000000
000000
,
000100
000000
000000
000000
,
000100
000000
000100
000000
,
010010
000000
000000
000000
,
000000
000000
000000
000000
,
100001
000000
000000
000000
;
