#TITLE:bryant park;
#SUBTITLE:;
#ARTIST:Bill Wurtz;
#TITLETRANSLIT:;
#SUBTITLETRANSLIT:;
#ARTISTTRANSLIT:;
#GENRE:;
#CREDIT:8Chasey;
#MUSIC:bryant park.ogg;
#BANNER:;
#BACKGROUND:;
#CDTITLE:;
#SAMPLESTART:53.35;
#SAMPLELENGTH:12;
#SELECTABLE:YES;
#OFFSET:-1.153;
#BPMS:0.000=54.000
,28.000=108.000
,60.000=54.000
,64.000=108.000
,120.000=54.000
,124.000=108.000
;
#STOPS:;
#DISPLAYBPM:108.000;
#BGCHANGES:-0.125=bryant park.avi=1.000=0=0=0=StretchNoLoop====,
124.000=bryant park-bg.png=1.000=0=0=1,
99999.000=-nosongbg-=1.000=0=0=0=StretchNoLoop====
;
#FGCHANGES:;

//--------------- dance-single - SUPER EASY ----------------
#NOTES:
     dance-single:
     SUPER EASY:
     Beginner:
     1:
     0,0,0,0,0:
0000
0000
0000
0000
,
0000
0000
0000
0000
,
0000
0000
0000
0000
,
0000
0000
0000
0000
,
0001
0000
0000
0000
,
1000
0000
0000
0000
,
0010
0000
0000
0000
,
0000
0000
0000
0000
,
0000
0000
0000
0000
,
0001
0000
0000
0000
,
0001
0000
0000
0000
,
1000
0000
0000
0000
,
1000
0000
0000
0000
,
0010
0000
0000
0000
,
0100
0000
0000
0000
,
0000
0000
0000
0000
,
0000
0000
0000
0000
,
0010
0000
0000
0000
,
0000
0000
0000
0000
,
0100
0000
0000
0000
,
0001
0000
0000
0000
,
1000
0000
0000
0000
,
0001
0000
0000
0000
,
0000
0000
0000
0000
,
0001
0000
0000
0000
,
0001
0000
0000
0000
,
1000
0000
0000
0000
,
1000
0000
0000
0000
,
0010
0000
0000
0000
,
0000
0000
0000
0000
,
0100
0000
0000
0000
;

//--------------- dance-single - NO HARM ----------------
#NOTES:
     dance-single:
     NO HARM:
     Easy:
     2:
     0,0,0,0,0:
0000
0000
0000
0000
,
0000
0000
0000
0000
,
0001
1000
0001
1000
,
0100
0000
0000
0000
,
1000
0000
0100
0000
1000
1000
1000
0000
,
0001
0000
0010
0000
0001
0001
0001
0000
,
1000
0001
0100
0100
,
0010
0000
0000
0000
,
0000
0000
0000
0000
,
0100
0001
1000
0000
,
0010
0000
1000
0000
,
0001
1000
0001
0000
,
1000
0000
0100
0000
,
1000
0000
0010
0000
,
1000
0001
0100
0100
,
0010
0000
0000
0000
,
0100
0001
0100
0001
,
1000
0000
0010
1000
,
0100
0000
1000
0001
,
1000
1000
0001
0000
,
0010
0000
0100
0000
,
0010
0000
0100
0000
,
0010
0000
0000
0000
,
0000
0000
0000
0000
,
0001
0000
0001
0000
,
1000
0001
1000
0000
,
0100
1000
0010
0000
,
0100
0000
0001
0000
,
1000
0000
0001
0000
,
0100
0000
0010
0000
,
0010
0000
0000
0000
,
1000
0000
0000
0000
;

//--------------- dance-single - GET REAL ----------------
#NOTES:
     dance-single:
     GET REAL:
     Medium:
     3:
     0,0,0,0,0:
0000
0000
0000
0000
,
0000
0000
0000
0000
,
0001
0000
0001
0000
1000
0000
0000
0000
1000
0000
0001
0000
0100
0000
0000
0001
,
0000
0000
0000
0000
0001
0000
0000
1000
0000
0000
1000
0000
0010
0000
0000
0000
,
1000
0100
1000
0001
0100
0000
0001
0000
,
0010
0001
1000
0010
1000
0000
0100
0000
,
1000
0000
1000
0000
0001
0000
0000
0010
0000
0000
0001
0000
0100
0000
0000
0001
,
0000
0000
0000
0000
,
0000
0000
0000
0000
,
1000
0000
0100
0000
1000
0001
1000
0000
,
0001
0000
0010
0000
0001
1000
0001
0000
,
0100
0010
1000
0100
,
0001
0000
0000
0000
0100
0010
0100
0000
,
1000
0010
0100
0000
0001
0000
1000
0000
,
0001
0010
0001
1000
0000
0001
0000
0100
,
0000
0000
0000
0000
,
1000
0010
1000
0000
0001
0000
0100
0000
,
0001
0100
0001
0000
1000
0000
0100
0000
,
0010
0000
0001
0000
1000
0000
0010
1000
,
0010
0100
0001
1000
,
0100
0000
0000
0100
0000
0000
0000
0000
1000
0000
0000
0000
0000
0000
0000
0000
,
0010
0000
0000
0010
0000
0000
0000
0000
0001
0000
0000
0000
0000
0000
0100
0000
,
0000
0000
0000
0000
,
0000
0000
0001
1000
,
0001
0100
0010
1000
,
0001
0000
1000
0000
,
0001
0100
0001
0000
1000
0000
0000
0100
,
0000
1000
0001
0100
,
0001
0010
0100
1000
,
0010
0000
0000
0000
0100
0000
0000
0010
,
0000
0000
0000
0000
0000
0000
0000
0000
0000
0000
0000
0000
0000
0000
0000
0001
,
1000
0000
0000
0000
;

//--------------- dance-single - FLIPPING HARD ----------------
#NOTES:
     dance-single:
     FLIPPING HARD:
     Hard:
     6:
     0,0,0,0,0:
0000
0000
0000
0000
,
0000
0000
0000
0000
,
0001
1000
0001
0000
0010
0000
0000
0000
0100
1000
0100
0000
1000
0000
0000
0001
,
0000
0000
0100
0001
0100
0000
0001
1000
0000
1000
0010
0000
1000
0000
0001
0000
,
0100
0000
0000
0000
0001
0000
0010
0000
0001
0000
1000
0100
1000
0000
0010
0000
,
0100
0000
0000
0000
0010
0000
0100
0001
0000
0000
1000
0000
0100
0000
1000
0010
,
1000
0000
0001
0000
0010
0001
0010
0001
0000
0000
1000
0100
1000
0000
0001
1000
,
0000
0000
0000
0000
,
0000
0000
0000
0000
,
0001
0000
0000
1000
0001
0000
1000
0000
0010
0000
0000
0000
1000
0000
0100
0000
,
0010
0000
0000
0100
0010
0000
0001
0000
1000
0000
0000
0000
0100
0000
0000
0000
,
1000
0010
1000
0001
0010
0100
0010
0000
,
0100
1000
0010
1000
0000
0001
1000
0000
,
0001
0000
0100
0000
0001
0000
0010
0000
0001
0000
0000
1000
0000
0000
0001
0000
,
0100
0000
0001
0000
0000
0000
1000
0001
0000
0000
1000
0001
0000
0000
1000
0000
,
0000
0000
0000
0001
,
0100
0001
0100
0001
0010
0000
0001
1000
,
0100
1000
0000
0000
0010
0000
1000
0000
0001
0000
0100
0000
0001
0000
0000
0000
,
1000
0010
0100
0000
0001
1000
1000
0001
,
0100
0000
0001
0010
0001
1000
1000
0100
,
1000
0000
0000
1000
0000
0000
0100
0000
0010
0000
0000
0100
0000
0000
0010
0000
,
0001
0000
0000
0001
0000
0000
0100
0000
0010
0000
0000
0100
0000
0000
0010
0000
,
0000
0000
0000
0000
,
1000
0000
0000
0000
0010
1000
1000
0010
,
0100
0000
0001
0000
0100
0000
0000
0000
0001
0000
0000
0000
1000
0000
0000
0010
,
0000
1000
0010
0000
0100
0000
0000
0001
,
0001
0000
1000
0000
1000
0000
1000
0000
0100
0000
0000
1000
0000
0000
0010
0000
,
0000
0000
0000
0100
0010
0000
0100
0000
0001
0000
0000
0000
1000
0000
0000
0000
,
0100
0000
1000
0001
0000
0000
0010
0000
0000
0100
0000
0000
,
1000
0000
0000
0000
0001
0000
1000
0000
0001
0000
0000
0100
0000
0000
0001
0000
,
0000
0000
0000
0000
0000
0000
0000
0000
0000
0000
0000
0000
0000
0000
0000
0001
,
1000
0000
0000
0000
;

//--------------- dance-solo - BABY MODE ----------------
#NOTES:
     dance-solo:
     BABY MODE:
     Beginner:
     1:
     0,0,0,0,0:
000000
000000
000000
000000
,
000000
000000
000000
000000
,
000010
000000
010000
000000
,
000010
000000
000000
000000
,
100000
000000
100000
000000
,
000001
000000
000001
000000
,
010000
000000
000010
000000
,
010000
000000
000000
000000
,
000000
000000
000000
000000
,
000001
000000
000001
000000
,
000001
000000
000000
000000
,
100000
000000
100000
000000
,
100000
000000
000000
000000
,
001000
000000
001000
000000
,
001000
000000
001000
000000
,
001000
000000
000000
000000
,
000100
000000
000000
000000
,
010000
000000
000000
000000
,
000100
000000
000000
000000
,
000010
000000
000000
000000
,
001000
000000
001000
000000
,
001000
000000
000000
000000
,
000100
000000
000000
000000
,
000000
000000
000000
000000
,
001000
000000
001000
000000
,
000001
000000
000000
000000
,
000100
000000
000100
000000
,
100000
000000
000000
000000
,
010000
000000
000010
000000
,
010000
000000
000010
000000
,
000100
000000
000000
000000
;
