#TITLE:blue boy;
#SUBTITLE:;
#ARTIST:bill wurtz;
#TITLETRANSLIT:;
#SUBTITLETRANSLIT:;
#ARTISTTRANSLIT:;
#GENRE:;
#CREDIT:8Chasey 2026 / BWE Volume 3;
#MUSIC:blue boy.ogg;
#BANNER:;
#BACKGROUND:;
#CDTITLE:;
#SAMPLESTART:31.702;
#SAMPLELENGTH:12.002;
#SELECTABLE:YES;
#OFFSET:-0.523;
#BPMS:0.000=123.000;
#STOPS:;
#BGCHANGES:;
#FGCHANGES:;

//--------------- dance-single - BRAND NEW ----------------
#NOTES:
     dance-single:
     BRAND NEW:
     Beginner:
     1:
     0,0,0,0,0:
0000
0000
0000
0000
,
0000
0000
0000
0000
,
0000
0000
0000
0000
,
0000
0000
0000
0000
,
0000
0000
0000
0000
,
0000
0000
0000
0000
,
0000
0000
0000
0000
,
0000
0000
0000
0000
,
0001
0000
0000
0000
,
1000
0000
0000
0000
,
0001
0000
0001
0000
,
0001
0000
0000
0000
,
1000
0000
0000
0000
,
0001
0000
0000
0000
,
1000
0000
1000
0000
,
1000
0000
0000
0000
,
0010
0000
0000
0000
,
0100
0000
0000
0000
,
0010
0000
0000
0000
,
0000
0000
0000
0000
,
0100
0000
0000
0000
,
0010
0000
0000
0000
,
0100
0000
0000
0000
,
0000
0000
0000
0000
,
0001
0000
0001
0000
,
1000
0000
1000
0000
,
0001
0000
0000
0000
,
0001
0000
0000
0000
,
1000
0000
1000
0000
,
0001
0000
0001
0000
,
1000
0000
0000
0000
,
1000
0000
0001
0000
,
1000
0000
0000
0000
;

//--------------- dance-single - EASY WAY ----------------
#NOTES:
     dance-single:
     EASY WAY:
     Easy:
     1:
     0,0,0,0,0:
0000
0000
0000
0000
,
0000
0000
0000
0000
,
0000
0000
0000
0000
,
0000
0000
0000
0000
,
0000
0000
0000
0000
,
0000
0000
0000
0000
,
0000
0000
0000
0000
,
0000
0000
0000
0000
,
0001
0000
1000
0000
,
0001
0000
0000
0000
,
1000
0000
1000
0000
,
1000
0000
0000
0000
,
1000
0000
0001
0000
,
1000
0000
0000
0000
,
0001
0000
0001
0000
,
0001
0000
0000
0000
,
0200
0000
0300
0000
,
0001
0000
1000
0000
,
0002
0000
0000
0000
,
0003
0000
1000
0000
,
0200
0000
0300
0000
,
1000
0000
0001
0000
,
2000
0000
0000
0000
,
3000
0000
0001
0000
,
0100
0000
0001
0000
,
1000
0000
0001
0000
,
0010
0010
0010
0000
,
0100
0000
0010
0000
,
0100
0000
1000
0000
,
0001
0000
0010
0000
,
0100
0100
0100
0000
,
0010
0000
0100
0000
,
1001
0000
0000
0000
;

//--------------- dance-single - GET REAL ----------------
#NOTES:
     dance-single:
     GET REAL:
     Medium:
     4:
     0,0,0,0,0:
0000
0000
0000
0000
,
0000
0000
0000
0000
,
0000
0000
0000
0000
,
0000
0000
0000
0000
,
0001
0010
0001
0000
,
1000
0100
1000
0000
,
0001
0000
1000
0000
,
0010
0010
0100
0100
,
0001
0000
0010
0000
0001
1000
0001
0000
,
1000
0000
0100
0000
1000
0001
1000
0000
,
0010
0010
0100
0001
,
0010
0010
0100
1000
,
0010
0000
0010
0000
0100
0001
0100
0000
,
0001
0000
0010
0000
0100
1000
0100
0000
,
1000
0010
1000
0100
,
0010
0001
0100
0110
,
0020
0000
1000
1000
1000
0000
0000
1000
,
0000
0000
1000
1000
1030
0000
0010
0000
,
0200
0000
0001
0001
0001
0000
0000
0001
,
0000
0000
0001
0001
0301
0000
1000
0000
,
0002
0000
0010
0010
0010
0000
0000
0010
,
0000
0000
0100
0100
0103
0000
0010
0000
,
2000
0000
0100
0100
0100
0000
0000
0100
,
0000
0000
0010
0010
3010
0000
0100
0000
,
0110
0000
0010
0000
1000
0100
1000
0000
,
0001
0100
0001
0000
1000
0000
0010
0000
,
0100
0000
0001
0000
0010
0001
0010
0000
,
0100
1000
0100
0000
0110
0000
1001
0000
,
1000
0000
0010
0000
0100
0001
0100
0000
,
0001
0000
1000
0000
0100
1000
0100
0000
,
0010
0100
1000
0001
,
0101
0010
1100
1000
,
0001
0000
0000
0000
;

//--------------- dance-single - SO HARD TO DO ----------------
#NOTES:
     dance-single:
     SO HARD TO DO:
     Hard:
     7:
     0,0,0,0,0:
0000
0000
0000
0000
,
0000
0000
0000
0000
,
0000
0000
0000
0000
,
0000
0000
0000
0000
,
0001
0010
0001
0010
,
0100
1000
0100
1000
,
0001
0001
1000
1000
,
0010
0010
0100
0100
,
0001
0000
0000
0000
0010
0000
0000
0000
0001
0000
0000
0100
0000
0000
0001
0000
,
1000
0000
0000
0000
0010
0000
0000
0000
1000
0000
0000
0100
0000
0000
1000
0000
,
0010
0000
0100
0000
0010
0100
0010
0100
,
0010
0100
0010
1001
,
1000
0000
0000
0000
0100
0000
0000
0000
1000
0000
0000
0010
0000
0000
1000
0000
,
0001
0000
0000
0000
0100
0000
0000
0000
0001
0000
0000
0010
0000
0000
0001
0000
,
0100
0000
0010
0000
0100
0010
0100
0010
,
0100
0010
0100
1001
,
0002
0000
0010
0000
0010
0000
0010
0000
0010
0000
0000
0010
0000
0000
0010
0000
,
0000
0000
0010
0000
0010
0000
0010
0000
0010
0000
0000
0010
0000
0000
0013
0000
,
0200
0000
0010
0000
0010
0000
0010
0000
0010
0000
0000
0010
0000
0000
0020
0000
,
0300
0000
0100
0000
0100
0000
0100
0000
0100
0000
0000
0100
0000
0000
0130
0000
,
2000
0000
0010
0000
0010
0000
0010
0000
0010
0000
0000
0010
0000
0000
0010
0000
,
0000
0000
0010
0000
0010
0000
0010
0000
0010
0000
0000
0010
0000
0000
3010
0000
,
0200
0000
0010
0000
0010
0000
0010
0000
0010
0000
0000
0010
0000
0000
0020
0000
,
0300
0000
0100
0000
0100
0000
1000
0000
1030
0000
0000
0001
0000
0000
1000
0000
,
0001
0000
0000
0100
0001
0000
0010
0000
0001
0000
0010
0000
0100
0000
0000
0000
,
1000
0000
0000
0100
1000
0000
0010
0000
1000
0000
0010
0000
0100
0000
0000
0000
,
0010
0000
0000
1000
0010
0000
1000
0000
0100
0000
1000
0000
0001
0000
0000
0000
,
0010
0000
0000
0001
0010
0000
0001
0000
0100
0000
0001
0000
1000
0000
0000
0000
,
0010
0000
0000
0010
1000
0000
0000
1000
0100
0000
1000
0000
0001
0000
0000
0000
,
0010
0000
0000
0010
0001
0000
0000
0001
0100
0000
0001
0000
1000
0000
0000
0000
,
0001
0010
0000
0001
0010
0000
0001
0000
1000
0100
0000
1000
0100
0000
1000
0000
,
0010
0100
0000
0010
0100
0000
0010
0000
1000
0000
0001
0000
1000
0000
0001
0000
,
2002
0000
0000
0000
,
0000
0000
0000
0000
,
0000
0000
0000
0000
,
0000
0000
0000
0000
,
3003
0000
0000
0000
;

//--------------- dance-solo - BABY MODE ----------------
#NOTES:
     dance-solo:
     BABY MODE:
     Beginner:
     1:
     0,0,0,0,0:
000000
000000
000000
000000
,
000000
000000
000000
000000
,
000000
000000
000000
000000
,
000000
000000
000000
000000
,
000000
000000
000000
000000
,
000000
000000
000000
000000
,
000000
000000
000000
000000
,
000000
000000
000000
000000
,
000001
000000
000000
000000
,
100000
000000
000000
000000
,
000001
000000
000000
000000
,
000000
000000
000000
000000
,
100000
000000
000000
000000
,
000001
000000
000000
000000
,
100000
000000
000000
000000
,
000000
000000
000000
000000
,
000010
000000
000000
000000
,
010000
000000
000000
000000
,
000100
000000
000000
000000
,
000000
000000
000000
000000
,
010000
000000
000000
000000
,
000010
000000
000000
000000
,
001000
000000
000000
000000
,
000000
000000
000000
000000
,
000001
000000
000001
000000
,
100000
000000
100000
000000
,
000010
000000
010000
000000
,
000010
000000
000010
000000
,
100000
000000
100000
000000
,
000001
000000
000001
000000
,
010000
000000
000010
000000
,
010000
000000
000010
000000
,
001000
000000
000000
000000
;
