#TITLE:bicycle;
#SUBTITLE:;
#ARTIST:SUGI & REO;
#TITLETRANSLIT:;
#SUBTITLETRANSLIT:;
#ARTISTTRANSLIT:;
#GENRE:Mondo Pop;
#CREDIT:8Chasey;
#MUSIC:bicycle.ogg;
#BANNER:;
#BACKGROUND:;
#CDTITLE:;
#SAMPLESTART:76.040;
#SAMPLELENGTH:12.000;
#SELECTABLE:YES;
#OFFSET:-1.060;
#BPMS:0.000=152.000;
#STOPS:;
#BGCHANGES:;
#FGCHANGES:;

//--------------- dance-single - 8Chasey ----------------
#NOTES:
     dance-single:
     8Chasey:
     Beginner:
     1:
     0,0,0,0,0:
0000
0000
0000
0000
,
0000
0000
0001
0000
,
0001
0000
1000
0000
,
1000
0000
0001
0000
,
1000
0000
0001
0000
,
1000
0000
0010
0000
,
0000
0000
0100
0000
,
0000
0000
0001
0000
,
0000
0000
1000
0000
,
0000
0000
0100
0000
,
0000
0000
0010
0000
,
0000
0000
1000
0000
,
0000
0000
0001
0000
,
0000
0000
0010
0000
,
0000
0000
0000
0000
,
1000
0000
0001
0000
,
0100
0000
0000
0000
,
0001
0000
1000
0000
,
0010
0000
0000
0000
,
1000
0000
0001
0000
,
1000
0000
0001
0000
,
1000
0000
0001
0000
,
0000
0000
0001
0000
,
0000
0000
1000
0000
,
0000
0000
0001
0000
,
0000
0000
1000
0000
,
0000
0000
1000
0000
,
0000
0000
0001
0000
,
0000
0000
1000
0000
,
0000
0000
0001
0000
,
0000
0000
0000
0000
,
0000
0000
0100
0000
,
0000
0000
0001
0000
,
1000
0000
0001
0000
,
0000
0000
1000
0000
,
0001
0000
1000
0000
,
0000
0000
0010
0000
,
0010
0000
0100
0000
,
0000
0000
0010
0000
,
0100
0000
0010
0000
,
0000
0000
1000
0000
,
0000
0000
0001
0000
,
0000
0000
1000
0000
,
0001
0000
0100
0000
,
0000
0000
0001
0000
,
0000
0000
1000
0000
,
0000
0000
0001
0000
,
1000
0000
0001
0000
,
0000
0000
0001
0000
,
0000
0000
1000
0000
,
0001
0000
1000
0000
,
0000
0000
1000
0000
,
0000
0000
1000
0000
,
0000
0000
0001
0000
,
1000
0000
0001
0000
,
0000
0000
0000
0100
,
0100
0000
1000
0000
,
0001
0000
0000
0010
,
0010
0000
0001
0000
,
1000
0000
0000
0001
,
0001
0000
0100
0000
,
0010
0000
0000
1000
,
1000
0000
0010
0000
,
0100
0000
0010
0000
;

//--------------- dance-single - 8Chasey ----------------
#NOTES:
     dance-single:
     8Chasey:
     Easy:
     2:
     0,0,0,0,0:
0000
0000
0000
0000
,
0000
0000
0001
0000
,
0001
0000
1000
0000
,
1000
0000
0001
0000
,
1000
0000
0001
1000
,
0001
1000
1001
0000
,
0001
0000
2000
0000
,
3000
0000
1000
0000
,
0010
0000
0100
0001
,
0100
0000
0010
0000
,
1000
0000
0002
0000
,
0003
0000
0001
0000
,
0010
0000
0100
1000
,
0100
0000
0020
0000
,
0000
0030
0000
0001
,
1000
0001
1000
0000
,
0100
0000
0000
1000
,
0001
1000
0001
0000
,
0100
0000
0000
0010
,
1000
0000
0100
0000
,
1000
0100
0000
0010
,
0001
0000
1001
0000
,
1000
1000
1000
0000
,
0100
0000
0010
0000
,
0001
0000
0100
0000
,
0010
0000
0100
0000
,
0001
0001
0001
0000
,
0010
0000
0100
0000
,
1000
0000
0010
0000
,
0100
0000
0002
0000
,
0000
0000
2003
0000
,
0000
0000
3100
1000
,
0000
0000
0001
0000
,
1000
0000
0001
0001
,
0000
0000
1000
0000
,
0001
0000
0100
0001
,
0000
0000
1000
0000
,
0001
0000
1000
1000
,
0000
0000
0001
0000
,
1000
0000
1001
0000
,
0010
0010
0010
0000
,
1000
0000
0010
0000
,
0100
0000
0001
0000
,
0100
0000
0010
0000
,
0100
0100
0100
0000
,
0001
1000
0001
0000
,
1000
0001
2000
0000
,
3002
0000
0103
0000
,
0001
0010
0001
0000
,
0000
0000
1000
0000
,
0100
0000
0010
0000
,
0001
0000
1001
0000
,
1000
0010
1000
0000
,
0000
0000
0001
0000
,
0010
0000
0100
0000
,
1000
0000
0000
0001
,
0001
0000
0100
0001
,
0100
0001
0000
1000
,
1000
0000
0010
1000
,
0100
0000
0000
1000
,
1000
0000
0100
1000
,
0100
1000
0000
0001
,
0001
0000
0010
0001
,
0100
0000
0020
0000
,
0000
0000
0000
0000
,
0000
0000
0000
0030
;

//--------------- dance-single - 8Chasey ----------------
#NOTES:
     dance-single:
     8Chasey:
     Medium:
     5:
     0,0,0,0,0:
0000
0000
0000
0000
,
0000
0000
0001
0100
,
0001
0001
1000
0100
,
1000
1000
0100
1000
,
0010
0010
0100
0001
,
0010
0100
0010
0000
1001
0000
0001
0000
,
0100
0100
0020
0000
,
1030
0100
2000
0000
,
3010
1000
0002
0000
,
0103
0100
0110
0010
,
1000
0001
0200
0010
,
0310
1000
0002
0000
,
0013
0001
2000
0000
,
3100
1000
1001
0000
,
0001
0000
1000
0001
0000
1000
0100
0000
,
1000
1000
0010
0100
,
0100
0000
0000
0001
0000
1000
0010
0000
,
1000
1010
0010
0000
,
1000
0000
0001
1000
0000
0001
0010
0000
,
0001
0000
1000
0000
0010
0000
0100
0010
,
0000
0100
0010
0000
0100
0000
0001
0000
,
0010
0100
0110
0000
,
1000
0000
1000
0000
2000
0000
0000
0010
,
0000
3010
0100
0000
,
0001
1000
0100
0000
,
0200
0000
0310
0000
,
0001
0000
0001
0000
0002
0000
0000
0100
,
0000
0103
0001
0000
,
1000
0000
0010
0100
,
0001
1000
0001
0000
2000
0000
0010
0000
,
0000
3010
0002
0100
,
0000
0103
0010
1000
,
0000
0000
1000
0000
0000
0001
1000
0000
,
0001
0001
0010
0001
,
0000
0000
0001
0000
0000
1000
0001
0000
,
1000
1000
0010
0100
,
0000
0000
0001
0000
1000
0001
1000
0000
,
0010
0010
1000
0100
,
0001
0000
0100
0010
,
0001
1000
0001
0000
1100
0000
0000
0000
,
1000
0000
0010
0000
0020
0000
0000
1000
,
0000
1030
0001
0000
,
1000
0000
0010
1000
,
0001
0000
0101
0000
,
0001
0000
0010
0000
0020
0000
0000
0001
,
0000
0031
1000
0000
,
0001
0000
0100
0010
,
0100
0010
0100
0000
1001
0000
0000
0000
,
0001
0010
0002
0000
,
1003
0100
0020
0000
,
0030
0010
0200
0000
,
0310
0100
1000
0001
,
1000
0000
0020
0000
,
1030
0001
0200
0000
,
0300
0001
0020
0000
,
0130
1000
0000
0001
,
0100
0001
0010
0020
,
0001
0031
0000
1000
,
0100
1000
0001
0010
,
0001
0010
0001
0000
0000
0000
1000
0000
,
0100
1000
0010
0020
,
1000
1030
0000
0001
,
0100
0001
1000
0010
,
1000
0010
1000
0000
2002
0000
0000
0000
,
0000
3003
0001
1000
,
0001
1000
0001
1000
0000
0000
0000
0000
;

//--------------- dance-single - 8Chasey ----------------
#NOTES:
     dance-single:
     8Chasey:
     Hard:
     7:
     0,0,0,0,0:
0000
0000
0000
0000
,
0000
0000
0000
0000
0001
0000
1000
0001
,
0000
1000
0010
0000
1000
0000
0001
1000
,
0000
0001
0010
0000
0100
0000
1000
0010
,
0000
1000
0001
0000
0100
0000
0010
0000
,
1000
0001
0100
0001
1001
0000
1000
0010
,
0100
0001
0020
0001
,
0130
0000
1000
0010
1000
2000
0001
0000
,
0100
0000
3001
0010
0001
0002
1000
0000
,
0100
0000
1003
0000
0100
1000
0010
0000
,
0100
0101
1200
0010
,
0310
0000
0001
1000
0010
0020
1000
0000
,
0100
0000
1030
0001
0100
0200
0001
0000
,
0010
0301
1001
0001
,
1000
0010
0000
0010
0000
1000
0001
0010
,
0000
0100
0010
0000
0100
0010
0001
0000
,
1000
0001
0000
0101
0000
1000
0010
1000
,
0000
0100
1100
0000
0010
0001
1000
0000
,
0100
1000
0000
1001
0000
0001
1000
0010
,
0000
0010
0100
0000
0001
0100
0010
0100
,
0000
0001
0000
1000
0100
0000
1000
0001
,
0000
0100
0010
0000
0110
0000
0100
0000
,
0002
0000
2003
0000
3200
0000
1300
0010
,
0000
0010
0100
0000
0020
0000
1030
0000
,
0001
1000
0010
0000
0200
0000
0301
0000
,
1000
0001
0010
0000
0001
1000
0010
0000
,
2000
0000
3002
0000
0203
0000
0301
0010
,
0000
0010
0001
0000
1000
0010
0100
0000
,
0001
0000
1000
0100
0020
0000
0130
0000
,
0010
0001
1000
0000
1001
0000
1000
0000
,
0010
1000
0010
0000
0100
0000
0001
0000
,
0010
0001
0010
0000
0110
0000
1000
0000
,
0001
1000
0000
1000
0000
0010
1000
0001
,
0000
0010
0100
0000
0001
1000
0010
0000
,
1000
0100
0000
0110
0000
0010
0001
1000
,
0000
0001
1001
0000
1000
0000
0010
1000
,
0001
0100
0000
0100
0000
0001
1000
0010
,
0000
0010
0100
0001
0100
0000
0010
1000
,
0100
1000
0000
0001
0100
0000
1001
0000
,
1000
0000
0001
0001
0011
0000
1000
0000
,
0020
0000
2030
0000
3002
0000
0103
0001
,
0000
0001
1000
0000
0020
0000
1030
0100
,
0010
0000
0001
0000
0200
0000
0301
1000
,
0010
1000
1010
0100
,
0002
0000
2003
0000
3200
0000
1300
0001
,
0000
0010
0001
0000
0100
0010
1000
0000
,
0010
0100
0001
0000
1000
0100
0001
0100
,
1000
0010
0001
0010
0110
0000
0100
0001
,
1000
0010
2000
0100
,
3001
0000
0010
0001
1000
0002
0100
0000
,
1000
0000
0103
0001
0001
2000
0100
0000
,
0001
3100
0010
1001
,
0100
0001
1000
0000
0020
0000
0100
0000
,
0130
0000
0001
1000
0010
0200
0001
0000
,
0010
0000
0301
1000
0100
0020
0100
0000
,
0130
0010
0001
1000
0010
0000
1010
0000
,
1100
1100
1000
0001
,
0100
2002
3003
0011
,
0101
0101
0001
1000
,
1001
2002
0000
3003
1000
0010
0100
0000
,
0101
1100
0010
0100
,
0010
0110
0000
0101
,
1010
1001
0100
0010
,
0110
0220
0000
0330
2002
0000
0000
0000
,
0000
0000
3003
0000
,
0001
0000
1000
0000
0001
1000
0001
1000
0000
0000
0000
0000
0000
0000
0000
0000
;
