#VERSION:0.83;
#TITLE:bee.;
#SUBTITLE:;
#ARTIST:GroovyDominoes52;
#TITLETRANSLIT:;
#SUBTITLETRANSLIT:;
#ARTISTTRANSLIT:;
#GENRE:;
#CREDIT:;
#MUSIC:bee.ogg;
#BANNER:Banner_Missing.png;
#BACKGROUND:;
#CDTITLE:;
#SAMPLESTART:15.510;
#SAMPLELENGTH:12.000;
#SELECTABLE:YES;
#OFFSET:-0.020;
#BPMS:0.000=120.000;
#STOPS:;
#SPEEDS:0.000=1.000=0.000=0;
#SCROLLS:0.000=1.000;
#TICKCOUNTS:0.000=4;
#TIMESIGNATURES:0.000=4=4;
#LABELS:0.000=Song Start;
#COMBOS:0.000=1;
#ORIGIN:;
#PREVIEWVID:;
#JACKET:;
#CDIMAGE:;
#DISCIMAGE:;
#BGCHANGES:;
#FGCHANGES:;

//--------------- dance-single - ----------------
#NOTEDATA:;
#STEPSTYPE:dance-single;
#DESCRIPTION:;
#DIFFICULTY:Beginner;
#METER:1;
#RADARVALUES:0.105535,0.16584,0.060305,0.060305,0,49,45,4,4,0,0,0,0,0,0.105535,0.16584,0.060305,0.060305,0,49,45,4,4,0,0,0,0,0;
#CHARTNAME:;
#CHARTSTYLE:;
#CREDIT:;
#NOTES:
0000
0000
0000
0000
,
0000
0000
0000
0000
,
0000
0000
0000
0000
,
0000
0000
0000
0000
,
0000
0001
0000
1000
,
0000
0100
0000
0100
,
0000
1000
0000
0001
,
0000
0010
0000
0010
,
0010
0000
0000
0100
,
0100
0000
0010
0000
,
0100
0000
1001
1001
,
0000
0000
0000
0001
,
0001
0000
0000
1000
,
1000
0000
0001
0000
,
1000
0000
0110
0110
,
0000
0000
0000
0000
,
0001
0000
1000
0000
,
0001
0000
1000
1000
,
1000
0000
0100
0100
,
0100
0000
0000
0000
,
1000
0000
0001
0000
,
1000
0000
0001
0001
,
0001
0000
0010
0010
,
0010
0000
0000
0000
,
0002
0000
0003
0000
,
2000
0000
3000
0000
,
0200
0000
0300
0000
,
0020
0000
0030
0000
;

//--------------- dance-single - ----------------
#NOTEDATA:;
#STEPSTYPE:dance-single;
#DESCRIPTION:;
#DIFFICULTY:Easy;
#METER:3;
#RADARVALUES:0.187378,0.263271,0.105535,0.256298,0,87,80,7,17,0,0,0,0,0,0.187378,0.263271,0.105535,0.256298,0,87,80,7,17,0,0,0,0,0;
#CHARTNAME:;
#CHARTSTYLE:;
#CREDIT:;
#NOTES:
0000
0000
0000
0000
,
0000
0000
0000
0000
,
0000
0000
0000
0000
,
0000
0000
0000
0000
,
0001
0100
0010
0100
,
0001
1000
0100
0000
,
1000
0001
0100
0001
,
0010
0100
1000
0002
,
0103
0001
0000
2000
,
3100
1000
0010
0000
,
0001
1000
0001
1000
,
1001
0000
0000
2000
,
3010
0000
0000
0002
,
0013
0100
0020
0030
,
0100
0010
0100
0010
,
0110
0000
0000
0000
,
0002
0003
0200
0300
,
0020
0030
2000
3000
,
1001
0000
0110
0000
,
2002
3003
0001
1000
,
0010
0020
0030
0200
,
0300
0000
0100
0000
0001
1000
0001
1000
,
0001
0001
1000
1000
,
1001
0000
0000
0100
,
0002
0100
0000
0103
,
0020
0100
0000
0130
,
2000
0100
0000
3100
,
0020
0100
0000
0130
,
0000
1000
0000
0001
,
0000
0100
0000
0001
,
0000
1000
0000
0100
,
0000
1000
0000
1001
;

//--------------- dance-single - ----------------
#NOTEDATA:;
#STEPSTYPE:dance-single;
#DESCRIPTION:;
#DIFFICULTY:Medium;
#METER:5;
#RADARVALUES:0.29722,0.454741,0.135687,0.120611,0.015076,138,129,9,8,0,0,0,0,0,0.29722,0.454741,0.135687,0.120611,0.015076,138,129,9,8,0,0,0,0,0;
#CHARTNAME:;
#CHARTSTYLE:;
#CREDIT:;
#NOTES:
0000
0000
0000
0000
,
0000
0000
0000
0000
,
0000
0000
0000
0000
,
0000
0000
0000
0000
,
0100
0000
0001
0000
1000
0001
1000
0000
,
0100
0000
1000
0000
0010
0100
0010
0000
,
1000
0000
0001
0000
0010
0001
0010
0000
,
0001
0000
1000
0000
0010
1000
0010
0000
,
0100
0001
0000
0100
,
1000
0010
0100
0010
,
1100
0000
0101
0000
1000
0001
1000
0000
,
0020
0000
0130
0000
0110
0000
1000
0001
,
1000
0000
0001
0000
0000
0000
0001
1000
,
0001
1000
0010
0100
,
0001
0100
1000
0000
1000
0100
0001
0000
,
0010
0000
0100
0000
1000
0001
0100
0000
,
0001
1100
1000
0101
,
0010
0000
0100
0001
0010
0000
0100
0000
,
1000
0001
1001
0100
,
1001
0000
0000
0000
0001
1000
0010
0000
,
0100
0000
0001
1000
0000
0001
1000
0000
,
0001
0000
1000
0000
0001
0000
1000
0000
0001
1000
0010
0000
1000
0001
0100
0000
,
0001
1000
0100
1000
0001
0010
0100
0000
,
0220
0330
0000
1000
,
0002
0100
0010
0100
,
2003
0010
0100
3020
,
0230
0001
1000
0001
,
0320
1000
0001
1030
,
0001
0100
0001
1000
,
0100
1000
0010
0010
,
1000
0100
1000
0001
,
0100
0001
0010
0110
;

//--------------- dance-single - ----------------
#NOTEDATA:;
#STEPSTYPE:dance-single;
#DESCRIPTION:;
#DIFFICULTY:Hard;
#METER:8;
#RADARVALUES:0.469521,0.574409,0.135687,0.301527,0.173378,218,209,9,20,0,0,0,0,0,0.469521,0.574409,0.135687,0.301527,0.173378,218,209,9,20,0,0,0,0,0;
#CHARTNAME:;
#CHARTSTYLE:;
#CREDIT:;
#NOTES:
0000
0000
0000
0000
,
0000
0000
0000
0000
,
0000
0000
0000
0000
,
0000
0000
0000
0000
,
0002
0100
0103
0010
2000
0100
3100
1000
,
0020
0100
0130
0001
2000
0001
3001
0010
,
0200
1000
1300
0010
0200
0001
0301
1000
,
0020
0000
0100
0000
0130
0000
0001
0000
0010
0000
0100
0000
1000
0100
1000
0000
,
0001
0000
0010
0000
0011
0000
0000
0000
0100
0000
0010
0000
0100
0001
0100
0000
,
0010
0000
1000
0000
0100
0000
0020
0000
0001
0000
0030
0000
0100
1000
0100
0000
,
0010
0000
0000
0000
0101
0000
0000
0000
0010
0001
0010
0000
0100
0000
0010
0000
,
0100
0000
0000
0000
1010
0000
0000
0000
0100
0000
0000
0000
0001
0010
0100
0000
,
2000
0000
0001
0000
3001
0000
0000
0000
0200
0000
0000
0000
0310
1000
0010
0000
,
0100
0000
0001
0000
1000
0000
0100
0000
0020
0000
0000
0000
1030
0010
1000
0000
,
0010
0000
0001
0000
0010
0000
0100
0000
1000
0001
1000
0000
0010
0000
0110
0000
,
0000
0100
0001
0000
1000
0100
0010
0100
,
2000
0000
0000
0000
3001
0100
0001
0000
0020
0000
0000
0000
0130
1000
0100
0000
,
2000
0000
0000
0000
3001
0010
0100
0000
0001
0000
1000
0000
0100
0000
1000
0000
,
0010
0000
0000
0000
0100
0000
0001
0010
0001
0000
0100
0001
0100
0000
0010
0000
,
2000
0000
0000
0000
3002
0000
0000
0000
1003
0100
1000
0000
0001
0100
0001
0000
,
0010
0100
1000
0000
0001
0000
0002
0000
1000
0000
0000
0000
1003
0010
0100
0000
,
0001
0000
1000
0000
0100
0000
1000
0000
0010
0100
0001
0100
0010
1000
0100
0010
,
0001
1000
0001
0000
2000
0000
3100
0000
0010
0000
0100
0000
1000
0010
0001
0000
,
0010
0100
0110
0000
1000
0001
1100
0000
,
0020
0000
0100
0000
1000
1000
1000
0000
,
0130
0001
0100
1000
0100
0000
1001
0000
,
0020
0000
0100
0000
0001
0001
0001
0000
,
0130
1000
0001
0100
0010
0100
0110
0000
,
1000
1000
0010
0000
0100
0100
0001
0000
,
1000
1000
0001
0000
0001
0001
1000
0000
,
0010
0010
0001
0000
1000
1000
0100
0000
,
0010
0010
0100
0000
1000
0001
1001
0000
;

//--------------- dance-single - 2024 chart ----------------
#NOTEDATA:;
#STEPSTYPE:dance-single;
#DESCRIPTION:2024 chart;
#DIFFICULTY:Challenge;
#METER:10;
#RADARVALUES:0,0,0,0,0;
#NOTES:
0000
0000
0000
0000
,
0000
0000
0000
0000
,
0000
0000
0000
0000
,
0000
0000
0000
0000
,
0001
0010
0001
0000
1001
0000
0100
0000
1000
0010
1000
0000
1001
0000
0010
0000
,
0001
0010
0100
0000
0110
0000
0100
0000
1000
0010
0100
0000
1001
0000
1000
0000
,
0010
0100
0001
0000
0101
0000
0001
0000
0010
0100
1000
0000
1100
0000
1000
0000
,
0001
1000
0010
0000
0110
0000
0001
0000
1100
0000
0010
0000
0100
0001
1000
0001
,
0010
0000
0110
0000
1000
0000
0100
1000
0001
0100
0010
0000
0100
0001
0010
0000
,
0110
0000
1000
0001
0100
0000
1010
0000
1000
0000
0001
0000
0010
0001
0100
0010
,
1000
0100
0100
0000
0010
0100
0100
0000
0010
0001
1000
0001
0100
0010
0010
0000
,
0001
0000
0101
0000
1010
0000
0001
1000
0100
0000
1100
0000
0011
0000
0000
0000
,
0100
0000
0011
0000
1001
0000
0100
0001
1000
0000
1010
0000
1001
0000
0100
0000
,
0001
0100
0001
0000
0010
0000
0100
0010
0100
0000
1000
0000
0001
1000
0010
0000
,
0100
0010
1000
0001
0010
0100
0010
0001
1000
0010
0100
0001
0010
0000
0100
0000
,
1010
0000
1010
0000
0001
0100
0001
0000
0011
0000
0011
0000
1001
0000
0100
0000
,
0010
0000
0000
0000
0010
1000
0001
0010
0100
0000
0000
0000
0100
1000
0001
0100
,
0001
0000
0000
0000
0001
0010
0001
0000
1000
0000
0100
0000
1000
0000
0110
0000
,
0110
0000
0000
0000
1000
0010
0100
0001
0000
0000
0001
0010
0000
0100
0000
0100
,
1000
0000
0001
0000
0011
0000
0001
0000
1000
0010
0100
1000
0100
0001
1000
0100
,
0010
0100
0001
1000
0010
0000
0101
0000
0001
0000
1000
0100
1000
0010
0100
0001
,
0010
0000
0100
0000
1000
0000
0010
0000
0100
0000
0001
0000
1000
0000
0001
0000
0001
0010
0001
0000
1000
0010
1000
0000
0001
0100
0001
0000
1000
0100
1000
0000
,
0001
1000
0001
1000
0001
0000
0000
0000
0010
0000
0000
0000
0001
0000
0000
0000
1000
0000
0100
0000
1000
0000
0010
0000
0100
0010
0100
0010
0100
0000
0000
0000
,
0000
0001
0011
0000
0000
1000
1100
1000
,
0010
1000
0010
0100
0001
0010
0001
0010
0100
0010
0100
0100
1000
0010
1000
0000
,
0001
0010
0001
1000
0100
0010
0100
1000
0010
0100
0010
0010
1000
0001
1000
0100
,
0010
0001
0000
0000
0011
0000
0001
1000
0010
1000
0100
0100
1000
0000
1010
0000
,
1000
0010
0100
0001
1000
0010
1000
0001
0010
0100
0010
0100
0010
0001
0100
0010
,
1000
0100
1000
0000
1010
0000
0100
0000
0001
0100
0001
0000
0011
0000
0010
0001
,
1000
0000
1100
0000
0101
0000
0010
1000
0001
0000
0101
0000
1100
0000
1000
0010
,
1000
0000
1010
0000
0110
0000
0001
0010
0001
0000
0011
0000
0110
0000
0100
1000
,
0010
0000
1010
0000
1001
0000
0100
0001
0010
0000
0011
0000
1001
0000
0000
0000
;

//--------------- dance-double - ----------------
#NOTEDATA:;
#STEPSTYPE:dance-double;
#DESCRIPTION:;
#DIFFICULTY:Easy;
#METER:4;
#RADARVALUES:0.189531,0.263271,0.105535,0.256298,0,88,81,7,17,0,0,0,0,0,0.189531,0.263271,0.105535,0.256298,0,88,81,7,17,0,0,0,0,0;
#CHARTNAME:;
#CHARTSTYLE:;
#CREDIT:;
#NOTES:
00000000
00000000
00000000
00000000
,
00000000
00000000
00000000
00000000
,
00000000
00000000
00000000
00000000
,
00000000
00000000
00000000
00000000
,
00001000
01000000
00010000
00100000
,
00001000
00010000
00000100
00000000
,
00001000
00000001
00000100
00001000
,
00100000
01000000
10000000
00020000
,
01030000
00010000
00000000
00200000
,
00301000
00100000
00001000
00010000
,
00001000
00010000
00001000
00010000
,
00011000
00000000
00000000
00200000
,
00301000
00000000
00000000
00000020
,
00010030
00000100
00002000
00003000
,
00000001
00001000
00000001
00001000
,
00000110
00000000
00000000
00000000
,
00020000
00030000
00002000
00003000
,
00200000
00300000
02000000
03000000
,
10010000
00000000
01100000
00000000
,
20020000
30030000
00100000
00001000
,
00010000
00020000
00030000
00000200
,
00000300
00000000
00001000
00000000
00000001
00001000
00000001
00001000
,
00000001
00001000
00010000
10000000
,
10010000
00000000
00000000
00100000
,
00002000
00010000
00000000
00013000
,
00200000
00010000
00000000
00310000
,
20000000
01000000
00000000
31000000
,
00020000
00001000
00000000
00031000
,
00000000
00010000
00000000
00001000
,
00000000
01000000
00000000
00010000
,
00000000
00100000
00000000
00001000
,
00000000
00010000
00000000
00011000
;

//--------------- dance-couple - ----------------
#NOTEDATA:;
#STEPSTYPE:dance-couple;
#DESCRIPTION:;
#DIFFICULTY:Easy;
#METER:3;
#RADARVALUES:0.161532,0.263271,0.105535,0.16584,0,75,68,7,11,0,0,0,0,0,0.161532,0.263271,0.105535,0.16584,0,75,68,7,11,0,0,0,0,0;
#CHARTNAME:;
#CHARTSTYLE:;
#CREDIT:;
#NOTES:
00000000
00000000
00000000
00000000
,
00000000
00000000
00000000
00000000
,
00000000
00000000
00000000
00000000
,
00000000
00000000
00000000
00000000
,
00010001
01000100
00100010
01000100
,
00010001
10001000
01000100
00000000
,
10001000
00010001
01000100
00010001
,
00100010
01000100
10001000
00020000
,
01030000
00010000
00000000
00002000
,
00003100
00001000
00100010
00000000
,
00010001
10001000
00010001
10001000
,
10011001
00000000
00000000
20000000
,
30100000
00000000
00000000
00000002
,
00000013
01000100
00200020
00300030
,
01000100
00100010
01000100
00100010
,
01100110
00000000
00000000
00000000
,
00000002
00000003
00000200
00000300
,
00200000
00300000
20000000
30000000
,
10010110
00000000
01101001
00000000
,
20020220
30030330
00010001
10001000
,
00100010
00200020
00300030
02000200
,
03000300
00000000
01000100
00000000
00010001
10001000
00010001
10001000
,
00010010
00010010
10000100
10000100
,
10010110
00000000
00000000
01000100
,
00020000
01000000
00000000
01030000
,
00200000
01000000
00000000
01300100
,
00002000
00000100
00000000
00003100
,
00000020
00000100
00000000
01000130
,
00000000
10001000
00000000
00010001
,
00000000
01000100
00000000
00011001
,
00000000
10001000
00000000
01000100
,
00000000
10001000
00000000
10010001
;

//--------------- dance-solo - 2024 chart ----------------
#NOTEDATA:;
#STEPSTYPE:dance-solo;
#DESCRIPTION:2024 chart;
#DIFFICULTY:Easy;
#METER:2;
#RADARVALUES:0,0,0,0,0;
#NOTES:
000000
000000
000000
000000
,
000000
000000
000000
000000
,
000000
000000
000000
000000
,
000000
000000
000000
000000
,
000010
010000
000010
000000
,
010000
000010
010000
000000
,
000001
100000
000001
000000
,
100000
000001
100000
001000
,
000100
001000
000000
100000
,
000001
100000
000010
000000
,
010000
000001
100000
000010
,
010000
000000
000000
001000
,
000100
000010
000000
001000
,
000100
010000
000100
000000
,
000001
000000
100000
000000
,
100001
000000
000000
000000
,
000001
000000
010000
000000
,
000010
000000
100000
000000
,
001000
000000
000100
001000
,
000100
000000
000010
010000
,
000001
000100
000000
000010
,
100000
001000
010000
000010
,
010010
000000
001000
000000
,
100001
000000
000000
000000
,
100000
001000
100000
000000
,
000100
010000
000100
010000
,
000001
001000
000001
000000
,
000100
000010
000100
000010
,
000000
001000
000000
001000
,
000000
000100
000000
000100
,
000000
100000
000000
000001
,
000000
010000
000000
000010
;
