#VERSION:0.83;
#TITLE:bee. on mars;
#SUBTITLE:;
#ARTIST:GroovyDominoes52;
#TITLETRANSLIT:;
#SUBTITLETRANSLIT:;
#ARTISTTRANSLIT:;
#GENRE:;
#ORIGIN:;
#CREDIT:;
#BANNER:;
#BACKGROUND:;
#PREVIEWVID:;
#JACKET:;
#CDIMAGE:;
#DISCIMAGE:;
#LYRICSPATH:;
#CDTITLE:;
#MUSIC:bee. on mars.ogg;
#OFFSET:1.350000;
#SAMPLESTART:14.210000;
#SAMPLELENGTH:15.000000;
#SELECTABLE:YES;
#BPMS:0.000=135.000;
#STOPS:;
#DELAYS:;
#WARPS:;
#TIMESIGNATURES:0.000=4=4;
#TICKCOUNTS:0.000=4;
#COMBOS:0.000=1;
#SPEEDS:0.000=1.000=0.000=0;
#SCROLLS:0.000=1.000;
#FAKES:;
#LABELS:0.000=Song Start;
#BGCHANGES:;
#KEYSOUNDS:;
#ATTACKS:
;

//---------------dance-single - ----------------
#NOTEDATA:;
#CHARTNAME:;
#STEPSTYPE:dance-single;
#DESCRIPTION:;
#CHARTSTYLE:;
#DIFFICULTY:Hard;
#METER:7;
#RADARVALUES:0.463858,0.579993,0.249769,0.211343,0.096065,169.000000,156.000000,13.000000,11.000000,0.000000,0.000000,0.000000,0.000000,0.000000,0.463858,0.579993,0.249769,0.211343,0.096065,169.000000,156.000000,13.000000,11.000000,0.000000,0.000000,0.000000,0.000000,0.000000;
#CREDIT:;
#NOTES:
// measure 0
0000
0000
0000
0000
,  // measure 1
0000
0000
0000
0000
,  // measure 2
0000
0000
0000
0000
,  // measure 3
0001
0000
0000
0000
0001
0000
0000
0000
0100
0001
0100
0000
0010
0000
0010
0000
,  // measure 4
1000
0000
0001
0000
1100
0000
0001
0100
,  // measure 5
0010
0000
0001
0000
1000
0100
1000
0100
,  // measure 6
0010
0000
0110
0000
0001
0100
1000
0000
,  // measure 7
0020
0000
0230
0000
0301
1000
0001
0000
,  // measure 8
1000
0010
1000
0000
0100
0000
0010
0000
0001
0000
1000
0000
0001
0000
0001
0000
,  // measure 9
0002
0000
0103
0010
2000
0000
3100
0010
,  // measure 10
0200
0000
1300
0001
0020
0000
0130
1000
,  // measure 11
0001
1000
0011
1010
,  // measure 12
0101
0000
1100
0000
1001
0000
0010
1000
,  // measure 13
0001
0000
0100
0001
1000
0000
0001
0001
,  // measure 14
2000
0000
3100
0010
0002
0000
0103
0000
,  // measure 15
0001
0010
0001
0000
1000
0100
1000
0000
0010
0100
0010
0000
1001
0000
0000
0000
,  // measure 16
0001
0010
0001
0000
1000
0010
1000
0000
0100
0000
0100
0000
0001
0000
0000
0000
,  // measure 17
0020
0000
0130
0000
1000
0100
0001
0000
,  // measure 18
0010
0010
0001
0000
0200
0000
0310
0000
,  // measure 19
2000
0010
3010
0000
0100
0010
1000
0000
,  // measure 20
0001
0011
0101
1001
,  // measure 21
0010
0100
0010
0100
0001
0100
0001
0100
,  // measure 22
0010
1000
0010
1000
0001
1000
0100
0010
,  // measure 23
0001
0000
1100
0000
0010
0010
0100
0000
,  // measure 24
0001
0100
0001
0000
1000
0100
1000
0000
0010
0100
0010
0000
0001
0000
1000
0000
,  // measure 25
0001
0010
0100
1000
,  // measure 26
0010
1000
0001
0100
,  // measure 27
0001
0010
0100
1000
,  // measure 28
0010
1000
0001
1001
;

//---------------dance-single - ----------------
#NOTEDATA:;
#CHARTNAME:;
#STEPSTYPE:dance-single;
#DESCRIPTION:;
#CHARTSTYLE:;
#DIFFICULTY:Beginner;
#METER:1;
#RADARVALUES:0.126257,0.164752,0.153704,0.096065,0.000000,46.000000,38.000000,8.000000,5.000000,0.000000,0.000000,0.000000,0.000000,0.000000,0.126257,0.164752,0.153704,0.096065,0.000000,46.000000,38.000000,8.000000,5.000000,0.000000,0.000000,0.000000,0.000000,0.000000;
#CREDIT:;
#NOTES:
// measure 0
0000
0000
0000
0000
,  // measure 1
0000
0000
0000
0000
,  // measure 2
0000
0000
0000
0000
,  // measure 3
0000
0001
0000
0001
,  // measure 4
0000
1001
1001
0000
,  // measure 5
0000
1000
0000
1000
,  // measure 6
0000
0010
0000
0010
,  // measure 7
0000
0000
1001
1001
,  // measure 8
0000
0000
0000
0000
,  // measure 9
0100
0000
0001
0000
,  // measure 10
0100
0000
1000
0000
,  // measure 11
0010
0000
0000
0000
,  // measure 12
0010
0010
0010
0000
,  // measure 13
1000
0000
0100
0000
,  // measure 14
0001
0000
0100
0000
,  // measure 15
0020
0000
0030
0000
,  // measure 16
0010
0010
0010
0000
,  // measure 17
2000
0000
3000
0000
,  // measure 18
0002
0000
0003
0000
,  // measure 19
0100
0000
0010
0000
,  // measure 20
0110
0000
0110
0000
,  // measure 21
0200
0000
0300
0000
,  // measure 22
0020
0000
0030
0000
,  // measure 23
0001
0000
1000
0000
,  // measure 24
1001
0000
1001
0000
;

//---------------dance-single - ----------------
#NOTEDATA:;
#CHARTNAME:;
#STEPSTYPE:dance-single;
#DESCRIPTION:;
#CHARTSTYLE:;
#DIFFICULTY:Easy;
#METER:3;
#RADARVALUES:0.236046,0.276187,0.057639,0.249769,0.000000,86.000000,83.000000,3.000000,13.000000,0.000000,0.000000,0.000000,0.000000,0.000000,0.236046,0.276187,0.057639,0.249769,0.000000,86.000000,83.000000,3.000000,13.000000,0.000000,0.000000,0.000000,0.000000,0.000000;
#CREDIT:;
#NOTES:
// measure 0
0000
0000
0000
0000
,  // measure 1
0000
0000
0000
0000
,  // measure 2
0000
0000
0000
0000
,  // measure 3
0001
0001
0100
1000
,  // measure 4
0001
1000
1000
0000
,  // measure 5
0010
0100
0001
0000
,  // measure 6
0001
0001
1000
0000
,  // measure 7
0010
1000
0100
1000
,  // measure 8
0010
0100
0001
0000
,  // measure 9
2000
3000
0200
0300
,  // measure 10
2000
3000
0002
0003
,  // measure 11
0200
0300
0002
0003
,  // measure 12
0010
0010
0110
0000
,  // measure 13
0002
0013
2000
3010
,  // measure 14
0200
0310
0001
0001
,  // measure 15
1000
1000
0100
0010
,  // measure 16
1000
0001
0100
0000
,  // measure 17
0020
1030
0200
0310
,  // measure 18
0002
0103
0020
1030
,  // measure 19
0100
0100
1000
0001
,  // measure 20
0100
0100
0010
0000
,  // measure 21
1000
0100
0001
0100
,  // measure 22
1000
0001
1000
0001
,  // measure 23
0010
1000
0010
0001
,  // measure 24
1000
0001
1001
0000
,  // measure 25
0000
0001
0000
1000
,  // measure 26
0000
0010
0000
0100
,  // measure 27
0000
0001
0000
1000
,  // measure 28
0000
0001
1000
1001
;

//---------------dance-couple - ----------------
#NOTEDATA:;
#CHARTNAME:;
#STEPSTYPE:dance-couple;
#DESCRIPTION:;
#CHARTSTYLE:;
#DIFFICULTY:Easy;
#METER:3;
#RADARVALUES:0.211343,0.276187,0.057639,0.153704,0.000000,77.000000,74.000000,3.000000,8.000000,0.000000,0.000000,0.000000,0.000000,0.000000,0.211343,0.276187,0.057639,0.153704,0.000000,77.000000,74.000000,3.000000,8.000000,0.000000,0.000000,0.000000,0.000000,0.000000;
#CREDIT:;
#NOTES:
00000000
00000000
00000000
00000000
,
00000000
00000000
00000000
00000000
,
00000000
00000000
00000000
00000000
,
00010001
00010001
01000100
10001000
,
00010001
10001000
10001000
00000000
,
00100010
01000100
00010001
00000000
,
00010001
00010001
10001000
00000000
,
00100010
10001000
01000100
10001000
,
00100010
01000100
00010001
00000000
,
20000000
30000000
02000000
03000000
,
20000000
30000000
00000002
00000003
,
00000200
00000300
00000002
00000003
,
00100010
00100010
01100110
00000000
,
00020002
00130013
20002000
30103010
,
02000200
03100310
00010001
00010001
,
10001000
10001000
01000100
00100010
,
10001000
00010001
01000100
00000000
,
00200000
10300000
02000000
03100000
,
00000002
00000103
00000020
00001030
,
01000100
01000100
10001000
00010001
,
01001000
01001000
00100001
00000000
,
10000001
01000010
00011000
01000010
,
10000001
00011000
10000001
00011000
,
00100010
10001000
00100010
00010001
,
10000100
00010010
10010110
00000000
,
00000000
00010000
00000000
10000000
,
00000000
00100010
00000000
01000100
,
00000000
00000001
00000000
00001000
,
00000000
00010010
10000100
10010110
;

//---------------dance-single - ----------------
#NOTEDATA:;
#CHARTNAME:;
#STEPSTYPE:dance-single;
#DESCRIPTION:;
#CHARTSTYLE:;
#DIFFICULTY:Medium;
#METER:5;
#RADARVALUES:0.307409,0.414281,0.172917,0.230556,0.000000,112.000000,103.000000,9.000000,12.000000,0.000000,0.000000,0.000000,0.000000,0.000000,0.307409,0.414281,0.172917,0.230556,0.000000,112.000000,103.000000,9.000000,12.000000,0.000000,0.000000,0.000000,0.000000,0.000000;
#CREDIT:;
#NOTES:
// measure 0
0000
0000
0000
0000
,  // measure 1
0000
0000
0000
0000
,  // measure 2
0000
0000
0000
0000
,  // measure 3
1000
0000
1000
0000
0010
0100
0001
0000
,  // measure 4
1100
0101
1001
0000
,  // measure 5
0010
1001
0000
0000
,  // measure 6
0100
0000
0001
0000
1000
0010
1000
0000
,  // measure 7
0100
0010
0100
0010
,  // measure 8
0002
0100
0103
0001
,  // measure 9
0002
1003
2000
3100
,  // measure 10
0200
0310
0020
0031
,  // measure 11
0002
1003
2000
3001
,  // measure 12
1000
0001
1001
0000
,  // measure 13
0100
1000
0010
0100
,  // measure 14
0001
0001
0002
0010
,  // measure 15
0013
0100
1000
0010
,  // measure 16
2002
0000
3003
0000
,  // measure 17
0002
0010
0000
0013
,  // measure 18
2000
0010
0000
3010
,  // measure 19
0100
0010
0100
0000
,  // measure 20
1001
0010
0010
0000
,  // measure 21
1000
0100
1000
0100
1000
0100
1000
0000
,  // measure 22
0001
0100
0001
0100
0001
0100
0001
0000
,  // measure 23
0010
0100
0010
0100
0010
0100
0010
0000
,  // measure 24
1000
0100
0001
1001
,  // measure 25
1000
0100
1000
0100
,  // measure 26
0010
0001
0100
0000
,  // measure 27
0001
0100
0001
0100
,  // measure 28
0010
1000
0100
1001
;
