#TITLE:bee. 2;
#SUBTITLE:(Rainbow colored bee.);
#ARTIST:GroovyDominoes52;
#TITLETRANSLIT:;
#SUBTITLETRANSLIT:;
#ARTISTTRANSLIT:;
#GENRE:;
#CREDIT:8Chasey 2025;
#MUSIC:bee 2 (Rainbow colored bee).mp3;
#BANNER:;
#BACKGROUND:;
#CDTITLE:;
#SAMPLESTART:37.064;
#SAMPLELENGTH:12.000;
#SELECTABLE:YES;
#OFFSET:-0.783;
#BPMS:0.000=200.000;
#STOPS:;
#BGCHANGES:;
#FGCHANGES:;

//--------------- dance-single - 8Chasey ----------------
#NOTES:
     dance-single:
     8Chasey:
     Beginner:
     2:
     0,0,0,0,0:
0000
0000
0000
0000
,
0000
0000
0000
0000
,
0000
0000
0000
0000
,
0000
0000
0000
0000
,
0001
0000
0000
0000
,
1000
0000
0000
0000
,
1001
0000
0000
0000
,
0001
0000
0000
0000
,
1000
0000
0000
0000
,
1000
0000
0000
0000
,
0001
0000
0001
0000
,
0001
0000
0000
0000
,
1000
0000
1000
0000
,
1000
0000
0000
0000
,
0010
0000
0000
0000
,
0100
0000
0000
0000
,
0010
0000
0010
0000
,
0010
0000
0000
0000
,
0100
0000
0000
0000
,
0010
0000
0000
0000
,
0100
0000
0100
0000
,
0100
0000
0000
0000
,
0001
0000
0000
0000
,
0010
0000
0000
0000
,
1000
0000
0000
0000
,
0100
0000
0000
0000
,
1000
0000
0000
0000
,
0001
0000
0000
0000
,
0100
0000
0000
0000
,
0010
0000
0010
0000
,
0000
1001
0000
0000
,
0000
0000
0000
0000
,
0100
0000
0000
0000
,
0000
0000
0000
0001
,
0001
0000
0000
0000
,
0000
0000
0000
1000
,
1000
0000
0000
0000
,
0001
0000
0000
0000
,
1000
0000
0000
0000
,
0000
0000
0000
0000
,
0001
0000
0000
0000
,
0100
0000
0100
0000
,
0001
0000
0000
0000
,
0000
0000
0000
0000
,
1000
0000
0000
0000
,
0010
0000
0010
0000
,
1000
0000
0000
0000
,
0001
0000
0000
0000
,
1000
0000
0000
0000
,
0100
0000
0100
0000
,
0010
0000
0000
0000
,
0100
0000
0000
0000
,
1000
0000
0000
0000
,
0001
0000
0000
0000
,
1001
0000
0000
0000
,
1000
0000
0000
0000
,
0001
0000
0000
0000
,
0001
0000
0000
0000
,
1000
0000
1000
0000
,
1000
0000
0000
0000
,
0001
0000
0001
0000
,
0001
0000
0000
0000
,
0100
0000
0000
0000
,
0010
0000
0000
0000
,
0100
0000
0100
0000
,
0100
0000
0000
0000
,
0010
0000
0000
0000
,
0100
0000
0000
0000
,
0010
0000
0010
0000
,
0010
0000
0000
0000
,
1000
0000
0000
0000
,
0100
0000
0000
0000
,
0010
0000
0000
0000
,
0001
0000
0000
0000
,
1000
0000
0000
0000
,
0001
0000
0000
0000
,
0100
0000
0000
0000
,
0001
0000
1000
0000
,
0000
0110
0000
0000
,
0000
0000
0000
0000
,
0100
0000
0000
0000
,
0000
0000
0001
0000
,
0010
0000
0000
0000
,
0000
0000
1000
1000
,
0000
0000
0000
0000
,
0100
0000
0010
0000
,
0001
0000
0000
0000
,
0000
0000
0000
0000
,
1000
0000
0000
0000
,
0100
0000
0100
0000
,
1000
0000
0000
0000
,
0000
0000
0000
0000
,
0001
0000
0000
0000
,
0010
0000
0010
0000
,
0001
0000
0000
0000
,
1000
0000
0000
0000
,
0001
0000
0000
0000
,
0100
0000
0100
0000
,
0010
0000
0000
0000
,
0100
0000
0000
0000
,
0001
0000
0000
0000
,
1000
0000
0000
0000
,
1001
0000
0000
0000
;

//--------------- dance-single - 8Chasey ----------------
#NOTES:
     dance-single:
     8Chasey:
     Easy:
     4:
     0,0,0,0,0:
0000
0000
0000
0000
,
0000
0000
0000
0000
,
0000
0000
0000
0000
,
0000
0000
0000
0000
,
0001
0000
1000
0000
,
0020
0000
0230
0000
,
0310
0010
0000
0000
,
1000
0000
0100
0000
,
1000
1000
0000
0000
,
0001
0000
0100
0000
,
0020
0000
0130
0000
,
0001
0000
1000
0000
,
0200
0000
0310
0000
,
0100
0000
1000
0000
,
0001
0000
0100
0000
,
0010
0000
1000
0000
,
0200
0000
0300
0000
,
1000
0000
0001
0000
,
1000
0000
0010
0000
,
0100
0000
0100
0000
,
0010
0000
1000
0000
,
0002
0000
1003
0000
,
0110
0000
0010
0000
,
0100
0000
0001
0000
,
1001
0000
1000
0000
,
0100
0000
0010
0000
,
0001
0100
0001
0000
,
1000
0010
1000
0000
,
0020
0000
0130
0000
,
0001
1000
0001
0000
,
0000
2200
0000
3300
,
1000
0000
1000
0000
,
0002
0000
0000
0000
,
0003
0000
0000
0100
,
0020
0000
0030
0000
,
0100
0000
0001
0000
,
2000
0000
0000
0000
,
3001
0000
0000
1000
0000
0000
0000
0000
,
0020
0000
0000
0000
,
0000
0000
0000
0030
,
0000
0100
0001
0000
,
1000
0100
0010
0000
,
0200
0000
0000
0000
,
0000
0000
0000
0300
,
0000
1000
0100
0000
,
1000
0001
0100
0000
,
0002
0000
1000
0000
,
1000
0000
1003
0000
,
0010
1000
0010
0000
,
0100
0000
0001
0000
,
2000
0000
0001
0000
,
0001
0000
3001
0000
,
0100
0000
0010
0000
,
0001
0000
1000
0000
,
1001
0000
0000
0000
,
0100
0000
0010
0000
,
0100
0100
0000
0000
,
0001
0000
1000
0000
,
0200
0000
0320
0000
,
0030
0100
1000
0000
,
0020
0000
0230
0000
,
0301
1000
0001
0000
,
1000
0000
0100
0000
,
0010
0000
0001
0000
,
0200
0000
0300
0000
,
0001
0000
1000
0000
,
0001
0000
0010
0000
,
0100
0000
0100
0000
,
0010
0000
0001
0000
,
2000
0000
3001
0000
,
0110
0000
0010
0000
,
0100
0000
1000
0000
,
1001
0000
0001
0000
,
0100
0000
0010
0000
,
1000
0100
1000
0000
,
0001
0010
0001
0000
,
0020
0000
0130
0000
,
1000
0001
1000
0000
,
0000
0202
0000
0303
,
0001
0000
0001
0000
,
2000
0000
0000
0000
,
3000
0000
0010
0100
,
0020
0000
0000
0000
,
0030
0000
0100
0020
,
0000
0000
0000
0000
,
1030
0000
0000
0001
0000
0000
0000
0000
,
0020
0000
0000
0000
,
0000
0000
0000
0030
,
0000
0100
1000
0000
,
0001
0100
0010
0000
,
0200
0000
0000
0000
,
0000
0000
0000
0300
,
0000
0001
0100
0000
,
0001
1000
0100
0000
,
2000
0000
0001
0000
,
0001
0000
3001
0000
,
0010
0001
0010
0000
,
0100
0000
1000
0000
,
0002
0000
1000
0000
,
1000
0000
1003
0000
,
0100
0000
0010
0000
,
1000
0000
0001
0000
,
1001
0000
0000
0000
;

//--------------- dance-single - 8Chasey ----------------
#NOTES:
     dance-single:
     8Chasey:
     Medium:
     6:
     0,0,0,0,0:
0000
0000
0000
0000
,
0000
0000
0000
0000
,
0000
0000
0000
0000
,
0000
0000
0000
0000
,
0001
0100
0010
1000
,
0200
0000
0320
0000
,
0130
0000
1000
0000
0000
0001
0000
0100
,
0001
1000
0002
0003
,
0100
0000
0001
0000
0000
1000
0000
0100
,
1000
0001
2000
3000
,
0020
0000
0230
0000
,
0310
0100
0001
0000
,
0020
0000
0230
0000
,
1300
0001
2002
3003
,
0001
1000
0002
0000
,
1003
0001
1000
0100
,
2000
0000
3010
0100
,
0101
0000
1010
1000
,
0200
0000
0310
0100
,
0010
0001
0100
0000
,
0010
0000
1000
0000
0100
0010
0100
0000
,
0020
0000
0200
0330
,
0101
0000
1010
0000
,
1000
0100
1000
0000
,
1100
0000
0011
0000
,
0001
0100
0001
0000
,
0010
0001
0100
0100
,
0010
0000
1000
0000
0001
1000
0000
0002
,
0000
0000
0000
0000
0103
0000
0001
0100
,
0001
0100
0001
0000
1000
0100
1000
0100
,
0000
0000
2000
0000
0000
0010
0000
0000
,
0010
0000
0000
3010
0000
0000
1000
0000
,
0002
0000
0010
0000
0000
0010
0000
0000
,
0010
0000
0000
0013
0000
0000
0001
0000
,
0200
0000
0010
0000
0000
0010
0000
0000
,
0310
0100
0001
1000
,
0020
0000
0130
0010
,
0100
0000
0000
0220
0000
0000
0330
0000
,
0010
0000
1000
0000
0010
2000
0000
0000
,
3002
0000
0000
0203
0000
0000
0301
0000
,
1000
0000
0010
0000
1000
0000
0000
0001
,
0000
0010
0000
0001
0000
0000
0100
0000
,
0110
0000
0010
0000
0100
0002
0000
0000
,
2003
0000
0000
3200
0000
0000
1300
0000
,
0001
0000
0010
0000
0001
0000
0000
1000
,
0000
0100
0000
1000
0000
0001
0000
0000
,
1001
0000
0002
0000
,
2003
0000
3002
0000
,
1003
0000
0010
1000
,
0010
1000
0010
0000
,
0110
0000
2000
0000
,
3002
0000
2003
0000
,
3001
0000
0100
0000
,
0010
0000
0000
0010
0000
0000
0100
0000
,
0220
0000
0330
0000
,
0001
0000
1000
0000
0001
0000
0010
0001
,
1000
1000
0010
0000
,
1000
0001
1000
0100
,
0020
0000
0130
0000
,
0010
0000
0001
0000
0010
0001
0010
0000
,
0200
0000
0310
0000
,
0001
1000
2002
3003
,
1000
0001
2000
0000
,
3001
1000
0001
0100
,
0002
0000
0013
0100
,
1100
0000
0011
0001
,
0200
0000
0310
0100
,
0010
1000
0100
0000
,
0010
0000
0001
0000
0100
0010
0100
0000
,
0020
0000
0200
0330
,
1100
0000
0011
0000
,
0001
0100
0001
0000
,
0101
0000
1010
0000
,
1000
0100
1000
0000
,
0010
1000
0100
0100
,
0010
0000
0001
0000
1000
0001
0000
2000
,
0000
0000
0000
0000
3100
0000
1000
0010
,
1000
0010
1000
0000
0001
0010
0001
0010
,
0000
0000
0002
0000
0000
0100
0000
0000
,
0100
0000
0000
0103
0000
0000
0001
0000
,
2000
0000
0100
0000
0000
0100
0000
0000
,
3100
0000
1000
0001
,
0020
0000
0000
0000
,
0000
0030
0100
2000
,
0000
0000
3001
0001
,
1000
0000
0000
0220
0000
0000
0330
0000
,
0010
0000
1000
0000
0010
2000
0000
0000
,
3002
0000
0000
0203
0000
0000
0301
0000
,
1000
0000
0010
0000
1000
0000
0000
0001
,
0000
0010
0000
0001
0000
0000
0100
0000
,
0110
0000
0010
0000
0100
0002
0000
0000
,
2003
0000
0000
3200
0000
0000
1300
0000
,
0001
0000
0010
0000
0001
0000
0000
1000
,
0000
0100
0000
1000
0000
0001
0000
0000
,
1001
0000
0002
0000
,
2003
0000
3002
0000
,
1003
0000
0010
1000
,
0010
1000
0010
0000
,
0110
0000
2000
0000
,
3002
0000
2003
0000
,
3001
0000
0100
0000
,
0010
0000
0000
0010
0000
0000
0100
0000
,
0220
0000
0330
0000
;

//--------------- dance-single - 8Chasey ----------------
#NOTES:
     dance-single:
     8Chasey:
     Hard:
     8:
     0,0,0,0,0:
0000
0000
0000
0000
,
0000
0000
0000
0000
,
2000
0000
3002
0000
,
1003
0100
0000
1000
0000
1000
0000
0000
,
0001
0100
0000
0001
0000
0001
0000
0000
,
2020
3030
0022
0033
,
1001
0000
0002
0000
0000
0023
0000
0000
,
0031
0000
1000
0000
0010
1000
0010
1000
,
0100
0000
2000
0000
0000
3020
0000
0000
,
1030
0000
0001
0000
0100
0001
0100
0000
,
0001
0010
0200
0000
,
1300
0000
0100
0000
0010
0100
0010
0100
,
1000
0010
0200
0000
,
0310
0100
2002
3003
,
0001
1000
0002
0000
,
1003
0100
1000
0000
0010
0000
0100
0000
,
0010
0000
1000
0010
1000
0000
0001
0000
,
0201
0000
0000
0000
0301
0000
1000
0010
,
1000
0001
2000
0000
,
3001
0100
0001
0000
0010
0000
0100
0000
,
1000
0010
0100
0000
0001
0000
1000
0000
,
0020
0030
0220
0330
,
0100
0001
0000
0100
0000
0010
0000
2000
,
0000
0100
0000
3010
0000
1000
0001
0000
,
0001
1000
0000
0010
0000
0100
0000
0002
,
1000
0000
0000
0000
0103
0000
0001
1000
,
0001
0010
0100
1000
,
0100
0000
1000
0000
0001
1000
0000
0001
,
0200
0000
0001
0000
0301
0000
1000
0010
,
1000
0000
0001
0100
0001
0020
0000
0130
,
0000
0000
2001
0000
0000
0001
0000
0000
,
0001
0000
0000
0001
0000
0000
3001
1000
,
0002
0000
1000
0000
0000
1000
0000
0000
,
1000
0000
0000
1000
0000
0000
1003
0001
,
0020
0000
0100
0000
0000
0130
0010
0100
,
1000
0000
0010
0000
1000
0000
0001
0100
,
0002
0100
0103
0010
,
2000
0000
0000
0002
0000
0000
3003
0000
,
1001
0000
0001
0000
0100
0001
0100
0000
,
0010
1000
0000
0010
1000
0000
0100
0000
,
1000
0000
0010
0000
0100
0001
0000
1000
,
0000
0100
0000
0200
0000
0310
0100
0000
,
0010
0000
0001
0000
1000
0100
1000
0000
,
0010
1000
0000
0001
1000
0000
0100
0000
,
0010
0000
0001
0000
1000
0001
0000
0100
,
0000
0010
0000
2000
0000
0002
0000
3003
,
1001
1000
0002
0000
,
0023
0000
0230
0000
,
1300
0000
0010
0000
1000
0010
0000
0100
,
0000
0001
1000
0001
0000
0010
0100
0000
,
0020
0000
0130
1000
,
0100
0010
0001
0000
0010
0000
0100
0000
,
0010
0000
0001
0100
0001
0000
1000
0000
,
0010
0000
0000
0110
0000
0000
0100
0000
,
2002
0000
3003
0000
,
0001
0100
0001
0000
1000
0010
1000
0000
,
0100
0000
1000
0000
0010
1000
0000
0001
,
0100
0000
0001
0000
1000
0001
1000
0000
,
0010
1000
0002
0000
,
0103
0001
0100
0000
0010
1000
0100
0000
,
0010
0001
2000
0000
,
3100
1000
0001
0000
0010
0001
1000
0000
,
0010
0100
0002
0000
,
0013
0001
0000
1000
0000
0010
1000
0000
,
0200
0000
0000
0310
0000
0100
1000
0000
,
2100
0000
0000
0000
3100
0000
0010
0001
,
0010
0001
2000
0000
,
3010
1000
0010
0000
0100
0000
0001
0000
,
0010
0001
1000
0000
0100
0000
0010
0000
,
0002
0003
2002
3003
,
1000
0010
0000
1000
0000
0001
0000
0200
,
0000
0010
0000
1000
0000
0301
0100
0000
,
0010
1000
0000
0100
0000
0010
0000
0002
,
0100
0000
0000
0000
1003
0000
0010
1000
,
0010
0200
0001
0310
,
0100
0000
0001
0000
1000
0010
0000
0020
,
0000
0100
0000
0130
,
0001
0100
0001
0000
1000
0010
0000
1000
,
0000
0000
0120
0000
0000
0100
0000
0000
,
0100
0000
0000
0100
0000
0000
0130
0001
,
0200
0000
0010
0000
0000
0010
0000
0000
,
0010
0000
0000
0310
1000
0010
1000
0001
,
0200
0000
0001
0000
,
1000
0000
0301
0020
,
0000
0000
0000
0000
0130
1000
0100
0000
,
2000
0000
0000
0002
0000
0000
3003
0000
,
1001
0000
0001
0000
0100
0001
0100
0000
,
0010
1000
0000
0010
1000
0000
0100
0000
,
1000
0000
0010
0000
0100
0001
0000
1000
,
0000
0100
0000
0200
0000
0310
0100
0000
,
0010
0000
0001
0000
1000
0100
1000
0000
,
0010
1000
0000
0001
1000
0000
0100
0000
,
0010
0000
0001
0000
1000
0001
0000
0100
,
0000
0010
0000
2000
0000
0002
0000
3003
,
1001
1000
0002
0000
,
0023
0000
0230
0000
,
1300
0000
0010
0000
1000
0010
0000
0100
,
0000
0001
1000
0001
0000
0010
0100
0000
,
0020
0000
0130
1000
,
0100
0010
0001
0000
0010
0000
0100
0000
,
0010
0000
0001
0100
0001
0000
1000
0000
,
1010
0000
0000
0101
0000
0000
1001
0000
,
2002
0000
3003
0000
;

//--------------- dance-single - 8Chasey - 2024 chart ----------------
#NOTES:
     dance-single:
     8Chasey - 2024 chart:
     Challenge:
     9:
     0,0,0,0,0:
0000
0000
0000
0000
,
0000
0000
0000
0000
,
2002
3003
0220
0330
,
0010
2000
0000
0100
0000
0200
0000
3300
,
0010
0002
0000
0100
0000
0200
0000
0303
,
2020
3030
0022
0033
,
1000
0010
2000
0000
3000
0001
0100
0002
,
0000
0013
0000
1001
0000
1000
0001
0000
,
0100
0010
0200
0000
0300
0001
1000
0002
,
0000
0103
0000
0110
0000
0001
1000
0000
,
0020
0001
2030
0000
,
0000
3100
0010
0100
1000
0001
0100
0001
,
0020
1000
0032
0000
,
2003
0000
0000
0010
0000
0000
3001
0000
1000
0001
0010
0100
,
0020
0032
2000
0003
,
3100
0010
0000
1100
0000
0101
0000
0000
,
1001
0000
1000
0010
0000
0010
0100
0000
,
0100
0000
0000
0001
0000
0000
0000
0000
0000
0010
0000
0000
0000
0000
0000
0000
0010
0000
0100
0000
1000
0000
0001
0000
,
0200
0302
2000
0003
,
3100
0010
0000
0110
0000
1001
0000
1000
,
0010
0100
0000
0001
0000
1000
0100
0000
,
0020
0001
0000
0030
0200
1000
0000
0300
,
0010
0010
0100
0000
1000
1000
0010
0000
,
0100
0100
0001
0000
0010
0010
0100
0000
,
1000
0001
0010
0000
0100
0010
0100
0000
,
0010
0010
0100
0100
1000
0001
1000
0001
,
0100
0000
0100
0000
1000
0010
0100
0000
,
0001
0000
0001
0000
1000
0001
0020
0000
,
0200
0000
0030
0000
1300
0001
1000
0000
,
0010
0100
0001
0010
0100
0010
0000
0110
,
0000
0000
2000
0000
0000
3002
0000
0000
,
2003
0000
0000
3002
0000
0000
1003
0000
,
1001
0000
0020
0000
0000
0230
0000
0000
,
0320
0000
0000
0230
0000
0000
0310
0000
,
2100
0000
3002
0000
0000
0023
0000
0000
,
0130
0010
0001
1100
,
0010
0000
2000
0000
0000
3002
0000
0000
,
0013
0100
0010
0002
2000
0000
3003
0000
,
0010
0000
1010
0000
0100
0001
0000
0001
,
0010
0000
0001
1000
0010
0100
0001
0000
,
1000
0000
0100
0010
0100
0010
0000
0002
,
0000
0010
0000
0100
0000
1003
0100
0000
,
0011
0000
1000
0001
0100
0010
0000
0010
,
0000
1000
0100
0010
0000
0001
0010
0000
,
0001
1000
0100
0000
0010
0200
0000
1000
,
0000
0001
0000
0320
0000
0230
0000
0300
,
1001
0000
1000
0000
0002
0010
0000
0000
,
0203
0010
0000
0000
0302
1000
0000
0000
,
2003
0000
3010
0100
0001
0010
0000
1100
,
0000
0101
0000
0010
1000
0200
0000
0000
,
0320
0000
0001
0000
0032
1000
0000
0000
,
2003
0010
0000
0000
3200
0010
0000
0000
,
0320
0000
0031
1000
0010
0100
0000
0000
,
2200
0000
3300
0022
0000
0033
0110
0000
,
1000
0010
2000
0000
3000
0001
0100
0002
,
0000
0013
0000
1001
0000
1000
0001
0000
,
0100
0010
0200
0000
0300
0001
1000
0002
,
0000
0103
0000
0110
0000
0001
1000
0000
,
0020
0001
2030
0000
,
0000
3100
0010
0100
1000
0001
0100
0001
,
0020
1000
0032
0000
,
2003
0000
0000
0010
0000
0000
3001
0000
1000
0001
0010
0100
,
0020
0032
2000
0003
,
3100
0010
0000
1100
0000
0101
0000
0000
,
1001
0000
1000
0010
0000
0010
0100
0000
,
0100
0000
0000
0001
0000
0000
0000
0000
0000
0010
0000
0000
0000
0000
0000
0000
0010
0000
0100
0000
1000
0000
0001
0000
,
0200
0302
2000
0003
,
3100
0010
0000
0110
0000
1001
0000
1000
,
0010
0100
0000
0001
0000
1000
0100
0000
,
0020
0001
0000
0030
0200
1000
0000
0300
,
0010
0010
0100
0000
1000
1000
0010
0000
,
0100
0100
0001
0000
0010
0010
0100
0000
,
1000
0001
0010
0000
0100
0010
0100
0000
,
0010
0010
0100
0100
1000
0001
1000
0001
,
0100
0000
0100
0000
1000
0010
0100
0000
,
0001
0000
0001
0000
1000
0001
0020
0000
,
0200
0000
0030
0000
1300
0001
1000
0000
,
0010
0100
0001
0010
0100
0010
0000
0110
,
0000
0000
0020
0000
0000
2030
0000
0000
,
3002
0000
0000
0023
0000
0000
0130
0000
,
0011
0000
2010
0000
0000
3200
0000
0000
,
0320
0000
0000
0031
1000
0010
0100
0001
,
0020
0100
0000
0000
0230
0000
0000
0000
0000
0000
2300
0000
0000
0000
0000
0000
,
3002
0000
0000
0013
0001
0000
2001
0000
,
3020
0000
0130
0000
0100
0001
0010
0100
,
0010
0001
1000
0020
0200
0000
0330
0000
,
0010
0000
1010
0000
0100
0001
0000
0001
,
0010
0000
0001
1000
0010
0100
0001
0000
,
1000
0000
0100
0010
0100
0010
0000
0002
,
0000
0010
0000
0100
0000
1003
0100
0000
,
0011
0000
1000
0001
0100
0010
0000
0010
,
0000
1000
0100
0010
0000
0001
0010
0000
,
0001
1000
0100
0000
0010
0200
0000
1000
,
0000
0001
0000
0320
0000
0230
0000
0300
,
1001
0000
1000
0000
0002
0010
0000
0000
,
0203
0010
0000
0000
0302
1000
0000
0000
,
2003
0000
3010
0100
0001
0010
0000
1100
,
0000
0101
0000
0010
1000
0200
0000
0000
,
0320
0000
0001
0000
0032
1000
0000
0000
,
2003
0010
0000
0000
3200
0010
0000
0000
,
0320
0000
0031
1000
0010
0100
0000
0000
,
2200
0000
3300
0022
0000
0033
0110
0000
,
2002
3003
0000
0000
;
