#TITLE:at the corner store;
#SUBTITLE:;
#ARTIST:bill wurtz;
#TITLETRANSLIT:;
#SUBTITLETRANSLIT:;
#ARTISTTRANSLIT:;
#GENRE:;
#CREDIT:8Chasey 2025;
#MUSIC:at the corner store.ogg;
#BANNER:at the corner store-bn.png;
#BACKGROUND:at the corner store-bg.png;
#CDTITLE:cdtitle.png;
#SAMPLESTART:81.34;
#SAMPLELENGTH:12;
#SELECTABLE:YES;
#OFFSET:-1.675;
#BPMS:0.000=131;
#STOPS:;
#BGCHANGES:-2.000=at the corner store.avi=1.000=0=0=0=StretchNoLoop==CrossFade==,
432.000=at the corner store-bg.png=1.000=0=0=0===CrossFade==,
99999=-nosongbg-=1.000=0=0=0 // don't automatically add -songbackground-
;
#FGCHANGES:;

//--------------- dance-single - 8Chasey ----------------
#NOTES:
     dance-single:
     8Chasey:
     Beginner:
     1:
     0,0,0,0,0:
0000
0000
0000
0000
,
0000
0000
0000
0000
,
0000
0000
0000
0000
,
0000
0000
0000
0000
,
0001
0000
0000
0000
,
0000
0000
0000
0000
,
1000
0000
0000
0000
,
0000
0000
0000
0000
,
1000
0000
0000
0000
,
0000
0000
0000
0000
,
0001
0000
0000
0000
,
0000
0000
0000
0000
,
0100
0000
0000
0000
,
0000
0000
0000
0000
,
0010
0000
0000
0000
,
0000
0000
0000
0000
,
0010
0000
0000
0000
,
0000
0000
0000
0000
,
0100
0000
0000
0000
,
0000
0000
0000
0000
,
0001
0000
0001
0000
,
0000
0000
0000
0000
,
1000
0000
1000
0000
,
0000
0000
0000
0000
,
0001
0000
0000
0000
,
1000
0000
0000
0000
,
0001
0000
0000
0000
,
0000
0000
0000
0000
,
0100
0000
0000
0000
,
0000
0000
0000
0000
,
0100
0000
0000
0000
,
0000
0000
0000
0000
,
0010
0000
0000
0000
,
0000
0000
0000
0000
,
0010
0000
0000
0000
,
0000
0000
0000
0000
,
1000
0000
0000
0000
,
0000
0000
0000
0000
,
0010
0000
0000
0000
,
0000
0000
0000
0000
,
0100
0000
0000
0000
,
0000
0000
0000
0000
,
0001
0000
0000
0000
,
0000
0000
1000
0000
,
0001
0000
0001
0000
,
0000
0000
0001
0000
,
1000
0000
1000
0000
,
0000
0000
0000
0000
,
0100
0000
0000
0000
,
0010
0000
0000
0000
,
0100
0000
0000
0000
,
0000
0000
0000
0000
,
0000
0000
0001
0000
,
0000
0000
0000
0000
,
0000
0000
1000
0000
,
0000
0000
0000
0000
,
0000
0000
0100
0000
,
0000
0000
0010
0000
,
0010
0000
0000
0000
,
0000
0000
1000
0000
,
0001
0000
1000
0000
,
0000
0000
0001
0000
,
1000
0000
0001
0000
,
0000
0000
0000
0000
,
0100
0000
0000
0000
,
0100
0000
0000
0000
,
0010
0000
0010
0000
,
0100
0000
0000
0000
,
0000
0100
0000
0000
,
0010
0000
0000
0000
,
0010
0000
0000
0000
,
0100
0000
0100
0000
,
0000
0001
0000
0000
,
1000
0000
0000
0000
,
0001
0000
0001
0000
,
1000
0000
1000
0000
,
0001
0000
0000
0000
,
0100
0000
0000
0000
,
0010
0000
0000
0000
,
0000
0000
0000
0000
,
1000
0000
0000
0000
,
0000
0000
0000
0000
,
0001
0000
0000
0000
,
0000
0000
0000
0000
,
0001
0000
0000
0000
,
0000
0000
0000
0000
,
1000
0000
0000
0000
,
0010
0000
0100
0000
,
0010
0000
0000
0000
,
0000
0000
0000
0000
,
0010
0000
0000
0000
,
0000
0000
0000
0000
,
0100
0000
0000
0000
,
0000
0000
0000
0000
,
0100
0000
0000
0000
,
0001
0000
1000
0000
,
0001
0000
0001
0000
,
0000
0000
0000
0000
,
1000
0000
1000
0000
,
0000
0000
0000
0000
,
0010
0000
0000
0000
,
0100
0000
0000
0000
,
0001
0000
0000
0000
,
1000
0000
0000
0000
,
0001
0000
0001
0000
,
1000
0000
1000
0000
,
0100
0000
0000
0000
;

//--------------- dance-single - 8Chasey ----------------
#NOTES:
     dance-single:
     8Chasey:
     Easy:
     3:
     0,0,0,0,0:
0000
0000
0000
0000
,
0000
0000
0000
0000
,
0000
0000
0000
0000
,
0000
0000
0000
0000
,
0001
0000
0001
0000
,
0000
0000
1000
0001
,
1000
0000
1000
0000
,
0000
0000
0010
0000
,
0100
0000
0100
0000
,
0000
0000
0001
1000
,
0001
0000
1000
0001
,
1000
0000
0010
0000
,
0100
0000
0100
0000
,
0001
0000
0100
0000
,
0001
0000
0001
0000
,
0000
0000
1000
0001
,
1000
0000
0001
0000
,
0010
0000
0100
0010
,
0100
0000
0010
0000
,
0001
0000
1000
0000
,
0001
1000
0001
0000
,
1000
0000
0001
0000
,
1000
0001
1000
0000
,
0001
0000
1000
0000
,
0010
0000
0010
0000
,
0100
0000
0100
0000
,
0010
0000
0100
0000
,
0000
0001
1000
0001
,
1000
0000
0001
0000
,
0000
0000
0010
0000
,
0001
0000
0001
0000
,
1000
0000
0100
0000
,
1000
0001
1000
0000
,
0000
0000
0001
0000
,
0010
0000
0001
0000
,
1000
0000
1000
0000
,
0001
0000
0100
0000
,
0000
0010
0100
0000
,
0010
0100
0010
0000
,
1000
0000
0100
0000
,
1000
0001
1000
0000
,
0001
0000
0010
0000
,
0100
0000
0010
0000
,
0100
0010
0100
0000
,
1000
1000
0001
0000
,
1000
0000
1000
0000
,
0001
0001
1000
0000
,
0001
0000
0001
0000
,
0100
0000
0010
0000
,
0010
0000
0100
0000
,
0001
0000
1000
0000
,
0010
0000
0000
0000
,
0000
0000
0100
0000
,
0000
0000
0001
1000
,
0000
0010
0010
0000
,
0000
0100
0010
0000
,
0100
0000
0100
0000
,
0000
0000
0001
0000
,
1000
0001
1000
0001
,
1000
0001
1000
0001
,
0000
0000
1000
0000
,
0000
0000
0010
0000
,
1000
0001
0001
0000
,
0000
0000
0000
0100
,
0010
0000
0100
0000
,
0010
0000
1000
0000
,
0001
0000
1000
0000
,
0001
0000
0000
0000
,
0000
0100
0000
0000
,
0010
0000
1000
0010
,
1000
0000
0010
1000
,
0010
0000
0100
0000
,
0000
0100
0000
0000
,
0001
1000
0001
0000
,
1000
0001
1000
0000
,
0001
0000
0100
0000
,
0100
0000
0010
0000
,
0100
0000
0000
0000
,
0001
0000
0000
0000
,
1000
0000
0001
0000
,
1000
0000
0000
0000
,
0010
0000
0100
0000
,
0001
0000
0001
0000
,
0000
0000
1000
0000
,
0001
1000
0001
0000
,
1000
0000
1000
0000
,
0010
0000
0100
0000
,
0100
0000
0010
0100
,
0010
0000
0100
0000
,
0001
0000
1000
0001
,
1000
0000
0001
0000
,
0010
0000
0010
0000
,
0100
0010
0100
0000
,
1000
0000
0001
0000
,
0100
0000
0000
0000
,
0010
0100
0010
0000
,
1000
0001
1000
0000
,
0001
0000
0010
0000
,
0001
1000
0001
0000
,
1000
0000
0100
0000
,
0010
0000
0010
0000
,
0001
0000
0001
0000
,
1000
0000
1000
0000
,
0100
0010
0100
0000
,
1000
0000
0001
0000
,
0001
0000
1000
0000
,
0200
0000
0000
0000
,
0300
0000
0000
0000
;

//--------------- dance-single - 8Chasey ----------------
#NOTES:
     dance-single:
     8Chasey:
     Medium:
     4:
     0,0,0,0,0:
0000
0000
0000
0000
,
0000
0000
0000
0000
,
0000
0000
0000
0000
,
0000
0000
0000
0000
,
0001
0100
0001
0000
,
1000
0000
0010
0000
,
1000
0100
1000
0000
,
0001
0000
0010
0000
,
0100
0010
0100
0000
,
0010
0000
0001
0000
,
0100
0001
0100
0000
,
0010
0000
1000
0000
,
0100
1000
0100
0000
,
1000
0000
1000
0000
,
0100
0001
0100
0000
,
0001
0000
0010
0000
,
0001
0001
0010
0000
,
0001
1000
0100
0000
,
1000
1000
0010
0000
,
0100
0010
0100
0000
,
0001
0001
0100
0000
,
0002
0000
1003
0001
,
1000
1000
0100
0000
,
2000
0000
3001
0000
,
0020
0001
0031
0000
,
0200
0010
0310
0000
,
2002
0000
3003
0000
,
2000
0100
0010
3001
,
0100
0010
0100
0000
,
0010
0000
1000
0000
,
0100
1000
0100
0000
,
1000
0000
0001
0000
,
0010
0001
0010
0000
,
0001
0000
1000
0000
,
0010
1000
0010
0000
,
0100
0000
0010
0000
,
0100
0001
0010
0000
,
0100
1000
0010
0000
,
1000
1000
0100
0000
,
1000
0010
0100
0001
,
0010
0010
0100
0000
,
0010
0001
1000
0000
,
1001
0000
0110
0000
,
0100
0001
1000
0100
,
0010
0010
0100
0000
,
2000
0000
3010
1000
,
0010
0010
0100
0000
,
0002
0000
0103
0000
,
0020
0100
1030
0000
,
0200
0001
0310
0000
,
0220
0000
0330
0000
,
2002
0000
3003
0000
,
1000
0000
0000
0000
0002
0000
0000
0103
,
0000
0001
0010
0100
,
0000
1100
0000
0000
2000
0000
0000
3100
,
0000
1000
0010
1000
,
0020
0000
0000
0000
0130
0000
0000
0101
,
0000
0000
0001
0000
1000
0000
0000
0010
,
0000
0100
0100
0010
,
0200
0001
0002
0303
,
1000
0000
0000
0000
0020
0000
0000
0130
,
0000
0001
0100
1000
,
0000
0200
0000
0000
0010
0000
0000
0310
,
0000
0000
1001
0000
,
1000
0000
0010
0100
,
0001
0000
1000
1000
,
0001
1001
0001
0100
,
0020
0000
0100
0130
,
0000
0110
0100
0001
,
0010
0000
0001
1000
,
0200
0000
1000
0000
,
0310
0001
1000
0100
,
0000
1001
1000
0001
,
1000
0000
0010
0010
,
0200
0000
0001
0001
,
0301
0000
1000
0010
,
0100
0000
0001
0010
,
0100
0000
0010
0100
,
0010
0000
0000
0200
0000
0000
0000
0000
,
0010
0010
0010
0310
,
1000
0100
1000
0000
,
0100
0000
0010
0000
,
0001
0010
0001
0000
,
1000
0100
0001
0000
,
0100
0010
0100
0000
,
1000
0000
0010
0000
,
0100
0010
0100
0000
,
0001
0000
0010
0000
,
0001
1000
0100
0000
,
1000
0000
0100
1000
,
0001
0000
0010
0000
,
0001
0100
0010
1000
,
0010
0000
0100
0000
,
0001
1000
0100
0000
,
1100
0000
0011
0000
,
0010
0001
0200
0000
,
0301
0001
1000
0000
,
0020
0000
1030
0000
,
1000
1000
0100
0000
,
0020
0000
0130
0000
,
1000
0100
0010
0000
,
0001
0010
0100
0000
,
1000
1000
0010
0000
,
0100
0001
0100
0000
,
0002
1000
0013
0000
,
2000
0001
3100
0000
,
0202
0000
0000
0000
,
0000
0000
0000
0303
0000
0000
0000
0000
;

//--------------- dance-single - 8Chasey ----------------
#NOTES:
     dance-single:
     8Chasey:
     Hard:
     7:
     0,0,0,0,0:
0000
0000
0000
0000
,
0000
0000
0000
0000
,
0000
0000
0000
0000
,
0000
0000
0000
0000
,
0001
0000
0000
1000
0000
0000
0002
0000
0100
0000
0000
0000
0103
0000
0000
0000
,
0010
0000
0000
1000
0000
0000
0010
0000
0100
0000
0000
0000
0001
0000
0000
0000
,
1000
0000
0000
1000
0000
0000
0200
0000
0010
0000
0000
0000
0310
0000
0000
0000
,
0001
0000
0010
0000
0100
0000
0000
0000
0110
0000
0000
0010
0000
0000
0100
0000
,
1000
0000
0000
0010
0000
0000
2000
0000
0100
0000
0000
0000
3100
0000
0000
0000
,
0010
0000
0100
0000
1000
0000
0000
0000
0001
0000
0000
0100
0000
0000
0002
0000
,
1000
0000
0000
1003
0000
0000
0000
0000
0010
0000
1000
0000
0100
0000
0100
0000
,
1000
0000
0001
0000
0101
0100
0010
1000
,
0010
0000
0000
0020
0000
0000
0000
0000
0130
0000
0000
0200
0000
0000
0000
0000
,
0301
0000
0000
0100
0000
0000
0100
0000
0000
0000
0010
0000
1000
0000
0100
0000
,
1000
0000
0000
0001
0000
0000
2000
0000
0100
0000
0000
0000
3001
0000
0000
0000
,
0100
0000
0010
0000
0100
0000
0000
0000
0001
0000
0000
0001
0000
0000
0001
0000
,
1000
0000
0000
0002
0000
0000
0000
0000
0103
0000
0000
0100
0000
0000
0100
0000
,
0000
0000
0000
0000
0010
0000
1000
0000
0100
0000
0000
1000
0000
0000
0001
0000
,
0020
0000
0031
0000
0100
0010
0100
0000
,
0010
1000
0100
0000
2100
0000
3001
0000
,
0010
0000
0000
0010
0001
0000
0010
0000
0200
0000
0000
0000
1300
0000
0000
0000
,
0020
0000
1000
0000
0130
0001
0100
0000
,
0001
0000
0000
0001
0010
0000
0001
0000
0200
0000
0000
0000
0301
0000
0000
0000
,
1000
0100
0001
0100
0020
0000
0130
1000
,
0002
0000
0103
0010
1000
0000
1010
0000
,
1000
0100
0010
0001
0200
0000
0310
0000
,
2020
0000
0000
0000
3030
0000
0000
0000
0010
0000
0000
0100
0000
0000
0001
0000
,
0200
0000
0000
0000
0310
0000
0000
0000
1000
0010
0000
0000
0100
0001
0000
0000
,
0020
0000
0000
0001
0000
0000
0031
0000
0100
0000
0010
0000
1000
0000
0000
0000
,
0100
0000
1000
0100
0010
0000
0001
0000
,
0100
0000
0000
0100
0000
0000
0020
0000
1000
0000
0000
0000
1030
0000
0000
0000
,
0001
0000
0010
0000
0100
0000
0000
0000
0210
0000
0000
0010
0000
0000
0310
0000
,
0001
0000
0000
0100
0000
0000
0200
0000
0001
0000
0000
0000
0310
0000
0000
0000
,
1000
0000
0100
0000
0010
0000
0000
0000
0001
0000
0000
0010
0000
0000
0001
0000
,
0020
0000
0130
0000
1000
0100
1000
0000
,
0010
0010
0010
0000
0200
0000
0301
0000
,
2010
0000
0000
0010
0000
0000
0020
0000
3000
0000
0000
0000
0130
0000
0000
0000
,
0001
0000
0010
0000
0100
0010
0100
0000
,
1000
0000
0000
1000
0000
0000
2000
0000
0010
0000
0000
0000
3001
0000
0000
0000
,
0100
0010
1000
0000
0010
0000
1000
0000
,
0001
0000
0000
0010
0000
0000
0200
0000
1000
0000
0000
0000
1300
0000
0000
0000
,
0100
0000
0010
0001
1000
0000
0010
0000
,
0220
0000
0000
0000
0330
0000
0000
0000
0100
0001
0000
0000
1000
0000
0000
0000
,
0010
1000
0010
0100
0002
0000
0103
0000
,
0001
0000
0000
0001
0010
0000
0001
0000
2000
0000
0000
0000
3100
0000
0000
0000
,
0010
0000
0001
0100
0010
0000
1010
0000
,
1000
0000
0000
1000
0100
0000
1000
0000
0002
0000
0000
0000
0013
0000
0000
0000
,
0100
0010
0100
1000
0002
0000
0103
0000
,
1010
0000
0010
0100
0002
0000
0013
0000
,
0100
1000
0100
0010
0002
0000
1003
0000
,
0020
0000
0130
0000
0001
0010
0001
1000
,
0200
0000
0010
0000
2000
0000
0000
3300
,
0000
0002
0000
0000
0103
0000
0000
0110
,
0000
0010
1000
0000
0001
0000
0010
0000
,
0000
0000
1100
0000
0000
0100
0000
0000
1000
0000
0000
0001
0000
0000
1001
0000
,
0000
0000
0001
0000
0200
0000
0310
1000
,
0010
0000
0100
0000
0101
0000
0000
1010
,
0000
0000
1000
0100
1000
0000
0001
0020
,
0000
1000
0100
0031
,
0200
0000
0000
0000
0302
0000
0000
0000
0013
0000
0000
0020
0000
0000
0130
0000
,
0000
2000
0000
0000
3001
0000
0000
0110
,
0000
0000
0010
1000
0010
0000
0101
0000
,
0200
0000
0010
0000
0000
0010
0000
0000
0310
0000
0000
1000
0000
0000
2200
0000
,
0000
0000
3300
0000
1000
0000
0001
0010
,
0200
0000
0310
0000
0011
0000
0010
0001
,
0200
0000
0000
0000
0310
0000
0000
0000
1000
0000
0000
0100
0000
0000
1000
0000
,
0001
0000
0101
0000
0100
0000
0010
1000
,
0020
0000
0000
0000
0130
0000
0001
0000
1000
0000
0000
0001
0000
0000
1000
0000
,
0000
0000
1001
0000
1010
0000
0010
0100
,
0002
0000
0103
0000
0001
0000
1000
0010
,
1000
0000
0100
0000
0010
0001
0000
0100
,
0001
1000
0020
0130
,
0000
0000
0110
0000
0010
1000
0010
0000
,
0200
0000
0301
0000
0010
0001
1000
0000
,
0100
0000
0010
0000
0001
0100
0010
0100
,
0020
0000
0000
0000
1030
0000
0001
0000
0100
0000
0000
0100
0000
0000
0100
0000
,
0001
0010
0100
0000
2000
0000
3001
0000
,
0200
0000
0000
0000
0301
0010
0100
0000
,
2000
0000
0000
0002
0000
0000
3000
0000
,
0010
1000
0100
1003
,
0010
0000
0000
0010
0000
0000
0010
0000
0200
0000
0000
0000
0301
0000
0000
0000
,
1000
0000
0100
0000
0010
0000
0000
0000
0001
0000
0000
0100
0000
0000
0001
0000
,
1000
0000
0000
0100
0000
0000
1000
0000
0020
0000
0000
0000
0130
0000
0001
0000
,
0010
0000
0000
0001
1000
0000
0000
0000
0100
0000
1000
0000
0010
0000
0000
0000
,
0100
0000
0000
0200
0000
0000
0000
0000
0301
0000
0000
1000
0000
0000
0100
0000
,
0010
0001
2000
3100
,
0001
0000
0000
0002
0000
0000
0000
0000
0013
0000
0000
0000
0001
0000
0100
0000
,
0010
1000
0010
1000
0100
0000
1000
0000
,
0100
0000
0000
1000
0000
0000
2000
0000
0010
0000
0000
0000
3010
0000
0100
0000
,
0002
0000
0013
0000
0100
1000
0010
0000
,
0100
0001
1000
0100
1000
0000
0010
0000
,
0100
0010
0100
0001
0010
0001
1000
0000
,
0010
0000
0000
2000
0000
0000
0000
0000
3100
0000
0000
0000
1000
0000
0001
0000
,
0010
0000
0001
0000
0100
0010
0100
0000
,
2002
0000
3003
0000
1000
0100
0010
0000
,
0002
0103
2020
3030
,
0110
0000
0000
0100
0001
0000
1000
0000
0200
0000
0000
0000
0310
0000
0000
0000
,
0002
0000
0100
0000
1003
0010
1000
0000
,
1100
0000
0000
0100
1000
0000
0010
0000
0200
0000
0000
0000
0301
0000
0000
0000
,
0010
0001
0010
1000
0010
0100
1000
0000
,
0020
0000
0100
0000
1030
0000
0100
1000
,
0001
0000
0000
0010
0001
0000
1000
0000
0020
0000
0000
0000
0130
0000
0000
0000
,
0001
0100
1000
0000
0200
0000
0310
0000
,
1000
0100
0010
0000
0012
0000
0103
0000
,
2010
3100
0220
0330
,
0010
0001
0100
1000
0100
0001
1000
0100
,
2200
0000
0000
0000
,
0000
0000
0000
3300
0000
0000
0000
0000
;
