#TITLE:at the airport terminal;
#SUBTITLE:;
#ARTIST:bill wurtz;
#TITLETRANSLIT:;
#SUBTITLETRANSLIT:;
#ARTISTTRANSLIT:;
#GENRE:;
#CREDIT:8Chasey;
#MUSIC:at the airport terminal.ogg;
#BANNER:;
#BACKGROUND:;
#CDTITLE:;
#SAMPLESTART:98.4;
#SAMPLELENGTH:12;
#SELECTABLE:YES;
#OFFSET:-0.912;
#BPMS:0.000=146.000
,15.000=136.000
;
#STOPS:15.000=0.441;
#DISPLAYBPM:136.000;
#BGCHANGES:-0.250=at the airport terminal.avi=1.000=0=0=0=StretchNoLoop====,
99999.000=-nosongbg-=1.000=0=0=0=StretchNoLoop====
;
#FGCHANGES:;

//--------------- dance-single - SUPER EASY ----------------
#NOTES:
     dance-single:
     SUPER EASY:
     Beginner:
     1:
     0,0,0,0,0:
0000
0000
0000
0000
,
0000
0000
0000
0000
,
0000
0000
0000
0000
,
0000
0000
0000
0000
,
0001
0000
1000
0000
,
0001
0000
0000
0000
,
1000
1000
1000
0000
,
0001
0001
0001
0000
,
1000
0000
0001
0000
,
1000
0000
0000
0000
,
0001
0000
0000
0000
,
0100
0000
0100
0000
,
1000
1000
1000
0000
,
0001
0001
0001
0000
,
0010
0000
0010
0000
,
0100
0000
0100
0000
,
0010
0010
0010
0000
,
0100
0000
0000
0000
,
0001
0000
0001
0000
,
0001
0000
0100
0000
,
1000
0000
1000
0000
,
1000
0000
0010
0000
,
0000
0000
0100
0000
,
0000
0000
0100
0000
,
0000
0000
0100
0000
,
0100
0000
0001
0000
,
0000
0000
0001
0000
,
0001
0000
1000
0000
,
0000
0000
1000
0000
,
1000
0000
0010
0000
,
0010
0000
0100
0000
,
0100
0000
0100
0000
,
0100
0000
0001
0000
,
1000
0000
0000
0000
,
0001
0000
0000
0000
,
0010
0000
0010
0000
,
0100
0000
0100
0000
,
0001
0000
0001
0000
,
1000
0000
1000
0000
,
0001
0000
0000
0000
,
1000
0000
0000
0000
,
1000
0000
0001
0000
,
0010
0000
0010
0000
,
1000
0000
0000
0000
,
0001
0000
0000
0000
,
0000
0000
1000
0000
,
0000
0000
1000
0000
,
0000
0000
0001
0000
,
0000
0000
0001
0000
,
0000
0000
0100
0000
,
0100
0000
0100
0000
,
0000
0000
0010
0000
,
0010
0000
0010
0000
,
0000
0000
0100
0000
,
0010
0000
0100
0100
,
0100
0000
1000
0000
,
0000
0000
1000
0000
,
0000
0000
0001
0000
,
0000
0000
0001
0000
,
0100
0000
0001
0000
,
0000
0000
1000
0000
,
0000
0000
0100
0000
,
0100
0000
0010
0000
,
0010
0000
0000
0000
,
0000
0000
0001
0000
,
0001
0000
1000
0000
,
1000
0000
0001
0000
,
1000
0000
0001
0000
,
0000
0000
1000
0000
,
1000
0000
0001
0000
,
0001
0000
1000
0000
,
0001
0000
1000
0000
,
0000
0000
0001
0000
,
0000
0000
0001
0000
,
0000
0000
0100
0000
,
0100
0000
0100
0000
,
0000
0000
1000
0000
,
0000
0000
1000
0000
,
0000
0000
0010
0000
,
0010
0000
0000
0100
,
0000
0000
0010
0000
,
0100
0000
0010
0000
,
0000
0000
0100
0100
,
0100
0000
0010
0010
,
0010
0000
1000
0000
,
1000
0000
0001
0000
,
0001
0000
1000
0000
,
0001
0000
0100
0000
,
0000
0000
0000
0000
,
0010
0000
0000
0000
,
0000
0000
0000
0000
,
0000
0000
0000
0000
0000
0100
0000
0000
;

//--------------- dance-single - NO HARM ----------------
#NOTES:
     dance-single:
     NO HARM:
     Easy:
     3:
     0,0,0,0,0:
0000
0000
0000
0000
,
0000
0000
0000
0000
,
0000
0000
0000
0000
,
0000
0000
0000
0000
,
0001
0100
0001
0000
,
1000
0000
1000
0000
,
0001
1000
0001
0000
1000
0001
1000
0000
,
0010
0100
0110
0000
,
0010
0100
0010
0000
,
1000
0000
0001
0000
,
1000
1000
0001
0000
,
1000
0001
0100
0000
,
0010
0100
0010
0000
0100
0010
0100
0000
,
0001
1000
1001
0000
,
0010
0100
0010
0000
,
0100
0010
0100
0000
,
1001
0110
1001
0000
,
0001
0000
1000
0000
,
0100
1000
0100
0000
,
1000
0000
0001
0000
,
0001
1000
0001
0000
,
0100
0000
0010
0000
,
0000
0000
0100
0000
,
0010
1000
0001
0000
,
1000
0000
0001
1000
,
0001
0000
0100
0000
,
0001
0100
0001
0000
,
1000
1000
0100
0000
,
1000
0100
1000
0000
,
0010
0000
0100
0100
,
0001
0000
1000
0010
,
1000
0010
1000
0000
,
0001
0000
1000
0001
,
1000
0000
0010
0000
,
0100
0010
0100
0010
,
0100
0100
0010
0000
,
0010
0010
0100
0000
,
0001
0100
0001
0000
,
1000
0100
1000
0000
,
0001
0000
1000
0000
,
0001
1000
0100
0000
,
1000
0000
0001
0000
,
0010
0100
0010
0000
,
0001
0000
0100
0000
,
0001
0010
0001
1000
,
0000
0000
0100
0000
,
1000
0000
0100
1000
,
0100
0000
0100
0100
,
0010
0000
0100
0000
,
0010
0000
0001
0000
,
1000
0000
0010
0100
,
0010
0100
0010
0000
,
0000
0000
0100
0000
,
0010
0000
1000
0001
,
1000
0001
0100
0100
,
0010
0000
1000
0000
,
0010
1000
0010
0000
,
0100
0001
0100
0000
,
0001
0000
1000
0001
,
1000
0000
0001
0000
,
0001
0000
1000
0000
,
1000
0000
0100
0000
,
0010
0000
0100
0010
,
0100
0000
1000
0001
,
1001
0000
0001
0000
,
0101
0000
1000
0000
,
1100
0000
0100
0010
,
0001
1000
0010
0000
,
0100
0000
0001
0001
,
0001
0000
1000
1000
,
1000
0000
0010
0000
,
0100
0000
0010
0000
,
0000
0000
1000
0000
,
1000
0000
0000
0010
,
1000
0000
0100
1000
,
0100
0000
1000
0000
,
0000
0000
0001
0000
,
0001
0000
0000
0010
,
0001
0000
1000
0000
,
0001
0000
0000
1001
,
0000
0000
1000
0001
,
1000
0000
0001
1000
,
0001
0000
0000
0000
1000
0001
1000
0000
,
0001
1000
0001
0000
0100
0000
0010
0000
,
0110
0000
0010
1000
,
0010
0000
1000
0001
,
1000
0000
0100
1000
,
0100
1000
0100
0000
,
1000
0001
0100
0000
,
0010
0010
0010
0000
,
0100
0001
1000
0010
,
0100
0000
0000
0000
0000
0010
0000
0000
;

//--------------- dance-single - GET REAL ----------------
#NOTES:
     dance-single:
     GET REAL:
     Medium:
     6:
     0,0,0,0,0:
0000
0000
0000
0000
,
0000
0000
0000
0000
,
0000
0000
0000
0000
,
0000
0000
0000
0000
,
0001
0000
1000
0000
0100
0010
0001
0000
,
1000
0001
1000
0100
,
1000
0010
0100
0010
1000
0001
1000
1000
,
0001
0100
0001
1000
0010
0000
0000
0000
,
0001
0100
0001
0000
1000
0000
0100
0000
,
0010
0001
1000
0000
0001
0000
1000
0000
,
0100
1000
0010
0100
,
0001
0000
0010
0100
0010
0000
0000
0000
,
0100
1000
0100
0100
0010
0001
0010
0010
,
0001
1000
0010
0000
0110
0000
0000
0000
,
0001
0000
0100
0001
0010
0000
0001
0000
,
1000
0000
0010
1000
0100
0000
1000
0000
,
0010
0100
0001
1000
1001
0000
0000
0000
,
1000
0001
1000
0000
,
0001
1000
0001
0000
1000
0100
1000
0000
,
0100
0010
0001
0100
,
0101
0001
1000
0100
,
1100
0000
0100
0000
0010
0000
0000
0010
,
0100
0000
0000
0000
0000
0000
0000
0000
1000
0000
0000
0001
0000
0000
1000
0000
,
0001
1000
1001
0000
,
0001
1000
0010
0100
,
0110
0000
0000
0000
0100
0000
0100
0001
,
1000
0000
0001
0000
0100
0000
0010
1000
,
0010
0000
1000
0000
0100
0010
0100
0010
,
0001
0000
1000
0001
1000
0100
0000
1000
,
0010
0000
0100
0010
0000
0000
1000
0000
0000
0001
0000
0000
,
0100
0001
0100
0000
0010
0010
0000
1000
,
0010
0000
0100
0000
0001
0010
0001
0000
,
1000
0000
0100
1000
0010
0000
0100
0000
,
0110
0000
0010
0000
,
0100
0000
0010
1000
0001
0000
1000
0000
,
0100
0000
0100
0000
0010
0000
0001
1000
,
0010
1000
0100
0100
,
1000
0001
0100
0000
0010
0000
0100
0000
,
0001
0010
0001
0000
0100
0000
0010
1000
,
0010
1000
0100
0001
,
0100
0010
0100
0000
0010
0000
0100
0000
,
1000
0010
0100
0001
,
1000
0001
1000
0000
1001
0000
0000
0000
,
0100
0100
0001
0000
,
1000
0000
0010
0000
1000
0000
0000
1001
,
0000
0001
0100
0000
,
0001
0000
1000
0000
1000
0010
0000
0000
,
0100
0000
0000
0001
0000
1000
0000
0000
,
0100
1000
0000
0000
0100
0000
0010
0000
,
0110
0000
0010
0001
,
1000
0000
0000
0001
0000
0100
0000
0000
,
0010
0000
1000
0010
0000
0000
0100
0000
,
0110
0000
0001
0000
,
1001
0000
0000
1000
0010
1000
0010
0000
,
0100
0000
0001
0000
1000
0100
0010
0000
,
0100
0000
0010
0001
,
1000
0001
1000
0000
0001
0000
0100
0000
,
0001
0010
0001
0000
1000
0000
1000
0000
,
0010
0100
0001
0000
1000
0000
0100
0000
,
0010
0000
0110
0010
,
0001
0000
0100
0000
0001
1000
0001
0000
,
1000
1000
0100
1000
,
0010
0100
0001
0100
,
1000
0000
0000
0000
0000
0000
0100
0000
0001
0000
0100
0000
,
0010
0000
0000
0110
0000
0000
0100
0000
,
0010
0000
0000
1000
0000
0100
1000
0000
,
0001
0000
0000
0010
0000
0010
0000
0000
,
0001
0000
1000
0000
0001
0000
1000
0000
0000
0000
0010
0000
0000
0010
0000
0000
,
0010
0000
0000
0100
0000
0001
0100
0000
,
0001
0000
1000
0100
0000
1000
0100
0000
,
1000
0000
0000
0010
0000
0100
0100
0000
,
0001
0000
1000
0010
0000
0000
0100
0000
,
0001
0000
0001
1000
0000
0000
0100
0000
,
0010
0000
0001
1000
0000
0100
1000
0000
,
1100
0000
0001
1000
0000
0001
0100
0000
,
0010
0000
1000
0001
0000
0100
0001
0000
,
1000
0000
0010
0010
0000
0100
0100
0000
,
0110
0000
0000
0010
0000
1000
0010
0000
,
1000
0000
0100
0010
0000
0001
0010
0000
,
0001
1000
0000
1001
,
0000
0000
0100
0100
,
0001
0100
0001
0000
1000
0000
0010
0000
,
1000
0000
0100
0000
0010
0001
0010
0010
,
0100
1000
0100
0100
1000
0010
0100
0001
,
0010
0100
1000
0001
,
0100
0000
0001
0010
0001
0000
0010
0100
,
1000
1000
0100
0000
1000
0000
0001
0000
,
0100
0010
0110
0000
,
0010
0100
0001
1000
,
1001
0000
0101
0000
,
1000
0010
1000
0000
0100
0010
0001
1000
,
0000
0000
1000
0000
0001
0000
0000
1000
0000
0000
0100
0000
0000
0000
0000
0000
;

//--------------- dance-single - FLIPPING HARD ----------------
#NOTES:
     dance-single:
     FLIPPING HARD:
     Hard:
     8:
     0,0,0,0,0:
0000
0000
0000
0000
,
0000
0000
0000
0000
,
0000
0000
0000
0000
,
0000
0000
0000
0000
,
0100
0000
0001
0000
1000
0100
0001
0000
,
0100
0000
0010
0100
1000
0000
0001
0000
,
0100
0001
0100
0000
0001
0000
0010
0000
0100
1000
0100
0000
1000
0000
0001
0000
,
0010
0010
0001
1000
0100
0100
0100
0000
,
1100
0000
0100
0000
0010
0000
0000
0000
0001
0000
0000
0000
0100
0001
0000
0000
,
0100
0010
1000
0000
1001
0000
0101
0000
,
0001
0010
1000
0000
0010
0000
0100
0000
,
1000
0001
0100
0000
0110
0000
0000
0000
,
0001
1000
0001
0000
0001
1000
0001
0000
0001
0000
1000
0000
0010
0000
0010
0000
,
1000
0001
1000
0000
1000
0001
1000
0000
0100
0000
0000
0000
0010
0000
0001
0000
,
0011
0000
1000
0000
0010
0000
1000
0100
,
1100
0000
0010
0000
0100
0000
0001
1000
,
1001
0000
0000
1010
1000
0001
0101
0000
0000
0000
0000
0000
,
0100
0100
0001
0000
,
1000
0010
1000
0000
0101
0000
0001
0000
,
1000
0100
0010
0000
0110
0000
1000
0000
,
0101
0000
0100
0000
0001
0010
0100
0000
,
1000
0100
0001
0000
0011
0000
0000
0000
,
1000
0000
0000
0000
0000
0000
0010
0000
1000
0000
0000
0001
0000
0000
0100
0000
,
0001
0000
1010
0000
1100
0000
0000
1000
,
0001
0000
0000
0000
0000
0000
0000
0000
0101
0000
0000
0000
0000
0000
0000
0000
0010
0000
0000
0000
0000
0110
0000
0000
0000
0000
0000
0000
0100
0000
0000
0000
,
1001
0000
0000
0000
0010
0000
0010
0001
,
0100
0000
0000
0010
0100
0000
0010
0000
1000
0000
0100
0000
1000
0000
0100
0000
,
0010
0001
0100
0000
0010
0010
1000
0000
,
1001
0000
0001
0000
0010
0100
1000
0001
,
0010
0000
0000
0000
0010
0000
0001
0000
1000
0000
0100
0000
1000
0000
0000
0000
0000
0000
0100
0000
0000
0010
0000
0000
,
0110
0000
0000
0000
0010
0001
0000
0000
1000
0000
0100
0000
0100
0000
1000
0000
,
0001
0000
0000
0000
0101
0000
0000
0000
1000
0010
0000
0000
0100
0001
0000
0000
,
1000
0001
0000
0000
0010
0000
0100
0000
0010
0000
0001
0000
1000
0000
0000
0000
,
0110
0000
0000
0000
0000
0000
0100
0000
0010
0000
0000
0100
0000
0000
0001
0000
,
1000
0000
0000
0010
0000
0000
0100
0010
0100
0000
0000
0000
0001
0000
0010
0000
,
0100
0000
0010
0000
0011
0000
1000
0010
,
0010
1000
0100
0000
1100
0000
1000
0001
,
0100
0001
0010
0000
0100
0000
0010
0001
,
1000
0000
1001
0000
0110
0000
0010
0100
,
0010
0000
0100
0000
0001
0100
1000
0000
,
0100
0010
1000
0000
0101
0000
0001
0000
,
1000
0000
0100
0000
0010
0001
1000
0000
,
0001
1000
0100
0000
0010
0000
0000
0000
,
0100
0010
0001
1000
,
0010
0000
1000
0000
0100
0000
0000
0000
0010
0000
0000
0001
0000
0000
1001
0000
,
0000
1000
0100
0000
1100
0000
0010
0000
,
0011
0000
0000
0001
0100
0100
0000
0001
,
1000
0000
0010
1010
0000
0101
0000
1000
,
0100
0001
0000
0100
0100
0000
0010
0001
,
1000
0000
0010
0000
1000
0100
1000
0000
,
0001
0000
0000
1000
0001
0000
0100
0000
0001
0000
1100
0000
0000
0000
1000
0000
,
0100
0000
0000
1000
0010
0000
0100
0000
0000
0000
0100
0000
0001
0000
1000
0000
,
1010
0000
0000
0010
1000
0000
0100
0000
0010
0000
0100
0000
1000
0000
0001
0000
,
0100
0000
0000
0000
0001
1000
0001
0000
1000
0000
0100
0000
1000
0000
0001
0000
,
0100
0000
0000
0000
0001
0000
0000
0000
0100
0000
0000
0000
0001
0000
0000
0000
0000
0000
1000
0000
0000
0000
0000
0000
0100
0000
0000
0000
0000
0000
0010
0000
0000
0000
0000
0000
0001
0000
0000
1000
0000
0000
0000
0000
0000
0000
0000
0000
,
1001
0000
0000
0000
0100
0001
0001
0000
,
1000
0000
0000
0010
1000
0000
0100
1000
0100
0000
1000
0000
0001
0000
0010
0000
,
0001
0100
0100
0000
0010
1000
0010
0000
,
1000
0000
0001
0100
0001
0000
0000
0000
0011
0000
0000
0000
1010
0000
0000
0000
,
0001
1000
0001
0100
0010
0100
0010
0000
0000
1000
0000
0000
,
0101
0000
0001
0000
0010
0001
0010
0100
,
1000
0000
0100
0000
0110
0000
0010
0001
,
1000
0000
0010
0000
0100
0000
0100
0001
,
1000
0000
0000
0000
0000
0000
0010
0000
0010
0000
1000
0100
,
0001
0000
0000
0110
0000
1000
1000
0000
,
0010
0000
0000
0000
0100
0001
0100
0000
0000
0000
0001
0000
1000
0000
0000
0000
,
1001
0000
0000
0000
0000
0000
1000
0000
0000
0000
0100
0000
0000
1000
0000
0000
,
0010
0000
0001
0000
0010
0000
1000
0000
0000
0000
0100
0000
0000
0010
0000
0000
,
0100
0100
0010
0001
0000
0100
0001
0000
,
1001
0000
1000
1000
0000
0100
1000
0000
,
0010
0000
0100
0000
0001
0000
0100
0000
0000
0000
0001
0000
0000
1000
0000
0000
,
1001
0000
0100
0010
0000
0010
0100
0000
,
0001
0010
0001
1000
0000
1000
0100
0000
,
0010
0100
1000
0010
0000
0000
0100
0000
,
0101
0000
0001
1000
0000
0010
1000
0000
,
0100
0000
0010
0010
0000
0100
0010
0001
,
1000
0001
0100
0010
0000
0100
0001
0000
,
1001
0000
1000
0001
0000
0010
0100
1000
,
0010
0000
0100
0010
0000
1000
0100
0000
,
0001
1000
0001
1000
0001
1000
0000
0000
0000
1100
0000
0000
,
0000
0000
0000
0000
0000
0000
0000
0000
0001
0000
0000
0000
0100
0000
0001
1000
,
0001
0100
0010
0000
1000
0100
0010
1000
,
0010
0000
0001
0000
1000
0000
0000
0000
0001
0010
0001
0010
0001
0000
0001
0000
,
1000
0100
1000
0100
1000
0000
1000
0000
0001
0100
0001
0000
1000
0010
1000
0000
,
0100
0010
0110
0000
1000
0001
0100
0001
,
0010
0000
0100
1000
0100
0000
1000
0000
,
0001
1000
0001
0000
1000
0000
0000
1000
0010
0000
0100
0000
0001
0000
0100
0000
,
1000
0000
0100
0000
0010
0000
0000
0000
1000
0010
1000
0000
0000
0000
0100
0000
,
0010
0000
0001
0010
0100
0100
0010
0100
,
1000
0000
0000
0001
0000
0000
0100
0000
0101
0000
0000
0000
1100
0000
0000
0000
,
0010
0001
1000
0010
0100
0001
0000
0001
,
0100
0000
0010
0000
1000
0001
0000
1000
0000
0000
0220
0000
0000
0000
0000
0000
,
0000
0000
0000
0000
,
0000
0000
0000
0330
;
