#TITLE:and the day goes on;
#SUBTITLE:;
#ARTIST:Bill Wurtz;
#TITLETRANSLIT:;
#SUBTITLETRANSLIT:;
#ARTISTTRANSLIT:;
#GENRE:;
#CREDIT:;
#MUSIC:and the day goes on.mp3;
#BANNER:and the day goes on-bn.png;
#BACKGROUND:and the day goes on-bg.png;
#CDTITLE:;
#SAMPLESTART:34.080;
#SAMPLELENGTH:12.004;
#SELECTABLE:YES;
#OFFSET:-1.246;
#BPMS:0.000=116.000
,231.000=112.000
,233.000=107.000
,234.000=105.000
,235.000=95.000
,236.000=89.000
,237.000=97.000
,238.000=92.000
;
#STOPS:157.750=0.517
,177.500=1.034
;
#BGCHANGES:-2.100=and the day goes on.avi=1.000=0=0=0=StretchNoLoop==CrossFade_Fastest==,
99999.000=-nosongbg-=1.000=0=0=0=StretchNoLoop====
;
#FGCHANGES:;

//--------------- dance-single - ----------------
#NOTES:
     dance-single:
     :
     Beginner:
     1:
     0,0,0,0,0:
0000
0000
0000
0000
,
0000
0000
0000
0000
,
0000
0000
0000
0000
,
0000
0000
0000
0000
,
0001
0000
0001
0000
,
1000
0000
1000
0000
,
0100
0100
0100
0000
,
0100
0000
0000
0000
,
0010
0000
0000
0000
,
1000
0000
0010
0000
,
0001
0000
0000
0000
,
0100
0000
0000
0000
,
1000
0000
1000
0000
,
0001
0000
0001
0000
,
0010
0010
0010
0000
,
0010
0000
0110
0000
,
0001
0001
0001
0000
,
1000
0000
0001
0000
,
1000
0000
0100
0100
,
0100
0000
0000
0000
,
1000
1000
1000
0000
,
0001
0000
1000
0000
,
0001
0000
0010
0010
,
0010
0000
1001
1001
,
1001
0000
0000
0000
,
0010
0000
1000
0000
,
0100
0000
0000
0000
,
0010
0000
0001
0000
,
1001
0000
0000
0000
,
0100
0000
0010
0010
,
0010
0000
1000
0000
,
0001
0000
0000
0000
,
0001
0001
0001
0000
,
1000
0000
0001
0000
,
1000
0000
0100
0100
,
0100
0000
0000
0000
,
1000
1000
1000
0000
,
0001
0000
1000
0000
,
0001
0000
0010
0010
,
0010
0000
0000
0000
,
0000
0000
0100
0000
,
0001
0000
1000
0000
,
1001
0000
0000
0000
,
0100
0000
0100
0000
,
0000
1001
0000
0000
,
0100
0000
0000
0000
,
0001
0000
0000
0000
,
1000
0000
0000
0000
,
0100
0000
0000
0000
,
0100
0000
0100
0000
,
0010
0000
0010
0000
,
0001
0000
1000
0000
,
1001
0000
0000
0000
,
0010
0010
0010
0000
,
1000
0000
0001
0000
,
0100
0000
0100
0000
,
1001
0000
0000
0000
,
0010
0010
0010
0000
,
0001
0000
1000
0000
,
0000
0000
1001
0000
;

//--------------- dance-single - ----------------
#NOTES:
     dance-single:
     :
     Easy:
     4:
     0,0,0,0,0:
0000
0000
0000
0000
,
0000
0000
0000
0000
,
1001
0000
0001
0001
,
1000
0020
0130
0001
,
1000
1000
0100
0001
,
0010
0010
0010
1001
,
0100
0001
1000
0100
,
0020
0000
0130
0000
,
1001
1000
0010
0000
,
1001
0001
0100
0000
,
1000
0100
0001
0010
,
0200
0000
0300
0000
,
1000
0010
1000
0001
,
0010
0001
0100
1001
,
0001
0001
1000
1000
,
0020
0000
0030
0000
,
1000
0000
0100
2000
0000
0000
3010
0000
,
1000
0001
1000
0000
,
2002
3003
0010
0001
,
1000
0000
0100
0000
,
0001
0000
0100
0002
0000
0000
0013
0000
,
0001
1000
0001
0000
,
2002
3003
0010
1000
,
0001
0000
0220
0330
,
1000
0010
1000
0100
,
0001
0000
0202
0303
,
0001
0010
0100
0000
,
2200
3300
0020
0030
,
1001
0000
0010
0000
,
1000
0001
1000
1001
,
0001
0000
0100
0100
,
0020
0000
1030
0000
,
1000
0000
0100
2000
0000
0000
3010
0000
,
1000
0001
1000
0000
,
2002
3003
0010
0001
,
1000
0000
0100
0000
,
0001
0000
0100
0002
0000
0000
0013
0000
,
0001
1000
0001
0000
,
2002
3003
0010
0010
,
0100
0000
0000
0000
,
0000
0001
1000
0001
,
1000
0000
0100
0000
0220
0000
0000
0330
,
0000
0001
0010
0100
,
0010
1000
0010
0001
,
1000
0000
0000
2002
0000
0000
3003
0000
,
0001
0100
0001
0000
,
1000
0010
1000
0000
,
1000
0100
1000
0000
,
0001
0010
0001
0000
,
0100
0000
1000
0000
0100
1000
0100
0000
,
0010
0000
0001
0000
0010
0001
0010
0000
,
0001
0001
1000
1000
,
1001
0000
2002
3003
,
0001
0000
0010
0002
0000
0000
1003
0000
,
1000
0001
0010
0000
,
2002
3003
0100
0010
,
0100
0000
0010
0000
,
1000
0000
0010
2000
0000
0000
3001
0000
,
0001
1000
0010
0000
,
1001
0000
0000
0000
0010
0000
0000
0020
,
0000
0000
0030
0000
;

//--------------- dance-single - ----------------
#NOTES:
     dance-single:
     :
     Medium:
     5:
     0,0,0,0,0:
0000
0000
0000
0000
,
0000
0000
0000
0000
,
0001
1000
0001
0000
1000
0000
0100
0000
,
0110
0000
0000
0010
0100
0010
0001
0000
,
0100
0001
1000
0000
0010
0000
1000
0010
,
1000
0001
0100
0110
,
0100
0001
0010
0000
1000
0000
0010
0000
,
1100
0000
0000
0000
0001
0010
0001
0000
,
1001
0000
0010
0000
0010
0100
0010
0000
,
0100
0001
1000
0000
,
0010
1000
0100
0000
1000
0001
0010
0000
,
0110
0100
1000
0001
,
0100
0001
0100
0000
0001
1000
0100
0000
,
1000
0001
0010
0110
,
0001
0000
1000
0000
0001
1000
0010
0000
,
0101
0000
1000
0001
,
1000
0000
0000
1000
0000
0000
1000
0000
0000
0000
0000
0000
0020
0000
0000
0000
,
1030
2000
3001
0002
,
0203
0000
0000
0000
0300
0000
0000
0000
0001
0000
0000
1000
0000
0000
0001
0000
,
0000
0000
1000
0000
0010
1000
0100
0000
,
0001
0000
0000
0001
0000
0000
0001
0000
0000
0000
0000
0000
0020
0000
0000
0000
,
0031
0002
1003
2000
,
3200
0000
0000
0000
0300
0000
0000
0000
1000
0000
0000
0001
0000
0000
1000
0000
,
0000
0000
0000
0000
0000
0000
0000
0000
0010
0000
0000
0010
0000
0000
0100
0000
,
0020
0000
1030
0000
0001
1000
0100
0000
,
1000
0001
0200
0300
,
0001
0010
0001
0000
1000
0100
1000
0000
,
0010
1000
1001
0001
,
0010
0001
0010
0000
0100
0000
1000
0000
,
0010
1000
0001
0110
,
0200
0301
0020
1030
,
0220
0000
0330
0000
0001
1000
0001
0000
,
1000
0000
0000
1000
0000
0000
1000
0000
0000
0000
0000
0000
0020
0000
0000
0000
,
1030
2000
3001
0002
,
0203
0000
0000
0000
0300
0000
0000
0000
0001
0000
0000
1000
0000
0000
0001
0000
,
0000
0000
1000
0000
0010
1000
0100
0000
,
0001
0000
0000
0001
0000
0000
0001
0000
0000
0000
0000
0000
0020
0000
0000
0000
,
0031
0002
1003
2000
,
3200
0300
0010
0001
,
1000
0000
0020
0000
0000
0030
0000
2002
,
0000
3003
0001
0000
0001
0000
1000
0000
,
1000
0000
0100
1000
0001
0000
0000
0220
,
0000
0330
1000
0000
0100
0000
1000
0010
,
0001
0101
0001
1100
,
1000
0000
0001
0020
0000
0000
0000
0000
,
0130
0000
1000
0000
0100
1000
0010
0000
,
0100
0000
0001
0000
0100
0001
0010
0000
,
0001
0001
1000
1000
,
1001
0100
1001
0010
,
0100
0000
1000
0000
0100
1000
0100
0000
,
0010
0000
0001
0000
0010
0001
0010
0000
,
0001
0001
1000
1000
,
1001
0000
0000
0000
0000
0000
0000
0000
0010
0000
0000
0010
0000
0000
0010
0000
,
1000
0100
1000
0100
1000
0000
0020
0000
,
1030
0200
0310
0001
,
1001
0000
0000
0000
0010
0001
1000
0010
,
0000
0100
1001
0000
,
0001
0100
0001
0100
0001
0000
0020
0000
,
0031
0200
0310
1010
,
0011
0000
0000
0000
0000
0000
0000
0000
0100
0000
0000
0100
0000
0000
0002
0000
,
0000
0000
0003
0000
;

//--------------- dance-single - ----------------
#NOTES:
     dance-single:
     :
     Hard:
     7:
     0,0,0,0,0:
0000
0000
0000
0000
,
0000
0000
0000
0000
,
0001
0000
0010
0000
0001
0000
1000
0000
0010
0000
0100
0000
0010
1000
0000
0000
,
0101
0000
0000
0000
0000
0000
0100
0001
0100
0000
0001
1000
0000
0001
1000
0000
,
0100
0000
1000
0000
0100
0000
0010
1000
0000
0000
0010
0000
0001
0000
0010
0000
,
0001
1000
0001
0000
1100
0000
0011
0000
,
0100
0000
0001
0000
0010
0000
0001
0000
1000
0010
1000
0000
0010
0000
0000
0000
,
0100
0000
0001
1000
0000
0100
0000
0000
0020
0000
0000
0100
0000
0000
0130
0000
,
1000
0000
0010
0000
0100
0010
0000
0000
0100
0000
0001
0000
0101
0000
0000
0000
,
0010
0001
1000
0100
0010
0000
0100
0000
,
1000
0000
0010
0000
1000
0000
0001
0010
0000
0000
0001
0000
0001
0000
0100
0000
,
0110
0000
0000
0000
0001
0010
0000
0000
2000
0000
0000
0100
0000
0000
3100
0000
,
1000
0000
0000
0010
0000
0000
0100
0000
0001
0000
1000
0000
0001
0000
0001
0000
,
0100
0000
0001
0000
0010
0001
0000
0000
1000
0000
0000
0000
1001
0000
0000
0000
,
0010
0001
0010
0100
0100
1000
0001
0000
,
0100
0000
0000
0001
0000
1000
0100
0000
0010
0000
0000
0110
0000
0000
0001
0000
,
0001
0000
0000
1000
0000
0000
0100
0000
1000
0000
0000
0000
1010
0000
0000
0000
,
1001
0011
1001
0200
,
0301
0000
0000
0000
0010
0000
0100
0000
0010
0000
0000
0100
0000
0000
2000
0000
,
0000
0000
0000
0000
3001
0000
0010
0000
0101
0000
0000
0001
0000
0000
1000
0000
,
0010
0000
0000
0100
0000
0000
0010
0000
1000
0000
0000
0000
0110
0000
0000
0000
,
0001
0110
1000
0020
,
0130
0000
0001
0000
0100
0000
0001
0000
1000
0000
0000
0100
0000
0000
2200
0000
,
0000
0000
0000
0000
3300
0000
0000
0000
0010
0000
0001
1000
0000
0001
1000
0001
,
0100
0000
0010
0000
1000
0000
0010
1000
0000
0000
0001
0000
1000
0000
0100
0000
,
0010
0001
1000
0000
0110
0000
0100
0000
,
0001
0000
0010
0001
0000
0000
0001
0000
1000
0000
0100
0000
1000
0000
0000
0000
,
1010
0000
0000
0100
0000
0000
0001
0000
1000
0000
0000
0001
0000
0000
0010
0000
,
0100
0100
1000
0001
0010
0001
1000
0010
,
0100
0000
0000
0001
0000
0000
1000
0000
0100
0000
0000
0000
0110
0000
0000
0000
,
1000
0010
0001
1000
0100
0010
0110
0000
,
2010
0000
0000
0001
0000
0000
3001
0000
0002
0000
0000
0000
0103
0000
0001
0000
,
0001
0000
0000
1000
0000
0000
0100
0000
1000
0000
0000
0000
1010
0000
0000
0000
,
1001
0011
1001
0200
,
0301
0000
0000
0000
0010
0000
0100
0000
0010
0000
0000
0100
0000
0000
2000
0000
,
0000
0000
0000
0000
3001
0000
0010
0000
0101
0000
0000
0001
0000
0000
1000
0000
,
0010
0000
0000
0100
0000
0000
0010
0000
1000
0000
0000
0000
0110
0000
0000
0000
,
0001
0000
0000
0000
0110
0000
0000
0000
1001
0000
0000
1000
0000
0000
0010
0000
,
0000
0000
0100
0001
0010
0001
1000
1000
,
0010
0000
0100
0000
0001
0000
1000
0000
0001
0000
0000
0001
0000
0000
0201
0000
,
0000
0000
0310
1000
0010
1000
0100
0010
,
0100
0000
1000
0000
0001
0000
0000
0000
1000
0000
0000
1000
0000
0000
1020
0000
,
0000
0000
0130
0001
0100
0010
0100
0001
,
1000
0100
0110
0000
1000
0010
0000
0001
,
1000
0001
0010
0200
0000
0000
0000
0000
,
0310
0001
1000
0010
0100
0100
0001
0000
,
1000
0000
0000
0001
0000
1000
0000
0000
0011
0000
0000
0000
0100
0000
0000
0000
,
0001
0010
0000
0000
0001
0000
0000
0000
1000
0100
0000
0000
1000
0000
0000
0000
,
0010
0000
0000
0010
0000
0000
0100
0000
0101
0000
0000
0001
0000
0000
1000
0000
,
0100
0000
1000
0000
0100
1000
0100
0000
,
0010
0000
0001
0000
0010
0001
0010
0000
,
0001
0001
1000
1000
,
1001
0000
0000
0000
0000
0000
0000
0000
0010
0000
0000
0100
0000
0000
0010
0000
,
1000
0000
0000
0001
0000
0000
0010
0000
0001
0010
0000
0000
0002
0000
0000
0000
,
1003
0010
0000
0000
2000
0000
0000
0000
3100
0000
0000
0000
0010
0000
0001
0000
,
1000
0000
0010
0000
0100
0000
0100
0001
,
0000
0010
0010
0100
0100
1000
0001
1000
,
0001
0000
0000
0100
0000
0000
0010
0000
1010
0000
0000
0000
2000
0000
0000
0000
,
3001
0000
0002
0000
0013
0000
0100
1000
,
0001
0000
0000
0000
0010
0000
0000
0000
0011
0000
0000
1100
0000
0000
0220
0000
,
0000
0000
0330
0000
;

//--------------- dance-solo - ----------------
#NOTES:
     dance-solo:
     :
     Easy:
     2:
     0,0,0,0,0:
000000
000000
000000
000000
,
000000
000000
000000
000000
,
000000
000000
000000
000000
,
000000
000000
000000
000000
,
000001
000000
100000
000000
,
000100
000000
001000
001000
,
001000
000000
000100
000000
,
000010
000000
010000
000000
,
000001
000000
000001
000000
,
000010
000000
000010
000000
,
100000
000000
100000
000000
,
001000
000000
001000
000000
,
010000
000000
010000
000000
,
000100
000000
000100
000100
,
000100
000000
001000
000000
,
010010
000000
000000
000000
,
000001
000000
000000
000010
,
000010
000000
000010
000000
,
000010
000000
100000
000000
,
000001
000000
000000
000000
,
100000
000000
000000
010000
,
010000
000000
010000
000000
,
010000
000000
001000
000000
,
000100
000000
000010
000000
,
010000
000000
000000
000000
,
000001
000000
000100
000000
,
000001
000000
000000
000000
,
100000
000000
001000
000000
,
100000
000000
000100
000000
,
000010
000000
010000
010000
,
010000
000000
000010
000000
,
000010
000000
001000
000000
,
000100
000000
000000
000001
,
000001
000000
000001
000000
,
000001
000000
001000
000000
,
100001
000000
000000
000000
,
000100
000000
000000
100000
,
100000
000000
100000
000000
,
100000
000000
100001
000000
,
000000
000000
000000
000000
,
001000
000000
000100
000000
,
001000
000000
000001
000000
,
100000
000000
100000
000000
,
000000
010010
000000
000000
,
000000
000100
000000
000000
,
001000
000000
000000
000000
,
000001
000000
100000
000000
,
010000
000000
000010
000000
,
000100
000000
000000
000000
,
001000
000000
001000
000000
,
000100
000000
000100
000000
,
000001
000000
100000
000000
,
100001
000000
000000
000000
,
000100
000000
000000
001000
,
001000
000000
001000
000000
,
001000
000000
000010
000000
,
010000
000000
000000
000000
,
100001
000000
000000
000000
,
000001
000000
100000
000000
,
000000
000000
100001
000000
;
