#TITLE:Winter Wonderland;
#SUBTITLE:(From Thomas and Friends);
#ARTIST:Mike O'Donnell and Junior Campbell;
#TITLETRANSLIT:;
#SUBTITLETRANSLIT:;
#ARTISTTRANSLIT:;
#GENRE:;
#CREDIT:;
#MUSIC:Winter Wonderland (from Thomas and Friends).ogg;
#BANNER:;
#BACKGROUND:;
#CDTITLE:;
#SAMPLESTART:31.43;
#SAMPLELENGTH:15;
#SELECTABLE:YES;
#OFFSET:-0.660;
#BPMS:0.000=115.000;
#STOPS:;
#BGCHANGES:;
#FGCHANGES:;

//--------------- dance-single - ----------------
#NOTES:
     dance-single:
     :
     Beginner:
     1:
     0,0,0,0,0:
0000
0000
0000
0000
,
0000
0000
0000
0000
,
0000
0000
0000
0000
,
0000
0000
0000
0000
,
1000
0000
2000
0000
,
0000
0000
3000
0000
,
0001
0000
0002
0000
,
0000
0000
0003
0000
,
0100
0000
0000
0000
,
0010
0010
0010
0000
,
0100
0000
0000
0000
,
0010
0000
0100
0000
,
0010
0000
0000
0000
,
0020
0000
0000
0000
,
0030
0000
0000
0000
,
0001
0000
0002
0000
,
0000
0000
0003
0000
,
1000
0000
2000
0000
,
0000
0000
3000
0000
,
0010
0000
0000
0000
,
0100
0100
0100
0000
,
0010
0000
0000
0000
,
0100
0000
0010
0000
,
0100
0000
0000
0000
,
0200
0000
0000
0000
,
0300
0000
0000
0000
,
0001
0000
0000
0000
,
2000
0000
3000
0000
,
1000
0000
0000
0000
,
0002
0000
0003
0000
,
0010
0000
0010
0000
,
0010
0000
0000
0000
,
0100
0000
0100
0000
,
0100
0000
0000
0000
,
0020
0000
0030
0000
,
0010
0000
1000
0000
,
0020
0000
0030
0000
,
0010
0000
0001
0000
,
0100
0000
0100
0000
,
0200
0000
0300
0000
,
0100
0000
0000
0000
,
0020
0000
0000
0000
,
0000
0000
0030
0000
,
0010
0000
0020
0000
,
0000
0000
0030
0000
,
0100
0000
0200
0000
,
0000
0000
0300
0000
,
0001
0000
1000
0000
,
0010
0000
0010
0000
,
1000
0000
0001
0000
,
0100
0000
0100
0000
,
0000
0000
0001
0000
,
0002
0000
0000
0000
,
0003
0000
1000
0000
,
2000
0000
0000
0000
,
3000
0000
0010
0000
,
0020
0000
0000
0000
,
0000
0000
0000
0000
,
0030
0000
0010
0000
,
0020
0000
0000
0000
,
0030
0000
0000
0000
;

//--------------- dance-single - ----------------
#NOTES:
     dance-single:
     :
     Easy:
     3:
     0,0,0,0,0:
0000
0000
0000
0000
,
0000
0000
0000
0000
,
0000
0000
0000
0000
,
0000
0000
0000
0000
,
1000
0000
2000
0000
,
0100
0000
3100
0000
,
0010
0001
0002
0000
,
1000
0000
0103
0000
,
0010
0000
1000
0000
,
0001
1000
0001
0000
,
0010
0000
0100
0000
,
0020
0000
0031
0000
,
0200
0000
1300
0000
,
0020
0000
0000
0030
,
0100
0010
0100
0000
,
0001
0000
2000
0000
,
0010
0000
3001
0010
,
0001
0100
0002
0000
,
1000
0000
0103
0000
,
0010
0000
0100
0000
,
1000
0001
1000
0000
,
0010
0010
0010
0000
,
0100
0010
0100
0000
,
0001
0000
0010
0000
,
2000
0000
0100
0000
,
0002
0000
3003
0000
,
0010
1000
0010
0000
,
0100
0000
0000
0001
,
0010
0001
0010
0000
,
1000
0000
0000
0000
,
0010
1000
0010
1000
,
0100
0000
0100
0000
,
0010
0001
0010
0001
,
0100
0000
0100
0000
,
0001
0000
0010
0000
,
0001
0100
0010
0000
,
1000
0000
0010
0000
,
1000
0100
0010
0000
,
0002
0000
0103
0010
,
2000
0000
3100
0010
,
0010
0000
0100
0000
,
0020
0000
0000
0000
,
0000
0000
0030
0000
,
0001
0100
0002
0000
,
0013
0000
0100
0000
,
1000
0010
2000
0000
,
3001
0000
0010
0000
,
0100
0010
0100
0000
,
0001
0001
1000
1000
,
0010
1000
0001
0000
,
0010
0001
1000
0000
,
0010
0000
0100
0000
,
0020
0000
0000
0030
,
1000
0001
1000
0001
,
0200
0000
0000
0300
,
0001
1000
0001
1000
,
0002
0000
0003
0000
,
2000
0000
3000
0000
,
0200
0000
0300
0000
,
0010
0010
0020
0000
,
0000
0030
0000
0000
;

//--------------- dance-single - ----------------
#NOTES:
     dance-single:
     :
     Medium:
     4:
     0,0,0,0,0:
0000
0000
0000
0000
,
0000
0000
0000
0000
,
0000
0000
0000
0000
,
0000
0000
0000
0000
,
0001
0001
0010
0000
0002
0000
0003
0000
,
0100
0010
1000
0100
,
1000
1000
0010
0000
2000
0000
3000
0000
,
0010
0100
0001
0010
,
0001
0001
1000
1000
,
0010
0010
0010
0100
0020
0000
0030
0000
,
1000
0100
0001
0100
,
0010
1000
0100
0000
1000
0001
0010
0000
,
0001
0100
0010
1000
,
0220
0330
0001
0000
,
0102
0013
2100
3001
,
0010
0001
0010
0000
0001
0000
0100
0000
,
0010
1000
0100
0100
,
1000
0010
1000
0000
0001
0000
0001
0000
,
0010
0100
0010
0001
,
0010
1000
0100
0010
,
0001
1000
0001
1000
0020
0000
0030
0000
,
0002
0100
2003
0000
,
3010
0100
0010
0000
1000
0100
1000
0000
,
0001
0100
0001
0000
1000
0000
0001
0000
,
1002
0000
0013
0100
,
2000
0000
3001
0000
,
1000
0000
1000
0100
0010
0000
0100
0000
,
2000
0001
3010
0100
,
0001
0000
0010
0000
0001
0100
0010
0000
,
0020
0130
0001
0000
,
0011
0101
0011
0000
,
1000
0010
0100
0000
0010
0000
0000
0000
,
1000
0100
0010
0000
0100
0000
1000
0000
,
0001
0100
0010
0000
0020
0000
0030
0000
,
1000
0100
1100
0000
,
0010
0001
0010
0000
0002
0000
0003
0000
,
0100
0001
0011
0000
,
0100
0010
0100
0000
0010
0000
0100
0000
,
0001
0010
0000
0100
1000
0000
0100
0000
,
0020
0001
0100
0030
,
0100
1000
0010
0100
,
0020
0000
0000
0030
,
0100
0001
0010
1000
,
0001
0010
0001
0000
2000
0000
0000
0000
,
3100
0110
0010
0010
,
0001
1000
0010
0000
0002
0000
0000
0000
,
0103
1001
0010
0100
,
0001
0001
1000
1000
,
0001
1000
0100
0010
0200
0000
0300
0000
,
1000
0010
0001
0010
,
0100
0001
1000
0000
0100
0000
0100
0000
,
0010
0000
0100
0010
0100
0000
0010
0000
,
0020
0000
0031
0010
,
0100
0010
0001
1000
,
0020
0000
1030
0100
,
0010
0010
0100
0100
,
0200
0000
1300
0001
,
0200
0000
0301
0010
,
0011
0000
1100
0000
,
0010
0100
0020
0000
,
0000
0000
0000
0000
,
0000
0000
0000
0030
;

//--------------- dance-single - ----------------
#NOTES:
     dance-single:
     :
     Hard:
     7:
     0,0,0,0,0:
0000
0000
0000
0000
,
0000
0000
0000
0000
,
0000
0000
0000
0000
,
0000
0000
0000
0000
,
0001
0010
1000
0000
0020
0000
0000
0000
,
0001
0000
0100
0000
0031
0000
1000
0010
,
0100
0000
0001
1000
0200
0000
0000
0000
,
0001
1000
0310
0100
,
1000
0001
0010
0000
0001
0000
0100
0000
,
0001
0010
0001
0010
0001
0000
0010
0000
0200
0000
0000
0000
0300
0000
0000
0000
,
1000
0010
0100
0000
0001
0100
1000
0000
,
0100
0010
0010
1000
0001
0010
0100
0000
,
1000
0000
0001
0000
0010
0000
0001
0000
0100
0000
0010
0000
1000
0000
0000
1000
,
0002
0000
0013
0001
0200
0000
0301
1000
,
0020
0000
2030
0000
3001
0000
0010
0001
,
0100
0000
0100
0010
2000
0000
0100
0000
,
3001
0010
0100
0000
0010
0100
1000
0100
,
0010
0001
1000
0000
0020
0000
1030
0000
,
0001
0100
0010
0000
1000
0100
0010
0000
,
0001
0010
1000
0100
,
1000
0010
1000
0010
1000
0000
0001
0000
0020
0000
0000
0000
0130
0000
0000
0000
,
0001
0010
0001
0000
0100
0000
0010
0000
0200
0000
0000
0000
0310
0000
0000
0000
,
1000
0100
1000
0010
0100
0100
0001
0000
,
1000
0000
1000
0000
0010
0000
0000
0000
0100
0000
0001
0000
0010
0000
0000
0100
,
0020
0000
0130
1000
0020
0000
0130
0001
,
0200
0310
1001
0000
,
1000
0000
0010
0000
0010
0000
0100
0000
0001
0000
0000
0001
0010
0000
0001
0000
,
2000
0000
3100
0000
0101
0000
0010
0001
,
0010
0000
0000
0000
0100
0000
1000
0000
0001
0000
0010
0000
0100
0000
0000
0010
,
0200
0000
1300
0000
0110
0000
0001
0010
,
0100
0100
0010
0000
0100
1000
0010
0000
,
0100
0001
1000
0100
0020
0000
0130
1000
,
0002
0010
0010
0000
0203
0000
0010
0000
,
1300
0100
0001
0010
0200
0000
0300
0000
,
1000
0011
1100
0001
,
0010
0000
0001
0010
0001
0000
1000
0000
0200
0000
0000
0000
0310
0000
0000
0000
,
0100
1000
0020
0000
0230
0000
0301
1000
,
0100
0100
0020
0000
0230
0000
1300
0001
,
2000
0000
3010
0100
0002
0000
0013
0000
,
0010
0001
0100
0010
1000
0100
1000
0100
,
1000
0010
0010
0100
0001
0010
1100
0000
,
0002
0000
0010
0000
0013
0100
2000
0000
,
3010
0000
0100
0000
0001
0000
0011
0000
0000
0000
1100
0000
1000
0000
0000
0010
,
0100
0001
0010
0001
2000
0000
0010
0000
,
3100
0000
0010
0000
0100
0000
1000
0000
0010
0000
0000
0010
0100
0000
0000
0100
,
0001
1000
0010
0100
1000
0100
0001
0000
,
1000
0010
1000
0000
0100
0000
0010
0000
0001
0010
0001
0000
0100
0000
0000
0000
,
0011
1010
0110
1001
,
0001
0100
0001
0000
1000
0100
1000
0000
0020
0000
0000
0000
0130
0000
0000
0000
,
0001
0010
0100
0010
0100
1000
0001
0000
,
1000
0000
0010
1000
0010
0000
0100
0000
1000
0000
0100
0000
0001
0000
0000
0000
,
0010
0001
1000
0000
0100
0100
1000
0001
,
0020
0000
0001
0000
0130
0010
0100
1000
,
0010
0000
0100
0000
0001
0010
0100
0010
,
0200
0000
1000
0000
0301
0100
1000
0000
,
0010
1000
0100
0010
0100
0100
0010
0000
,
0002
0010
2003
0100
,
3010
0100
0010
1000
0100
0010
0100
1000
,
0011
0000
0010
0100
1100
0000
1000
0001
,
0101
1010
2002
0000
,
0000
0000
0000
0000
,
0000
0000
0000
0000
,
0000
0000
0000
3003
;

//--------------- dance-double - ----------------
#NOTES:
     dance-double:
     :
     Easy:
     4:
     0,0,0,0,0:
00000000
00000000
00000000
00000000
,
00000000
00000000
00000000
00000000
,
00000000
00000000
00000000
00000000
,
00000000
00000000
00000000
00000000
,
00010000
00000000
00020000
00000000
,
00000100
00000000
00030100
00000000
,
00000010
00000100
00002000
00000000
,
00000001
00000000
00003100
00000000
,
00000010
00000000
00001000
00000000
,
00010000
00001000
00010000
00000000
,
00100000
00000000
01000000
00000000
,
00020000
00000000
00130000
00000000
,
00002000
00000000
01003000
00000000
,
00020000
00000000
00000000
00030000
,
00000100
00000010
00000100
00000000
,
00010000
00000000
00002000
00000000
,
00100000
00000000
01003000
00010000
,
00100000
00001000
00020000
00000000
,
00000100
00000000
00030010
00000000
,
00001000
00000000
00000001
00000000
,
00000100
00000010
00000100
00000000
,
00001000
00010000
00001000
00000000
,
01000000
00100000
01000000
00000000
,
00010000
00100000
00001000
00010000
,
00000200
00000000
00020300
00000000
,
00002000
00000000
00033000
00000000
,
00100000
00001000
00010000
00000100
,
00000020
00000000
00000030
00000100
,
00001000
00010000
01000000
00100000
,
02000000
00000000
03000000
00000000
,
00100000
10000000
00100000
00010000
,
00001000
00010000
00011000
00000000
,
00000100
00000001
00000100
00001000
,
00010000
01000000
01100000
00000000
,
00010000
00001000
00100000
00000000
,
00001000
00010000
00000100
00000000
,
00001000
00000001
00001000
00000000
,
00000100
00000000
00000010
00000000
,
00000200
00000300
00020000
00030000
,
00002000
00000000
01003000
00100000
,
10000000
00010000
01000000
00000000
,
00200000
00000000
00000000
00000000
,
00000000
00000000
00300000
00000000
,
00010000
00001000
00000200
00000000
,
00000301
00001000
00000100
00000000
,
00010000
00001000
02000000
00000000
,
03100000
10000000
00010000
00000000
,
00100000
00001000
00010000
00000000
,
00010100
01001000
00011000
00000000
,
00000100
00001000
00000001
00000010
,
00000200
00000300
00010000
00001000
,
02000000
03000000
00100000
00000000
,
00020000
00000000
00000000
00030000
,
00100000
00001000
01000000
00100000
,
20000000
00000000
00000000
30000000
,
00010000
00100000
00001000
00010000
,
00002000
00000000
00003000
00100000
,
00020000
00000000
00030000
02000000
,
03001000
00010000
00000100
00000000
,
00010000
00001000
00022000
00000000
,
00000000
00000000
00033000
00000000
;
