#TITLE:Winter Serenade;
#SUBTITLE:(Demo 2);
#ARTIST:Yamaha;
#TITLETRANSLIT:;
#SUBTITLETRANSLIT:;
#ARTISTTRANSLIT:;
#GENRE:Ballad;
#CREDIT:8Chasey 2025;
#MUSIC:Winter Serenade (Demo 2).ogg;
#BANNER:;
#BACKGROUND:;
#CDTITLE:;
#SAMPLESTART:74.970;
#SAMPLELENGTH:12.000;
#SELECTABLE:YES;
#OFFSET:-1.876;
#BPMS:0.000=69.000
,83.000=65.000
,84.000=69.000
,148.000=68.000
,156.000=70.000
,160.000=66.000
,162.000=60.000
,163.000=46.000
,164.000=53.000
,165.000=45.000
;
#STOPS:;
#DISPLAYBPM:45.000:70.000;
#BGCHANGES:;
#FGCHANGES:;

//--------------- dance-single - 8Chasey ----------------
#NOTES:
     dance-single:
     8Chasey:
     Beginner:
     1:
     0,0,0,0,0:
0000
0000
0000
0000
,
0000
0000
0000
0000
,
0000
0000
0000
0000
,
0000
0000
0000
0000
,
0000
0000
0000
0000
,
0000
0000
0000
0000
,
0000
0000
0000
0000
,
0000
0000
0001
0000
,
0000
0000
0001
0000
,
0000
0000
1000
0000
,
0000
0000
1000
0000
,
0000
0000
0001
0000
,
0000
0000
1000
0000
,
0000
0000
0001
0000
,
0000
0000
1000
0000
,
0000
0000
0000
0000
,
0000
0000
0100
0000
,
0000
0000
0100
0000
,
0000
0000
0001
0000
,
0000
0000
1000
0000
,
0000
0010
0000
0000
,
0010
0000
0000
0000
,
1000
0000
0000
0000
,
0010
0000
0000
0000
,
0001
0000
0000
0000
,
0010
0000
0000
0000
,
0100
0000
0000
0000
,
0010
0000
0000
0000
,
0000
0000
0000
0000
,
0100
0000
0000
0000
,
0001
0000
0000
0000
,
0100
0000
0000
0000
,
1000
0000
0000
0000
,
0100
0000
0000
0000
,
0010
0000
0000
0000
,
0100
0000
0000
0000
,
0000
0000
0000
0000
,
0001
0000
0000
0000
,
0000
0000
0000
0000
,
1000
0000
0000
0000
,
0000
0000
0000
0000
,
0010
0000
0000
0000
;

//--------------- dance-single - 8Chasey ----------------
#NOTES:
     dance-single:
     8Chasey:
     Easy:
     1:
     0,0,0,0,0:
0000
0000
0000
0000
,
0000
0000
0000
0000
,
0000
0000
0000
0000
,
0000
0000
0001
0000
,
0000
0000
1000
0000
,
0001
0000
2000
0000
,
0000
0000
3000
0000
,
0000
0000
0100
0010
,
0000
0000
0010
0100
,
0010
0000
0001
1000
,
0000
0000
1000
0001
,
0000
0000
0010
0100
,
0000
0000
0100
0010
,
0100
0000
1000
1000
,
0000
0001
0001
0000
,
0000
0000
0100
0000
,
0010
0000
1000
0000
,
0100
0000
1000
0000
,
0001
0000
0100
0000
,
0001
0000
1000
0001
,
1000
0001
0000
0000
,
0100
0000
0010
1000
,
1000
0000
0000
0000
,
0100
0000
0010
0001
,
0001
0000
0100
0010
,
0100
0000
0010
0000
,
0100
0000
0001
1000
,
0001
0000
1000
0001
,
1000
0000
0010
0010
,
0100
0000
0001
0100
,
0001
0000
0010
0000
,
0100
0000
1000
0100
,
1000
0000
0001
0000
,
1000
0000
0010
0000
,
1000
0000
0001
0000
,
0010
0000
0001
0000
,
0100
0000
0000
0000
,
0002
0000
0003
0000
,
2000
0000
3000
0000
,
0020
0000
0030
0000
,
0200
0000
0300
0000
,
0020
0000
0000
0030
;

//--------------- dance-single - 8Chasey ----------------
#NOTES:
     dance-single:
     8Chasey:
     Medium:
     3:
     0,0,0,0,0:
0000
0000
0000
0000
,
0000
0000
1000
0001
,
2000
3000
0100
0100
,
0010
0010
0200
0000
,
1300
0001
0020
0000
,
0130
0010
0001
0100
,
0000
0100
1000
0100
,
0000
0000
0100
0010
0100
0000
1000
0000
,
0000
0001
0100
0001
,
0000
1000
0010
0100
,
0000
0100
0010
0200
,
0000
0000
0310
0100
0010
0000
1000
0000
,
0100
0000
1000
0001
1000
0000
0001
0000
,
0100
0000
0001
0010
0002
0000
2003
0000
,
3000
0000
0001
0000
1000
0100
1000
0000
,
0001
0200
0310
0020
,
0130
0100
0001
0100
,
0000
0001
1000
0100
,
0000
1000
0010
0100
,
0000
0010
1000
0001
,
1000
0020
0000
0030
,
1000
0000
0001
0000
1000
0000
0000
0001
,
0002
0000
0103
0001
,
0010
0000
0010
0000
0001
0000
0000
1000
,
2000
0000
3010
0100
,
0010
0000
0010
0000
1000
0000
0000
0100
,
0200
0300
0010
0100
,
0020
0030
0001
1000
,
0010
0000
1000
0001
1000
0000
0100
0000
,
0010
0000
0001
0000
0010
0000
0000
0001
,
0002
0000
0003
0100
,
0001
0000
1000
0000
0001
0000
0000
1000
,
2000
3000
0100
0010
,
0100
0000
1000
0000
0001
0001
0000
1000
,
1000
0001
0100
0010
,
1000
0001
0200
0000
,
0320
0030
0010
0000
,
1000
0100
2000
0000
,
3002
0000
0103
0000
,
0020
0030
0200
0300
,
0002
0003
2000
3000
,
0020
0200
0000
0000
,
0000
0330
0000
0000
;

//--------------- dance-single - 8Chasey ----------------
#NOTES:
     dance-single:
     8Chasey:
     Hard:
     5:
     0,0,0,0,0:
0000
0000
0000
0000
,
0000
0000
0001
1000
,
0020
0000
0000
1000
1030
0000
0100
0000
,
0010
0001
0200
0000
,
0300
0001
0001
1000
0000
0001
0010
0001
,
1000
0000
0100
1000
0100
0000
0100
0000
,
1000
1000
0001
0001
,
1000
0000
0000
0000
0010
0000
1000
0001
1000
0000
0000
0001
0100
0000
0000
0000
,
0001
0000
0000
0000
0010
0000
0010
0000
0001
0000
0000
1000
0100
0000
0000
0000
,
1000
0000
0001
0100
0001
0000
0010
0000
,
0001
0000
1000
0100
0010
0000
0210
0000
,
0000
0000
0000
0000
0310
0000
0100
0010
0100
0000
0000
1000
0100
0000
0000
0000
,
1000
0000
0000
0000
0010
0000
1000
0100
1000
0000
0000
0001
0100
0000
0001
0000
,
0000
1000
0001
1000
0010
0010
0200
0000
,
0310
0000
1001
1000
0001
0010
0001
1000
,
0100
1000
0001
0002
0000
0100
1000
2000
,
0000
0000
3003
1000
0001
0010
0001
1000
,
0000
0100
1000
0100
1000
0010
1000
0001
,
0000
0100
0001
0100
0100
0010
0010
0100
,
0000
0001
1000
0001
1000
0000
0110
0000
,
0001
2002
0000
3003
,
1001
0000
0001
0000
0020
0000
0130
0100
,
2000
0000
0100
0000
3001
0000
0010
0100
,
0110
0000
0100
0100
0020
0000
0031
1000
,
0002
0000
0000
0000
2003
0000
0000
0000
3100
0000
0000
0000
0010
0000
0000
0001
,
0010
0000
0001
0000
2000
0000
0000
0100
,
3100
0000
1000
0000
0010
0100
0010
0000
,
0200
0000
0000
0010
0320
0000
0000
0100
,
0130
0000
0000
0000
0001
0100
0001
0000
1000
0000
0010
0000
1000
0000
0100
0000
,
0110
0000
0010
0001
0020
0000
0031
0100
,
0002
0000
0100
0000
1003
0000
0010
0100
,
0110
0000
0001
0100
0001
0000
1000
0100
,
0200
0000
0000
0000
0320
0000
0000
0000
0031
0000
0000
0000
1000
0001
1000
0000
,
0001
0000
0100
0001
0100
0200
0000
0310
,
0020
0000
1030
0000
0100
1000
0100
1000
,
0001
0100
0100
0001
0200
0000
0310
0010
,
2000
0000
0000
0001
0002
0000
3003
0000
,
0001
0010
0001
0000
0020
0000
0130
0000
,
1000
0100
0010
0001
0200
0000
0310
0000
,
2000
3000
0202
0303
,
2020
3030
0002
0103
,
0020
0200
0000
0000
,
0000
0330
0000
0000
;
