#TITLE:Windows XP Error Sound REMIX;
#SUBTITLE:;
#ARTIST:Unknown Memer;
#TITLETRANSLIT:;
#SUBTITLETRANSLIT:;
#ARTISTTRANSLIT:;
#GENRE:;
#CREDIT:;
#MUSIC:Windows XP Error Sound Remix.ogg;
#BANNER:;
#BACKGROUND:;
#CDTITLE:;
#SAMPLESTART:29.62;
#SAMPLELENGTH:12.000;
#SELECTABLE:YES;
#OFFSET:-5.120;
#BPMS:0.000=100.000
,22.000=80.000
,23.000=99.800
,39.000=64.000
,40.000=100.000
,72.000=100.160
,84.000=100.000
,100.000=99.500
,104.000=99.800
,123.000=99.600
,124.000=100.000
;
#STOPS:;
#DISPLAYBPM:100;
#BGCHANGES:;
#FGCHANGES:;

//--------------- dance-single - ----------------
#NOTES:
     dance-single:
     :
     Beginner:
     1:
     0,0,0,0,0:
0000
0000
0000
0000
,
0000
0000
0000
0000
,
0001
0000
0001
0001
,
0001
0000
0001
0001
,
0001
0000
0001
0001
,
0001
0000
1000
1000
,
0000
0001
0000
1000
,
0000
1000
0000
0001
,
0000
1000
0000
0001
,
0000
0001
0000
1001
,
1001
0000
0000
0001
,
0001
0000
0000
1000
,
1000
0000
0000
0001
,
0001
0000
0000
1000
,
1000
0000
0001
0000
,
0001
0000
1000
0000
,
1000
0000
0001
0000
,
0001
0000
1000
0000
,
1000
0000
1001
0000
,
0000
0000
0001
0000
,
0000
0000
1000
0000
,
0001
0000
0000
1000
,
1000
0000
0000
0001
,
0001
0000
0000
0000
,
1000
0000
0001
0000
,
1000
0000
0001
0000
,
1001
0000
0000
0000
,
0001
0000
0000
0000
,
1000
0000
1000
0000
,
0001
0000
1000
0000
,
1001
0000
1001
0000
,
1001
0000
0000
0000
,
0001
0000
0000
0000
,
1000
0000
0000
0000
,
1001
0000
0000
0000
,
0010
0000
0000
0000
;

//--------------- dance-single - ----------------
#NOTES:
     dance-single:
     :
     Easy:
     4:
     0,0,0,0,0:
0000
0000
0000
0000
,
0000
0000
0000
0000
,
0001
1000
0001
0001
,
1000
0001
1000
1000
,
0001
0100
0010
1000
,
0100
0010
1001
0002
,
0003
0001
0001
2000
,
3000
1000
1000
0020
,
0030
0100
0010
1000
,
0100
0001
0100
0010
,
0001
1000
0010
1001
,
1000
0001
0010
0110
,
0100
1000
0001
0101
,
0100
0001
1000
1100
,
0010
1000
0100
0100
,
0010
0001
0100
0100
,
0001
0010
0100
1010
,
1000
0010
0100
0011
,
2000
0000
3001
0001
,
0002
0000
1003
1000
,
0200
0000
0310
0010
,
0001
0000
0001
1000
,
0100
0000
1000
0001
,
0010
0000
1000
0001
,
1000
0000
0001
1000
,
0100
0010
0200
0000
,
0320
0030
0001
1001
,
1000
0000
0100
0010
,
0020
0030
0001
0100
,
1000
0000
0010
0100
,
0020
0030
0020
0030
,
0020
0030
0000
0000
,
0100
0001
1000
1000
,
1000
0001
0001
0100
,
0020
0030
1000
0001
,
0020
0000
0030
0000
;

//--------------- dance-single - ----------------
#NOTES:
     dance-single:
     :
     Medium:
     5:
     0,0,0,0,0:
0000
0000
0000
0000
,
0000
0000
0000
0000
,
0001
0000
0010
0001
0000
0010
0100
0000
,
1000
0000
0000
0010
0000
0000
0000
0100
0000
0000
0010
0000
0100
0000
0000
0000
,
0001
0000
1000
0100
0000
1000
0001
0010
,
0100
0010
0200
0310
,
0001
0000
1000
0001
1000
0000
0010
0000
,
1000
0000
0001
1000
0001
0000
0100
0000
,
0010
0000
1000
0001
1000
0000
0001
1000
,
0001
0000
0100
0100
0100
0000
0200
0000
,
0301
1000
0000
0001
0000
1000
0100
0000
,
1000
0001
0000
1000
0000
0001
0010
0000
,
0100
1000
0000
0010
0000
0100
0001
0000
,
0010
0001
0000
0010
0000
0100
1000
0000
,
0010
0000
1000
0001
1000
0000
0100
1000
,
0001
0000
0001
1000
0100
0010
0100
0000
,
0010
0000
1000
0000
0001
0100
0010
1000
,
0100
0000
1000
0001
0010
0000
1001
0000
,
0001
0000
0000
1000
1000
1000
0000
0010
,
0100
0000
0000
0001
0001
0001
0000
1000
,
0010
0000
0000
0100
0001
1000
0100
0000
,
0020
0000
0031
0000
1000
0010
0100
0000
,
0020
0000
1030
0000
0001
0010
0100
0000
,
1000
0000
0001
0000
0010
0001
0100
0000
,
0001
0000
1000
0000
0010
1000
0100
0000
,
0001
1000
0001
0000
2000
0000
3002
0000
,
0203
0000
0300
0000
0001
0010
0100
0000
,
1000
0000
0010
0000
0100
0001
1000
0000
,
0110
0010
1000
0001
,
0100
0001
1000
0000
0100
0100
0100
0000
,
1001
0010
1001
0100
,
1001
0000
0001
0000
1000
0100
1000
0000
,
0010
0000
0100
0000
0001
1000
0001
0000
,
1000
0000
1000
0000
0001
0100
0001
0000
,
0110
0000
1000
0000
0001
0010
0100
1000
,
0020
0000
0030
0000
;

//--------------- dance-single - ----------------
#NOTES:
     dance-single:
     :
     Hard:
     8:
     0,0,0,0,0:
0000
0000
0000
0000
,
0000
0000
0000
0000
,
1001
0000
1000
0010
0100
0000
0001
0000
1000
0000
0001
0000
0100
0001
0010
0000
,
0100
0000
0010
0100
0000
1000
0000
0001
0000
1000
0001
0000
0100
0001
0010
0000
,
0100
0000
1000
0010
1000
0000
0001
0000
0100
0000
0010
0000
0100
0001
1000
0000
,
0010
0000
1000
0001
0000
0010
0001
0100
0010
0000
0000
0000
1000
0001
0000
0000
,
0001
1000
0000
0000
0001
1000
0001
1000
0001
1000
0000
0000
0100
0010
0000
0000
,
0010
0100
0000
0000
0010
0100
0010
0100
0010
0100
0000
0000
1000
0010
0000
0000
,
1000
0100
0000
0000
0010
0100
0010
0100
0010
0100
0000
0000
1000
0001
1000
0001
,
1000
0000
0000
0001
0000
0000
0000
0000
0000
0000
0000
0000
0100
0000
0000
0010
0000
0000
0100
0000
0000
0010
0000
0000
0100
0000
0000
0010
0000
0000
0000
0000
0000
0000
0000
0000
1001
0000
0000
0000
1000
0000
0000
0000
0001
0000
0000
0000
,
1001
0000
0010
0001
1000
0000
0001
0000
1100
0000
0010
0000
0101
0000
1000
0001
,
1000
0000
0010
1000
0000
0001
0100
0001
0000
0010
0001
0000
1000
0000
0110
0000
,
0010
0000
0001
0010
0000
0001
1000
0000
0100
1000
0010
0000
1000
0001
0100
0000
,
0001
0000
1000
0100
1000
0010
0000
0100
0000
0000
0001
0000
0100
0000
1000
0000
,
0001
0000
0010
0001
1000
0000
0100
1000
0100
0000
0100
0000
0110
0000
0010
0000
,
0001
0000
1000
0010
0000
1000
0000
0001
0100
0000
0100
0000
1001
0000
0010
0000
,
1001
0000
0000
1000
0010
0000
1000
0001
0100
0000
0100
0000
0100
0001
0010
0000
,
0001
0000
1000
0010
0000
1000
0001
0010
0100
0000
0100
0000
0001
0000
0001
0000
,
2000
0000
0000
0000
3000
0000
0001
0100
0001
0000
0100
0000
0001
0000
0010
0000
,
0002
0000
1000
0000
1003
0000
0100
1000
0100
0000
1000
0000
0010
0000
0100
0000
,
0020
0000
0000
0000
0130
0000
0010
0100
0010
0000
1000
0000
0001
0000
0100
0000
,
0002
0000
0000
0000
1003
0000
0000
0000
0100
1000
0100
1000
0100
1000
0100
0000
,
2000
0000
0000
0000
3001
0000
0000
0000
0100
0001
0100
0001
0100
0001
0100
0000
,
0010
1000
0000
0000
0001
0100
0000
0000
0001
0010
0001
0010
0001
0010
0000
0000
,
0010
0001
0000
0000
1000
0100
0000
0000
1000
0010
1000
0010
1000
0010
0000
0000
,
0100
0010
0100
0010
0100
0010
0000
0000
0002
0000
2003
0000
3020
0000
0030
0000
,
0220
0000
0330
0000
0002
0000
0000
0000
0013
0001
0010
0000
0100
0000
0000
0000
,
1000
0000
0010
0000
2000
0000
0000
0000
3010
1000
0010
0000
0100
0000
0000
0000
,
2002
3003
0200
0000
0320
0000
0230
0000
,
0302
0000
0000
0000
1003
0000
0000
0000
0001
1000
0001
1000
0001
1000
0000
0000
,
0202
0000
0303
0000
0001
0000
0000
0000
0001
0010
0001
0000
0100
0000
0001
0000
,
2200
0000
3300
0000
1000
0000
0000
0000
1000
0010
1000
0000
0100
0000
1000
0000
,
0002
0000
0000
0000
0013
0000
0001
0000
1000
0100
1000
0001
1000
0100
1000
0000
,
0010
0100
0000
0000
0010
0100
0000
0000
0001
0000
1000
0000
0002
0000
0003
0000
,
0220
0000
0330
0000
0001
0010
0000
0000
0001
1000
0001
0100
0001
1000
0001
0000
,
0020
0000
0030
0000
;

//--------------- dance-double - ----------------
#NOTES:
     dance-double:
     :
     Easy:
     3:
     0,0,0,0,0:
00000000
00000000
00000000
00000000
,
00000000
00000000
00000000
00000000
,
00000010
00000000
00000100
00000000
,
00001000
00010000
00000100
00000010
,
00000100
00000000
00010000
00000000
,
00001000
01000000
00100000
10000000
,
10000000
01000000
00010000
00001000
,
00001000
00000100
00001000
00010000
,
00000000
01000000
00000000
10000000
,
00010000
10000000
00010000
10010000
,
00100000
00001000
00010000
00000010
,
00000100
00000100
00000100
00000100
,
00000001
00001000
00000100
00000010
,
00000100
00000100
00000100
00000100
,
00010000
00001000
00100000
00010000
,
01000000
01000000
01000000
01000000
,
00100000
10000000
00010000
10000000
,
01000000
01000000
01000000
01000000
,
00000000
00010000
00001000
00010000
,
00000000
00001000
00010000
00001000
,
00000000
00000100
00000010
00000100
,
00000002
00000003
00001000
00000100
,
00002000
00003000
00000010
00010000
,
00001000
00000000
00100000
01000000
,
02000000
03000000
10000000
00010000
,
02000000
03000000
00002000
00023000
,
00030020
00000030
00000100
00000001
,
00001000
00000100
00000010
00000010
,
00000200
00000300
00010000
00001000
,
00010000
00000000
00001000
00000000
,
00200000
00300000
02000000
03000000
,
20020000
30030000
00001000
00010000
,
00000100
00000010
00000001
00001000
,
00000010
00000000
00000010
00001000
,
00022000
00033000
00000100
00000010
,
00000002
00000000
00000003
00000000
;

//--------------- dance-double - ----------------
#NOTES:
     dance-double:
     :
     Medium:
     5:
     0,0,0,0,0:
00000000
00000000
00000000
00000000
,
00000000
00000000
00000000
00000000
,
01000000
00000000
00010000
00000000
10000000
00010000
10000000
00010000
,
00100000
00000000
01000000
00010000
00001000
00000000
00010000
00000000
,
00000010
00000000
00001000
00000000
00000001
00000010
00000100
00000000
,
00000010
00000001
00001000
00000010
00000200
00000000
00000301
00000000
,
00001001
00000000
00001000
00000100
00001000
00000000
00000010
00000000
,
00000110
00000000
00000100
00001000
00010000
00000000
00001000
00000000
,
00011000
00000000
00100000
01000000
00100000
00000000
00010000
10000000
,
00010000
00000000
10000000
00010000
10000000
00000000
02000000
00000000
,
03100000
00000000
00001000
00000000
00010000
00000100
00010000
00001000
,
01000000
00000000
00100000
00000000
10000000
01000000
00100000
01000000
,
00100000
00000000
00001000
00000000
00010000
00000000
00000100
00000010
,
00000001
00000000
00000100
00000010
00001000
00000001
00001000
00000001
,
00001000
00000100
00010000
00001000
,
00100000
01000000
10000000
00010000
00100000
00000000
01000000
00000000
,
00010000
00001000
00010000
00000000
00000100
00000010
00000100
00000000
,
00001000
00000010
00000100
00000000
00000100
00000000
00000001
00000000
,
00002000
00000000
00003000
00000010
00000010
00000010
00000000
00000000
,
00020000
00000000
00030000
00100000
00100000
00100000
00000000
00000000
,
02000000
00000000
03000000
00001000
00010000
00000100
00000000
00000000
,
00000010
00000000
00000010
00000000
00000100
00001000
00000010
00000000
,
00000100
00000000
00000100
00000000
00000010
00010000
00001000
00000000
,
00100000
00000000
00100000
00000000
00010000
00100000
01000000
00000000
,
00100000
00000000
00100000
00000000
00001000
00010000
00000100
00000000
,
00000020
00000032
00002003
00003010
,
00001001
00000000
00000001
00000000
00000100
00000010
00001000
00000000
,
00000010
00000000
00010000
00000000
00001000
00100000
00010000
00000000
,
10010000
00000000
10000000
00000000
01000000
10000000
01000000
00000000
,
00100000
00000000
00001000
00000000
00010000
00001000
00010000
00000000
,
00011000
00000100
00000110
00000001
,
00001100
00010000
00001000
00100000
,
00010000
00000000
10000000
00000000
01000000
00100000
00010000
00000000
,
01000000
00001000
00010000
00000000
00001000
00100000
00010000
00000000
,
01010000
00000000
00100000
00000000
00001000
00010000
00000100
00000000
,
00020000
00000000
00030000
00000000
;

//--------------- dance-double - ----------------
#NOTES:
     dance-double:
     :
     Hard:
     8:
     0,0,0,0,0:
00000000
00000000
00000000
00000000
,
00000000
00000000
00000000
00000000
,
00001000
00000000
00010000
00001000
01000000
00000000
00100000
10000000
01000000
00000000
00100000
00000000
00101000
00000000
00010000
00000000
,
00010100
00000000
00000010
00000001
00001000
00000100
00000000
00000110
00000000
00000000
00000010
00000000
00000001
00000000
00000100
00000000
,
00001000
00000000
00010000
00000100
00010000
00000000
00000010
00001000
00000010
00000000
00000100
00000000
00001000
00000000
00010000
00000000
,
01000000
00000000
10000000
00100000
10000000
00002000
00000000
02000000
00000000
00000000
03003000
00000000
00010000
00001000
00000000
00000000
,
00001000
00010000
00000000
00000000
00001000
00010000
00001000
00010000
00001000
00010000
00000000
00000000
00010000
00001000
00000000
00000000
,
00001000
00010000
00000000
00000000
00001000
00010000
00001000
00010000
00001000
00010000
00000000
00000000
00010000
00001000
00000000
00000000
,
00001000
00010000
00000000
00000000
00001000
00010000
00001000
00010000
00001000
00010000
00000000
00000000
00000100
00001000
00000100
00001000
,
00000100
00000000
00000000
00001000
00000000
00000000
00000100
00000000
00000000
00000000
00000000
00000000
01000000
00000000
00000000
00010000
00000000
00000000
01000000
00000000
00000000
00010000
00000000
00000000
01000000
00000000
00000000
00010000
00000000
00000000
01000000
00000000
00000000
00000000
00000000
00000000
00011000
00000000
00000000
00000000
00001000
00000000
00000000
00000000
01000000
00000000
00000000
00000000
,
01100000
00000000
10000000
01000000
10000000
00000000
00010000
00100000
00001000
00000000
01000000
00000000
00011000
00000000
00000100
00000000
,
00000110
00000000
00000001
00000010
00000001
00000100
00000000
00001010
00000000
00000100
00000010
00000000
00010000
00001000
00100000
00000000
,
00010000
00000000
10000000
01000000
00100000
00000000
01000000
00100000
00001000
00000000
00100000
00000000
00110000
00000000
01000000
00000000
,
00100000
00000000
10000000
00010000
00100000
00001000
00000000
00010000
00000100
00000000
00000010
00000000
00000101
00000000
00000010
00000000
,
00002000
00000000
00000001
00000000
00003001
00000000
00000100
00000001
00000010
00000000
00000100
00000000
00000110
00000000
00000001
00000000
,
00000200
00000000
00001000
00000000
00001300
00000000
00010000
00001000
00010000
00000000
01000000
00000000
01100000
00000000
00100000
00000000
,
00020000
00000000
10000000
00000000
10030000
00000000
00100000
01000000
00010000
00000000
10000000
00000000
01000000
00000000
10000000
00000000
,
00200000
00000000
01000000
00000000
01300000
00000000
00010000
00100000
00001000
00000000
00010000
00000000
00001100
00000000
00000020
00000000
,
00000001
00000000
00000000
00000000
00000031
00000000
00000100
00000001
00001000
00000000
00000100
00000000
00000010
00000000
00000200
00000000
,
00001000
00000000
00001000
00000000
00001300
00000000
00000010
00001000
00000010
00000000
00000100
00000000
00001000
00000000
00010000
00000000
,
00022000
00000000
00000000
00000000
00033000
00000000
00100000
00001000
00010000
00000000
00000010
00000000
00000100
00000000
00000000
00000000
,
00000001
00000010
00000000
00000000
00000001
00000100
00000000
00000000
00001000
00010000
00001000
00010000
00001000
00010000
00001000
00000000
,
00100000
00010000
00000000
00000000
10000000
01000000
00000000
00000000
00100000
01000000
00100000
01000000
00100000
01000000
00100000
00000000
,
00001000
00010000
00000000
00000000
00000100
00001000
00000000
00000000
00000010
00000100
00000010
00000100
00000010
00000100
00000010
00000000
,
00010000
00000100
00000000
00000000
00001000
01000000
00000000
00000000
00100000
10000000
00010000
00000000
00100000
00010000
10000000
00000000
,
00001000
00010000
00001000
00000000
00010000
00001000
00010000
00000000
00000200
00000000
00000320
00000000
00000032
00000000
00000103
00000000
,
00002020
00000000
00003030
00000000
00010000
00001000
00000000
00000000
00100000
00010000
00100000
00000000
00001000
00000000
01000000
00000000
,
00100000
10000000
00000000
00000000
00010000
00100000
00000000
00000000
00001000
00010000
00000100
00000000
00001000
00000000
00000100
00000000
,
00000220
00000000
00000330
00000000
00000010
00000001
00000100
00000000
00000001
00000000
00001000
00000000
00000010
00010000
00001000
00000000
,
00100000
01000000
00000000
00000000
10000000
01000000
00000000
00000000
10000000
00010000
10000000
00000000
00010000
00000000
00100000
00000000
,
00202000
00003000
00301000
00000000
00020020
00030000
00010030
00000000
,
00022000
00000000
00033000
00000000
00001000
00000000
00000000
00000000
00010000
00001000
00010000
00000000
00000100
00000000
00000010
00000000
,
00000001
00000100
00000000
00000000
00000010
00010000
00000000
00000000
00001000
00100000
00001000
00000000
01000000
00000000
00010000
00000000
,
10000000
01000000
00000000
00000000
10000000
00010000
00000000
00000000
00100000
00001000
00100000
00001000
00100000
00001000
00000000
00000000
,
00020200
00000000
00030300
00000000
00000010
00001000
00000000
00000000
00000010
00010000
00000010
00010000
00000010
00010000
00000000
00000000
,
00000200
00000000
00000300
00000000
;
