#TITLE:Wii Fit U Staff Credits;
#SUBTITLE:(Funny Mix 3 Credits);
#ARTIST:Nintendo;
#TITLETRANSLIT:;
#SUBTITLETRANSLIT:;
#ARTISTTRANSLIT:;
#GENRE:;
#CREDIT:8Chasey 2025/Funny Mix 3;
#MUSIC:Wii Fit U Staff Credits.ogg;
#BANNER:;
#BACKGROUND:;
#CDTITLE:;
#SAMPLESTART:62.120;
#SAMPLELENGTH:12.000;
#SELECTABLE:YES;
#OFFSET:-0.200;
#BPMS:0.000=124.000;
#STOPS:230.000=1.100;
#DISPLAYBPM:124.000;
#BGCHANGES:;
#FGCHANGES:;

//--------------- dance-single - NOVICE ----------------
#NOTES:
     dance-single:
     NOVICE:
     Easy:
     3:
     0,0,0,0,0:
0000
0000
0000
0000
,
0000
0000
0000
0000
,
0000
0000
0000
0000
,
0000
0000
0000
0000
,
1000
0000
0001
0000
1000
0000
0001
1000
,
0001
0010
0100
0010
,
0001
0000
1000
0000
0001
1000
0001
0000
,
1000
0000
0010
0100
0000
0000
0000
0000
,
0100
0000
0010
0000
0100
0010
0100
0000
,
0001
0000
0010
0000
1000
0000
0010
0100
,
0010
0100
0010
0000
,
0100
0000
0000
0010
0001
0000
1000
0000
,
1001
0000
0001
0100
,
0001
0000
0100
0000
,
0010
0000
0000
0000
1000
0100
1000
0000
,
0001
0000
0100
0010
,
0110
0000
0010
1000
,
0100
0000
1000
0000
,
0001
0000
0100
0000
,
0010
1000
0001
0100
,
1001
0000
0001
0010
,
0001
1000
0100
0000
,
1000
0000
0000
0000
0001
0100
0001
0000
,
0010
0000
0100
0010
,
0110
0000
0100
1000
,
0100
1000
0001
0000
,
0010
0001
0100
0000
,
0010
1000
0100
0010
,
1001
0000
0001
0000
,
1000
0000
0010
0000
1000
0000
0010
0100
,
0010
0100
0010
1000
,
0001
0000
1000
0001
0000
0000
1001
0000
,
0001
0000
0001
0000
,
0100
0000
0000
0100
0000
0000
0001
0000
0000
0000
0000
0000
0000
0000
0000
0000
,
1000
0000
1000
0000
,
0010
0000
0000
0010
0000
0000
1000
0000
0000
0000
0000
0000
0000
0000
0000
0000
,
0100
0000
0000
0100
0000
0000
0000
0000
,
1000
0000
0001
1000
0001
0000
0000
0000
,
0010
0000
0000
0010
0000
0000
0000
0000
,
0001
0000
1000
0001
1000
0000
0000
0000
,
1001
0000
0010
0000
,
1000
0100
1000
0000
,
0001
0000
0010
0000
,
0001
0100
0001
0000
,
1000
0100
0001
0000
,
1000
0010
0001
0000
,
0001
0100
1000
0000
,
0001
0010
1000
0000
,
0000
0000
0000
0000
1001
0000
0000
1001
0000
0000
0000
0000
0000
0000
0000
0000
,
1001
0000
0000
0000
,
0001
0010
0001
1000
,
0100
1000
0001
0000
,
0010
0000
0001
0100
,
0010
0000
1000
0100
,
1000
0000
0001
0000
,
0100
0000
0000
0000
0010
0100
0010
0000
,
0100
0000
0001
0000
,
1000
0000
0110
0000
,
0000
0000
0000
0000
0000
0001
1000
0001
,
0000
0100
0000
0010
0000
0000
0000
0000
,
0000
0000
0000
0000
0000
1000
0001
1000
,
0000
0000
1001
0000
0100
0000
0000
0001
,
0000
0000
0010
0000
0100
0000
1000
0001
,
0000
1000
1000
0000
0010
0000
0000
1000
,
0000
0000
0100
0000
1000
0000
0001
1000
,
0000
0001
0001
0000
2002
0000
0000
0000
,
0000
0000
0000
0000
,
3003
0000
0000
0000
;

//--------------- dance-double - DOUBLE ----------------
#NOTES:
     dance-double:
     DOUBLE:
     Easy:
     3:
     0,0,0,0,0:
00000000
00000000
00000000
00000000
,
00000000
00000000
00000000
00000000
,
00000000
00000000
00000000
00000000
,
00000000
00000000
00000000
00000000
,
00010000
00001000
00010000
00000100
,
00000000
00001000
00000010
00001000
,
00000000
00000001
00000100
00000010
,
00001000
00000100
00010000
00000000
,
00001000
00100000
00001000
00000000
,
10000000
00010000
10000000
00000000
,
01000000
00100000
01000000
00100000
,
00001000
00010000
00001000
00010000
,
00011000
00000000
00000100
00001000
,
00000100
00000010
00000001
00000000
,
00000100
00000001
00000100
00001000
,
00010000
00000000
00001000
00100000
,
01100000
00000000
10000000
01000000
,
10000000
00010000
01000000
00000000
,
00001000
00010000
00001000
00000000
,
00100000
00001000
00010000
00000100
,
00001100
00000000
00001000
00000010
,
00001000
00000001
00000100
00000100
,
00000001
00000100
00000010
00000100
,
00001000
00000000
00100000
00010000
,
01010000
00000000
01000000
00010000
,
10000000
00100000
10000000
10000000
,
00100000
10000000
00010000
00000000
,
01000000
00001000
00010000
00000100
,
00000110
00000000
00000010
00000000
,
00000001
00000000
00000100
00000000
,
00001000
00000000
00010000
00001000
,
00010000
00000000
00000000
00011000
,
00001000
00000000
00010000
00000000
,
00000100
00000000
00000000
00000100
00000000
00000000
00000000
00000000
,
00010000
00000000
00001000
00000000
,
01000000
00000000
00000000
01000000
00000000
00000000
00000000
00000000
,
00100000
00000000
00000000
01000000
00000000
00000000
00000000
00000000
,
00001000
00000000
00000000
00001000
00000000
00000000
00000000
00000000
,
00000010
00000000
00000000
00000100
00000000
00000000
00000000
00000000
,
00010000
00000000
00000000
00010000
00000000
00000000
00000000
00000000
,
00011000
00000000
00001000
00000000
,
00100000
00001000
00100000
00000000
,
00001000
00000000
01000000
00000000
,
00100000
01000000
00100000
00000000
,
10000000
01000000
00010000
00000000
,
00001000
00000100
00000001
00000000
,
00000001
00000010
00001000
00000000
,
00010000
00100000
10000000
00000000
,
00000000
00000000
00000000
00000000
00100000
00000000
00000000
01000000
00000000
00000000
00000000
00000000
00000000
00000000
00000000
00000000
,
10010000
00000000
00000000
00000000
,
10000000
00010000
01000000
00001000
,
00010000
00001000
01000000
00000000
,
00010000
00100000
00010000
00000000
,
10000000
01000000
10000000
00000000
,
00100000
00000000
01000000
00000000
,
00001000
00000000
00010000
00000000
,
00000100
00000000
00000010
00000000
,
00000001
00000000
00001001
00000000
,
00001000
00000000
00000000
00000000
00000000
00000100
00000000
00000100
,
00000000
00000000
00011000
00000000
,
00001000
00000000
00000000
00000000
00000000
01000000
00000000
01000000
,
00000000
10010000
00000000
00010000
,
10000000
00000000
01000000
00010000
,
00001000
00000000
00010000
00000010
,
00000100
00000000
00000001
00000000
,
00001000
00000000
00001001
00000000
;

//--------------- dance-solo - (unused) MY-FIRST ----------------
#NOTES:
     dance-solo:
     (unused) MY-FIRST:
     Easy:
     1:
     0,0,0,0,0:
000000
000000
000000
000000
,
000000
000000
000000
000000
,
000000
000000
000000
000000
,
000000
000000
000000
000000
,
000000
000010
000000
000010
,
000000
100000
000000
000001
,
000000
010000
000000
010000
,
000000
000100
000000
001000
,
000000
000001
000000
000001
,
000000
100000
000000
100000
,
000000
000010
000000
010000
,
000000
000100
000100
000000
,
010010
000000
000000
000000
,
000001
000000
000000
000000
,
001000
000000
000000
000000
,
100000
000000
000000
000000
,
001100
000000
000000
000000
,
010000
000000
000000
000000
,
000100
000000
000000
000000
,
000010
000000
001000
000000
,
100001
000000
000000
000000
,
010000
000000
000000
000000
,
100000
000000
000000
000000
,
000010
000000
000000
000000
,
100001
000000
000000
000000
,
001000
000000
000000
000000
,
000100
000000
010000
000000
,
000010
000000
000000
000000
,
100000
000000
000000
000000
,
000001
000000
000000
000000
,
001000
000000
000000
000000
,
000100
000000
000000
010010
,
010000
000000
010000
000000
,
000001
000000
000000
000000
,
000010
000000
000010
000000
,
100000
000000
000000
000000
,
001000
000000
001000
000000
,
000001
000000
000000
000000
,
000100
000000
000100
000000
,
100000
000000
000000
000000
,
000001
000000
000000
000000
,
010000
000000
000000
000000
,
000010
000000
000000
000000
,
100000
000000
000000
000000
,
000001
000000
001000
000000
,
100000
000000
000100
000000
,
010000
000000
000010
000000
,
001000
000000
000100
000000
,
000000
010010
000000
000000
,
100001
000000
000000
000000
,
100000
000000
000100
000000
,
001000
000000
000001
000000
,
000100
000000
000000
000000
,
001000
000000
000000
000000
,
010000
000000
000000
000000
,
000010
000000
000000
000000
,
100001
000000
000000
000000
,
000000
000000
000100
000000
,
000000
000000
000000
001000
,
001000
000000
000000
000000
,
000000
000000
000000
000100
,
000100
000000
010010
000000
,
000000
000000
000001
000001
,
000001
000000
100000
000000
,
000001
000000
100000
100000
,
100000
000000
100001
000000
;
