#VERSION:0.83;
#TITLE:Wii Fit Medley;
#SUBTITLE:(from Ring Fit Adventure);
#ARTIST:Nintendo;
#TITLETRANSLIT:;
#SUBTITLETRANSLIT:;
#ARTISTTRANSLIT:;
#GENRE:;
#ORIGIN:;
#CREDIT:;
#BANNER:Wii Fit Medley.png;
#BACKGROUND:Wii Fit Medley-bg.jpg;
#PREVIEWVID:;
#JACKET:;
#CDIMAGE:;
#DISCIMAGE:;
#LYRICSPATH:;
#CDTITLE:;
#MUSIC:Wii Fit Medley.ogg;
#OFFSET:1.900000;
#SAMPLESTART:-0.020000;
#SAMPLELENGTH:153.348190;
#SELECTABLE:YES;
#BPMS:0.000=125.000,
12.000=124.000,
16.000=122.000;
#STOPS:;
#DELAYS:;
#WARPS:;
#TIMESIGNATURES:0.000=4=4;
#TICKCOUNTS:0.000=4;
#COMBOS:0.000=1;
#SPEEDS:0.000=1.000=0.000=0;
#SCROLLS:0.000=1.000;
#FAKES:;
#LABELS:4.000=Wii Fit Bootup,
16.000=Advanced Step Intro,
24.000=Pink Normal Steps,
56.000=Blue Side Steps,
88.000=Green Kick Steps,
124.000=Clap Along!,
148.000=Feel The Beat!,
180.000=Purple Horizontal Steps,
220.000=Let's Go Even Faster!,
256.000=Focus!,
288.000=Almost At The End!,
304.000=Great Job!;
#LASTSECONDHINT:149.366547;
#BGCHANGES:;
#KEYSOUNDS:;
#ATTACKS:
;

//---------------dance-single - ----------------
#NOTEDATA:;
#CHARTNAME:8Chasey;
#STEPSTYPE:dance-single;
#DESCRIPTION:;
#CHARTSTYLE:;
#DIFFICULTY:Beginner;
#METER:2;
#RADARVALUES:0.189308,0.320896,0.207868,0.000000,0.000000,204.000000,172.000000,32.000000,0.000000,0.000000,0.000000,0.000000,0.000000,0.000000,0.189308,0.320896,0.207868,0.000000,0.000000,204.000000,172.000000,32.000000,0.000000,0.000000,0.000000,0.000000,0.000000,0.000000;
#CREDIT:;
#NOTES:
0000
0000
0000
0000
,
0001
0000
1000
0000
,
0001
0000
0000
0000
,
0000
0000
0000
0000
,
0001
0000
0001
0000
,
1000
0000
1000
0000
,
0001
0001
0001
0000
,
1000
0000
0001
0000
,
1000
1000
1000
0000
,
0001
0000
1000
0000
,
0010
0010
0010
0000
,
0100
0000
0000
0000
,
0100
0100
0100
0000
,
0010
0000
0000
0000
,
0001
0000
1000
0000
,
1001
0000
0000
0000
,
1000
0000
0001
0000
,
1001
0000
0000
0000
,
0010
0000
0100
0000
,
0110
0000
0000
0000
,
0100
0000
0010
0000
,
0110
0000
0000
0000
,
1001
0000
1001
0000
,
1001
0000
0010
0000
,
0000
1000
1000
1000
,
1000
0000
0100
0000
,
0000
0001
0001
0001
,
0001
0000
0100
0000
,
0010
0000
1000
1000
,
1000
0000
0100
0000
,
0010
0000
0001
0000
,
0100
0000
1000
0000
,
0000
0100
0100
0100
,
0100
0000
0001
0000
,
0000
0010
0010
0010
,
0010
0000
0100
0000
,
0010
0010
0010
0000
,
1001
0000
0001
0000
,
0010
0010
0010
0000
,
1001
0000
0100
0000
,
1000
1000
1000
0000
,
0110
0000
0010
0000
,
0001
0001
0001
0000
,
0110
0000
1001
0000
,
0110
0000
0000
0000
,
1001
1001
0000
0010
,
0000
1000
1000
0000
,
1001
1001
0000
0001
,
0000
0010
0010
0000
,
0110
0110
0000
1000
,
1000
0000
0001
0001
,
0001
0000
0010
0000
,
0010
0000
0100
0000
,
0001
0000
0001
0000
,
1000
0000
1000
0000
,
1001
1001
1001
0000
,
0110
0110
0110
0000
,
0001
0001
0000
1000
,
0000
0100
0100
0100
,
0100
0000
0010
0010
,
0000
0001
0001
0001
,
0001
0000
1000
0000
,
0100
0100
0100
0000
,
1001
1001
1001
0000
,
0010
0000
1000
0000
,
0001
0001
0001
0000
,
0010
0000
0001
0000
,
1000
1000
1000
0000
,
0001
0000
0100
0000
,
0010
0010
0010
0000
,
1001
0000
0110
0000
,
1001
0000
0000
0000
,
0010
0010
0010
0000
,
0100
0100
0100
0000
,
0001
0001
0001
0000
,
1000
1000
1000
0000
,
1001
0000
0000
0000
;

//---------------dance-single - ----------------
#NOTEDATA:;
#CHARTNAME:;
#STEPSTYPE:dance-single;
#DESCRIPTION:;
#CHARTSTYLE:;
#DIFFICULTY:Easy;
#METER:4;
#RADARVALUES:0.268187,0.450164,0.337785,0.292314,0.000000,289.000000,237.000000,52.000000,45.000000,0.000000,0.000000,0.000000,0.000000,0.000000,0.268187,0.450164,0.337785,0.292314,0.000000,289.000000,237.000000,52.000000,45.000000,0.000000,0.000000,0.000000,0.000000,0.000000;
#CREDIT:8Chasey;
#NOTES:
0000
0000
0000
0000
,
0100
0000
0001
0000
1000
0000
0000
2002
,
0000
0000
0000
0000
,
0000
3003
0000
0000
,
0100
0100
0010
1000
,
0001
0001
0100
0010
,
1000
1000
0100
0010
,
0000
1000
0000
0000
0001
0000
0000
0000
,
0001
0001
0010
0100
,
0000
0001
0000
0000
1000
0000
0000
0000
,
0100
0100
0010
0010
,
0000
1000
0000
0000
0001
0000
0100
0000
,
0010
0010
1000
0001
,
2002
0000
3003
0000
,
0100
0100
0001
1000
,
0000
0010
0000
0000
0100
0000
0000
0000
,
0010
0010
1000
0001
,
0000
0100
0000
0000
0010
0000
0000
0000
,
0001
1000
0001
1000
,
0000
0010
0000
0000
0100
0000
0000
0000
,
0001
0001
0100
0010
,
0220
0000
0330
0000
,
1001
1001
0110
0110
,
2002
3003
0010
0100
,
0000
1000
0100
0010
,
0002
0003
1000
1001
,
0000
0001
0010
0100
,
2000
3000
0010
0100
,
0220
0330
0001
1000
,
2002
3003
0220
0330
,
2002
3003
0220
0330
,
0001
1000
0001
1000
,
0000
0100
0001
1000
,
0020
0030
0100
0110
,
0000
0010
1000
0001
,
0200
0300
0001
1000
,
0010
0100
0001
1000
,
0001
1000
0001
0100
,
0000
0110
0000
0000
1001
0000
0000
0000
,
0010
0100
0100
0001
,
0000
1001
0000
0000
0110
0000
0000
0000
,
0010
0100
1000
0001
,
0000
0100
0000
0000
0110
0000
0000
0000
,
0010
0100
0001
1000
,
2002
3003
0010
0010
,
0220
0330
0000
0001
,
0001
0000
0000
1000
0000
0000
1000
0000
,
2002
3003
0010
0100
,
0001
1000
1001
1001
,
0220
0330
1000
1000
,
0001
1000
0001
1001
,
2002
3003
0010
0100
,
0220
0330
1000
0001
,
0220
0330
2002
3003
,
0010
0100
1000
0001
,
1001
1001
0110
0110
,
1001
1001
0110
0110
,
1001
0001
0110
0100
,
0000
0001
0010
0100
,
1001
1000
0110
0010
,
0000
1000
0001
0100
,
0002
0003
2000
3000
,
0010
0010
0200
0300
,
1001
0110
1001
0110
,
0001
0001
1000
1000
,
0000
0010
0000
0000
0100
0000
0110
0000
,
0100
0100
0010
0010
,
0000
1000
0000
0000
0001
0000
1001
0000
,
0100
0010
0001
0010
,
0001
1000
1001
0110
,
0002
0003
0100
0100
,
2000
3000
0100
0100
,
0001
0100
1000
0100
,
0001
0100
1000
0100
,
0001
0010
1000
0010
,
0001
0010
1000
0010
,
2002
0000
0000
0000
,
3003
0000
0000
0000
;

//---------------dance-single - ----------------
#NOTEDATA:;
#CHARTNAME:;
#STEPSTYPE:dance-single;
#DESCRIPTION:;
#CHARTSTYLE:;
#DIFFICULTY:Medium;
#METER:6;
#RADARVALUES:0.381400,0.425155,0.376760,0.318298,0.006496,411.000000,353.000000,58.000000,49.000000,0.000000,0.000000,0.000000,0.000000,0.000000,0.381400,0.425155,0.376760,0.318298,0.006496,411.000000,353.000000,58.000000,49.000000,0.000000,0.000000,0.000000,0.000000,0.000000;
#CREDIT:;
#NOTES:
0000
0000
0000
0000
,
0100
1000
0010
0000
0100
0001
0000
2002
,
0000
0000
0000
0000
,
0000
3003
0000
0000
,
0100
0002
1000
0000
0010
0000
1003
0000
,
0201
0000
0320
0000
1030
0001
1001
0000
,
0100
1000
0001
0000
0010
0000
0100
1000
,
0000
0001
0000
0100
0010
0000
0110
0000
,
0001
1000
0010
0000
0100
0000
0001
0010
,
0000
0100
0000
1000
0001
0000
1001
0000
,
0010
0010
0100
0000
0002
0000
0103
0020
,
0000
1000
0000
0100
0130
0000
0001
1000
,
0200
0310
1000
0020
,
0200
0000
0330
0000
1000
0100
0010
0000
,
0001
0100
0010
0000
1000
0000
0001
0100
,
0000
0010
0000
1000
0100
0000
1100
0000
,
0010
0001
1000
0000
0010
0000
1000
0100
,
0000
0010
0000
0001
0100
0000
0101
0000
,
0001
0010
0100
0000
0001
0000
1000
0100
,
0000
1000
0000
0001
1000
0000
0100
1000
,
0100
0020
0130
1001
,
0110
0000
0000
1000
0001
0100
0001
0000
,
0101
1001
1100
1001
,
0020
0000
1030
0000
0101
0000
1000
0100
,
1000
0020
0031
1001
,
0201
0000
0310
0000
1000
0100
0010
0001
,
0020
0230
1300
0101
,
0021
0001
0100
0130
,
1002
0000
0100
0013
,
2100
0000
3020
0000
,
0230
0301
1001
0100
,
0020
0000
1030
0000
0100
0001
0100
0000
,
1001
1100
1010
1100
,
1002
0000
0100
0000
0010
0003
0100
0001
,
1000
0101
0011
0101
,
2001
0000
0000
0010
0000
0000
3100
0000
,
0102
0000
1003
0000
0010
0100
0010
0000
,
0001
0100
0010
0000
0200
0000
0310
1000
,
0000
0001
0000
0001
1000
0000
1001
0000
,
0010
0010
0100
0000
1000
0001
1000
0000
,
0100
1000
0000
0100
0010
0000
0110
0000
,
0001
0010
0001
0000
1000
0100
1000
0000
,
0010
0100
0000
0001
1000
0000
0100
1000
,
0020
0100
1030
0100
,
2001
0000
0000
3100
1000
0100
0010
0000
,
1001
0000
0000
1001
0000
0000
0010
0000
0100
0000
0000
0000
0101
0000
0000
0000
,
1010
0000
0001
1000
0001
0000
0101
0000
,
0110
0000
0000
0110
0000
0000
0001
0000
0010
0000
0000
0000
0100
0000
0020
0000
,
0000
0100
0031
0002
,
0103
1000
0100
0001
0100
0020
0000
2000
,
0000
3030
0100
0000
0001
0010
0001
0000
,
1002
0100
1000
0010
,
2003
0000
0000
0000
3100
1000
0100
0020
,
0000
0001
0100
0001
,
0230
0000
0000
0000
1300
0100
0010
0002
,
1000
1000
0010
0013
,
1100
1100
0101
0101
,
0120
0000
1000
0000
0130
0000
0001
1000
,
0001
0101
1001
1100
,
0120
0000
0031
1000
0100
1000
0001
0000
,
0010
0000
0100
0000
0001
1000
0100
0000
,
2000
3100
0102
0013
,
0001
0010
0001
0000
0100
0000
1000
0000
,
1010
0011
1010
0011
,
0100
0010
1000
0010
1000
0000
0001
0000
,
0010
0001
0000
0100
0001
0010
0010
0000
,
1000
0100
0010
0100
0010
0000
0001
0000
,
1000
0001
0000
0010
0001
0100
0100
0000
,
1000
0100
1000
0000
0001
0100
0001
0000
,
1000
0020
0000
0130
0100
0000
0001
1000
,
0200
1000
0310
0001
,
0020
0000
0030
1000
0001
1000
0001
0000
,
0200
0000
0310
0000
0001
1000
0001
0000
,
0100
0010
0100
0000
0010
0100
0000
1001
,
0000
0010
1000
0100
0020
0000
0031
0000
,
0200
0000
0301
0000
0010
1000
0000
2002
,
0000
0000
0000
0000
,
3003
0000
0000
0000
;

//---------------dance-single - ----------------
#NOTEDATA:;
#CHARTNAME:;
#STEPSTYPE:dance-single;
#DESCRIPTION:;
#CHARTSTYLE:;
#DIFFICULTY:Hard;
#METER:8;
#RADARVALUES:0.468631,0.475173,0.298810,0.350777,0.029231,505.000000,459.000000,46.000000,54.000000,0.000000,0.000000,0.000000,0.000000,0.000000,0.468631,0.475173,0.298810,0.350777,0.029231,505.000000,459.000000,46.000000,54.000000,0.000000,0.000000,0.000000,0.000000,0.000000;
#CREDIT:;
#NOTES:
0000
0000
0000
0000
,
0100
1000
0010
0100
0001
0100
0000
2002
,
0000
0000
0000
0000
,
0000
3003
0000
0000
,
2000
0000
3010
0100
0010
1000
0001
0010
,
0002
0000
1000
0000
0103
0010
0100
0000
,
1000
0100
0010
0100
1000
0001
0100
0001
,
1000
0200
0000
0010
0310
0000
0110
0000
,
0010
0001
0010
0001
0100
0010
1000
0001
,
0100
0010
0000
1000
0001
0000
1001
0000
,
0010
0100
0010
1000
0001
0010
0001
0100
,
0001
2000
0000
0010
3010
0000
0100
0001
,
0200
0320
1030
0101
,
2020
0000
0030
3100
1000
0100
0010
0001
,
1000
0100
1000
0001
0010
0100
1000
0100
,
1000
0010
0000
0100
0020
0000
0130
0000
,
0001
0010
0001
0100
0010
0100
0001
1000
,
0001
0020
0000
0100
0230
0000
0301
0000
,
0010
1000
0100
0100
1000
0001
1000
0010
,
0100
0001
0000
0010
0010
0000
1000
0001
,
2000
3200
0320
0031
,
2002
0000
3000
0100
0103
0010
0100
0010
,
1000
0100
1000
0000
0001
0100
0001
0000
0010
0000
0010
0000
1000
0000
0001
0000
,
2000
0000
0010
3010
0100
0000
0001
0100
,
0001
1100
1010
0101
,
2010
0000
0100
0000
0001
3001
0100
0000
,
1100
0011
1001
0100
,
0220
0030
0001
0310
,
2000
0000
0100
0100
0010
0000
3001
0000
,
0022
0033
0202
0303
,
0012
0000
1003
0100
1000
0001
1000
0000
,
0020
0000
1030
0010
0100
0002
0010
0000
,
1003
1001
0200
0310
,
0012
0000
0003
1000
0100
1000
0010
0100
,
0001
0000
1010
0000
1001
0000
0100
0010
,
0200
0000
0301
0001
1000
0100
1000
0010
,
0200
0000
0301
0000
0001
0010
0100
1000
,
0010
0100
0010
1000
0001
0010
0001
0000
,
2010
0000
0001
0001
3001
0000
1001
0000
,
0010
0100
0010
1000
0001
1000
0001
0100
,
0001
0020
0000
0100
0130
0000
0110
0000
,
1000
0010
1000
0100
0010
0100
1000
0001
,
0010
0002
0000
1000
1003
0000
0100
0010
,
0200
0301
1010
0100
,
2002
0000
3003
0100
0001
0100
0010
0000
,
1001
0000
0000
1001
0000
0000
0010
0000
0010
0000
1000
0000
1000
0000
0002
0000
,
0000
0103
0010
2000
0001
0000
3001
0000
,
0110
0000
0000
0110
0000
0000
0010
0000
0001
0000
0010
0000
0100
0000
2000
0000
,
0000
0000
3010
0010
0100
0100
0001
0000
,
1100
0010
0001
1000
0100
1000
0010
0200
,
0000
0301
0010
0001
1000
0001
0100
0001
,
2000
0000
3001
0100
0002
0000
0013
0100
,
1000
0010
0100
0010
1000
0100
0010
0002
,
0000
1000
1003
0010
0100
0010
1000
0100
,
1000
0001
0010
0001
0100
0010
1000
0000
,
1010
0011
0101
1100
,
0110
0000
0000
0000
1001
0000
0000
0000
1000
0100
0010
0000
0001
0100
0010
0000
,
0200
0000
0310
0010
1000
0001
0100
0001
,
0200
0010
0301
1010
,
1001
0000
0000
0000
0010
0000
0001
0000
0010
0000
0100
1000
0100
0000
1000
0000
,
0001
0100
0010
0000
1001
0000
0110
0000
,
0001
0010
0100
1000
0010
0100
0001
1000
,
0010
0010
0100
0100
0001
1000
0100
1000
,
0010
0100
0010
0000
1000
0001
1000
0000
0001
0000
0100
0000
0010
0000
0010
0000
,
1000
0100
0010
0100
0010
0001
0100
0001
,
0010
0100
0010
0001
1000
0001
1001
0000
,
0010
0010
1000
0010
0100
0010
1000
0001
,
0100
0001
1000
0100
0010
0100
0110
0000
,
1000
0100
0010
0010
0001
0010
0001
1000
,
0100
0020
0000
0001
0031
0000
1000
0100
,
2000
3010
0101
1001
,
0010
0100
0010
1000
0001
1000
0001
0100
,
0010
0010
0100
0001
0100
0000
0001
1000
,
1000
0010
0100
0001
1000
0001
1000
0010
,
0200
0000
0301
1000
0001
0010
0010
0000
,
0101
0000
0010
0100
0010
1000
0002
2000
,
0000
0000
0000
0000
,
3003
0000
0000
0000
;

//---------------dance-single - ----------------
#NOTEDATA:;
#CHARTNAME:;
#STEPSTYPE:dance-single;
#DESCRIPTION:;
#CHARTSTYLE:;
#DIFFICULTY:Challenge;
#METER:9;
#RADARVALUES:0.523381,0.575209,0.337785,0.584628,0.165645,564.000000,512.000000,52.000000,90.000000,0.000000,0.000000,0.000000,0.000000,0.000000,0.523381,0.575209,0.337785,0.584628,0.165645,564.000000,512.000000,52.000000,90.000000,0.000000,0.000000,0.000000,0.000000,0.000000;
#CREDIT:;
#NOTES:
0000
0000
0000
0000
,
1200
0010
0310
1000
0100
1000
0002
2000
,
0000
0000
0000
0000
,
0000
0000
0000
3003
0000
0000
0000
0000
,
1100
0000
0001
0010
0002
0000
0000
0000
0100
0000
0100
0000
1003
0000
0000
0000
,
0100
1000
0100
0000
0010
0000
0001
0000
0010
0000
0100
0000
0110
0000
0000
0000
,
1000
0100
1000
0001
0100
0001
1000
0100
,
2000
0010
0000
0100
3001
0010
0100
0000
,
1000
0001
1000
0100
0010
0100
0010
0001
,
0010
0100
1000
0100
2000
0010
3010
0000
,
0001
0010
0001
0010
0100
1000
0100
1000
,
0020
1000
0000
0100
0130
0000
0001
1000
,
0002
0010
1000
0103
,
2020
0000
0030
0100
3100
0001
0100
0001
,
0010
0001
0010
0100
0010
0001
1000
0001
,
1000
0001
2000
0010
0010
0000
3100
0000
,
0001
0000
0010
0000
0001
0000
0010
0100
0010
0000
0001
0000
1000
0100
1000
0000
,
0020
0000
1000
0000
0000
0000
0130
0000
0010
0100
0001
1000
0001
0000
1000
0000
,
1001
0100
0010
1000
0010
0100
0001
0020
,
0001
0100
0001
0031
0010
0100
1000
0200
,
0020
0300
0032
0000
2003
0000
3100
0000
,
0022
0000
0033
1000
0100
1000
0001
1000
,
0010
0100
0010
1000
0001
0000
0100
0001
0000
1000
0010
0100
0010
0100
0001
0000
,
2001
0000
0000
0100
0000
3000
0001
0100
0000
0000
0010
0000
0001
0000
0100
0000
,
0001
0100
2001
0000
3010
0100
1001
0000
,
0120
0000
0000
0000
1030
0000
0001
0010
0001
0100
0000
0010
1000
0000
0000
0000
,
1100
0002
0020
0003
0031
1000
0020
0000
,
0200
0000
0330
1000
0001
1000
0010
0000
,
0102
0000
0013
0010
0100
0000
1001
0000
,
0210
0301
1020
0130
,
1001
0010
0100
0020
2000
0030
3001
0100
,
0002
0000
0000
0000
0013
0100
0010
0000
0001
0000
1000
0000
1001
0000
0000
0000
,
0110
0102
1003
2000
,
0002
0000
0000
0000
3003
0000
0010
0000
0001
0000
0100
0000
0001
0000
0010
0100
,
0010
0000
1001
0000
0101
0010
1001
0000
,
0200
0000
0010
0010
0301
0000
1200
1300
,
0002
0000
0010
0000
0100
0100
0010
0013
,
1100
0010
0002
1000
1003
0010
0001
0100
,
0020
1000
0000
0100
0230
0001
0301
0000
,
2010
0001
0100
0100
3001
0100
0010
0100
,
0010
0000
2001
0000
0000
0000
0100
0000
3100
0000
0010
1000
0010
0000
0000
0000
,
0101
0010
0002
1000
1003
0100
0001
0010
,
0002
1000
0000
0013
0200
0000
1000
1000
,
0320
0230
2300
3001
,
2002
0000
3003
0010
0100
0010
0011
0100
,
1001
0000
0000
1001
0000
0000
0001
0100
0001
1000
0010
0000
0100
0001
0200
0000
,
0000
0001
0001
0320
0100
0030
0110
0000
,
0101
0000
0000
1100
0000
0000
0010
0100
0010
1000
0010
1000
0001
2000
0002
0000
,
0000
0000
0003
0100
0010
0010
3020
0000
,
0130
0000
1001
0000
1000
0001
1000
0000
0010
0100
0020
0000
0000
0000
0100
0000
,
0030
0000
1000
0001
1000
0000
0001
0010
0001
0000
0010
0100
0010
0000
0001
0000
,
2002
0000
0000
0003
0000
0000
0010
0000
3100
0000
1000
0100
2000
0000
0010
0000
,
3010
0100
0010
2000
0000
3100
0010
1002
,
0000
0010
0010
0103
0001
0200
0000
0310
,
0100
0001
1000
0010
0001
1000
0010
0210
,
0001
0001
0010
0310
,
2100
0000
0000
0000
3001
0000
0010
0001
1000
0000
0001
0100
0010
0100
0001
0000
,
0012
0000
1000
0100
0103
0020
0130
0001
,
0001
2001
0010
3200
,
0020
0300
0000
0031
0010
0100
0010
0001
,
0001
0000
0000
0000
0201
0000
0000
0000
0010
0000
0001
0000
0310
0000
1000
0010
,
2000
0000
0100
0100
0001
0001
3100
0020
,
0032
0000
0203
0000
0310
1000
0001
1000
,
0001
0010
0001
0010
0100
1000
0100
1000
0001
0010
0100
1000
0200
0000
0000
0000
,
1300
0000
0100
0000
0010
0000
0001
0000
0010
0001
2000
0000
3100
0000
1000
0000
,
0010
0100
0010
1000
0001
1001
1001
0000
,
0010
0001
0010
0000
0100
0000
0010
0000
0200
0000
0000
0000
1000
0000
1300
0000
,
2000
0001
0000
3010
0100
0110
0110
0000
,
0010
0010
2000
0100
0100
0001
3001
0010
,
0100
0010
0001
1000
0002
0000
0100
0103
,
0020
1030
0201
0310
,
2002
0000
3000
0100
0010
0010
0100
0103
,
2010
0000
0000
0000
3001
0000
0100
0001
0100
0010
0100
0000
0001
0000
0001
0000
,
2000
0100
3100
0010
0001
0010
0001
0100
,
0120
0000
1000
1000
0130
0000
1001
0000
,
0010
0001
0010
0000
0100
1000
0100
0000
0010
0000
0001
0000
1000
0000
2002
0000
,
0000
0000
0000
0000
,
3003
0000
0000
0000
;

//---------------dance-double - ----------------
#NOTEDATA:;
#CHARTNAME:;
#STEPSTYPE:dance-double;
#DESCRIPTION:;
#CHARTSTYLE:;
#DIFFICULTY:Easy;
#METER:4;
#RADARVALUES:0.257051,0.425155,0.298810,0.279322,0.000000,277.000000,231.000000,46.000000,43.000000,0.000000,0.000000,0.000000,0.000000,0.000000,0.257051,0.425155,0.298810,0.279322,0.000000,277.000000,231.000000,46.000000,43.000000,0.000000,0.000000,0.000000,0.000000,0.000000;
#CREDIT:;
#NOTES:
// measure 0
00000000
00000000
00000000
00000000
,  // measure 1
00000000
00000000
00000000
00000000
,  // measure 2
00000000
00000000
00000000
00000000
,  // measure 3
00000000
00000000
00000000
00000000
,  // measure 4
00010000
00010000
00001000
00010000
,  // measure 5
00000100
00000100
00000010
00001000
,  // measure 6
00000001
00000001
00000100
00000010
,  // measure 7
00000000
00001000
00000000
00000000
00010000
00000000
00000000
00000000
,  // measure 8
00001000
00001000
00100000
01000000
,  // measure 9
00000000
00010000
00000000
00000000
01000000
00000000
00000000
00000000
,  // measure 10
00010000
00010000
00100000
00100000
,  // measure 11
00000000
00001000
00000000
00000000
00010000
00000000
00000100
00000000
,  // measure 12
00010000
00010000
00001000
00010000
,  // measure 13
00022000
00000000
00033000
00000000
,  // measure 14
00100000
00100000
00010000
01000000
,  // measure 15
00000000
00100000
00000000
00000000
00010000
00000000
00000000
00000000
,  // measure 16
00001000
00001000
00010000
00001000
,  // measure 17
00000000
00000100
00000000
00000000
00000010
00000000
00000000
00000000
,  // measure 18
00000001
00001000
00000001
00001000
,  // measure 19
00000100
00010000
00000000
00000000
00001000
00000000
00000000
00000000
,  // measure 20
00010000
00010000
01000000
00100000
,  // measure 21
02200000
00000000
03300000
00000000
,  // measure 22
00010000
00010000
00001000
00001000
,  // measure 23
00022000
00033000
00100000
00001000
,  // measure 24
00000000
00010000
00001000
00100000
,  // measure 25
00020000
00030000
10000000
10010000
,  // measure 26
00000000
00010000
00100000
00001000
,  // measure 27
02000000
03000000
00100000
01000000
,  // measure 28
00020000
00030000
00100000
00001000
,  // measure 29
00022000
00033000
20020000
30030000
,  // measure 30
00022000
00033000
00002002
00003003
,  // measure 31
00001000
00000100
00010000
00001000
,  // measure 32
00000000
01000000
00001000
00010000
,  // measure 33
00000020
00000030
00001000
00001100
,  // measure 34
00000000
00010000
00001000
00100000
,  // measure 35
02000000
03000000
00010000
10000000
,  // measure 36
00100000
01000000
00001000
00010000
,  // measure 37
00001000
00010000
00001000
01000000
,  // measure 38
00000000
01100000
00000000
00000000
10010000
00000000
00000000
00000000
,  // measure 39
00100000
01000000
01000000
00010000
,  // measure 40
00000000
00101000
00000000
00000000
00011000
00000000
00000000
00000000
,  // measure 41
00000010
00001000
00000100
00000000
,  // measure 42
00000000
00000100
00000000
00000000
00000110
00000000
00000000
00000000
,  // measure 43
00010010
00000000
00010100
00000000
,  // measure 44
00022000
00033000
00100000
00100000
,  // measure 45
00220000
00330000
00000000
00010000
,  // measure 46
00010000
00000000
00000000
00100000
00000000
00000000
00001000
00000000
,  // measure 47
00022000
00033000
00000010
00000100
,  // measure 48
00000001
00001000
00000010
00000110
,  // measure 49
00002002
00003003
00010000
00010000
,  // measure 50
00001000
10000000
00010000
10010000
,  // measure 51
20020000
30030000
00100000
01000000
,  // measure 52
00020000
00030000
00100000
00001000
,  // measure 53
00202000
00303000
00020200
00030300
,  // measure 54
00000010
00000100
00001000
00010000
,  // measure 55
00011000
00011000
10010000
10010000
,  // measure 56
00011000
00011000
00001001
00001001
,  // measure 57
00000010
00010000
00001000
00011000
,  // measure 58
00000000
00010000
00100000
01000000
,  // measure 59
01010000
00100000
00010000
00101000
,  // measure 60
00000000
10000000
00010000
01000000
,  // measure 61
00020000
00030000
00002000
00003000
,  // measure 62
00100000
00100000
00002000
00003000
,  // measure 63
10010000
00110000
00101000
00011000
,  // measure 64
00010000
00010000
00001000
00001000
,  // measure 65
00000000
00100000
00000000
00000000
00001000
00000000
00101000
00000000
,  // measure 66
00000100
00000100
00010000
00010000
,  // measure 67
00000000
00001000
00000000
00000000
00010000
00000000
00010100
00000000
,  // measure 68
00000100
00000010
00001000
00000010
,  // measure 69
00000100
00000001
00001001
00000100
,  // measure 70
00020020
00030030
00000100
00000100
,  // measure 71
00022000
00033000
01000000
01000000
,  // measure 72
00010000
01000000
00100000
01000000
,  // measure 73
00010000
01000000
00001000
00100000
,  // measure 74
00001000
00010000
00000100
00010000
,  // measure 75
00001000
00000100
00000010
00001000
,  // measure 76
00002002
00000000
00000000
00000000
,  // measure 77
00003003
00000000
00000000
00000000
;
